osu file format v14

[General]
AudioFilename: audio.mp3
AudioLeadIn: 0
PreviewTime: 55977
Countdown: 0
SampleSet: Normal
StackLeniency: 0.7
Mode: 1
LetterboxInBreaks: 0
WidescreenStoryboard: 1

[Editor]
DistanceSpacing: 1
BeatDivisor: 4
GridSize: 4
TimelineZoom: 1.2

[Metadata]
Title:Tabi no Hidarite, Saihate no Migite [Riko & Reg & Nanachi ver.]
TitleUnicode:旅の左手、最果ての右手[リコ&レグ&ナナチver.]
Artist:Tomita Miyu, Ise Mariya, Izawa Shiori
ArtistUnicode:富田美憂、伊瀬茉莉也、井澤詩織
Creator:Horiiizon
Version:Oni
Source:メイドインアビス
Tags:made in abyss meido abisu japanese anime tv size ed ending riko reg nanachi リコ レグ ナナチ cut version pop 橋本由香利 Hashimoto Yukari
BeatmapID:2497838
BeatmapSetID:1199437

[Difficulty]
HPDrainRate:5.5
CircleSize:5
OverallDifficulty:4.5
ApproachRate:5
SliderMultiplier:1.4
SliderTickRate:1

[Events]
//Background and Video events
0,0,"MIA.jpg",0,-25
//Break Periods
//Storyboard Layer 0 (Background)
//Storyboard Layer 1 (Fail)
//Storyboard Layer 2 (Pass)
//Storyboard Layer 3 (Foreground)
//Storyboard Layer 4 (Overlay)
//Storyboard Sound Samples

[TimingPoints]
593,659.340659340659,4,1,0,40,1,0
5785,-100,4,1,0,50,0,0
11060,-100,4,1,0,60,0,0
53669,-99.009900990099,4,1,0,60,0,0
53999,-98.0392156862745,4,1,0,60,0,0
54329,-97.0873786407767,4,1,0,60,0,0
54658,-96.1538461538461,4,1,0,60,0,0
54988,-95.2380952380952,4,1,0,60,0,0
55153,-94.7867298578199,4,1,0,60,0,0
55318,-94.3396226415094,4,1,0,60,0,0
55647,-93.4579439252336,4,1,0,60,0,0
55812,-93.0232558139535,4,1,0,60,0,0
55977,-92.5925925925926,4,1,0,60,0,1
80043,-93.4579439252336,4,1,0,60,0,1
80373,-94.3396226415094,4,1,0,60,0,1
80702,-95.2380952380952,4,1,0,60,0,1
81032,-96.1538461538461,4,1,0,60,0,1
81362,-97.0873786407767,4,1,0,60,0,1
81527,-97.5609756097561,4,1,0,60,0,1
81691,-98.0392156862745,4,1,0,60,0,1
82021,-99.009900990099,4,1,0,60,0,1
82186,-99.502487562189,4,1,0,60,0,1
82351,-100,4,1,0,60,0,0
82928,-100,4,1,0,50,0,0
103697,-100,4,1,0,30,0,0

[HitObjects]
199,240,593,5,0,0:0:0:0:
202,200,1911,1,0,0:0:0:0:
209,205,2241,1,0,0:0:0:0:
243,183,2571,1,8,0:0:0:0:
216,225,3230,1,8,0:0:0:0:
206,204,3395,1,8,0:0:0:0:
232,227,3560,1,8,0:0:0:0:
217,188,3889,1,8,0:0:0:0:
232,227,4219,1,0,0:0:0:0:
229,178,4549,1,0,0:0:0:0:
225,195,5208,1,0,0:0:0:0:
235,207,5538,1,8,0:0:0:0:
228,245,5867,1,8,0:0:0:0:
228,245,6032,1,0,0:0:0:0:
236,211,6197,1,0,0:0:0:0:
243,212,6527,1,0,0:0:0:0:
242,254,6691,1,8,0:0:0:0:
202,251,6856,1,0,0:0:0:0:
242,211,7186,1,8,0:0:0:0:
246,245,7351,1,8,0:0:0:0:
193,212,7516,1,0,0:0:0:0:
243,211,7845,1,8,0:0:0:0:
231,243,8010,1,0,0:0:0:0:
242,211,8175,1,8,0:0:0:0:
230,212,8505,1,0,0:0:0:0:
200,191,8669,1,0,0:0:0:0:
200,191,8834,1,8,0:0:0:0:
207,197,9164,1,8,0:0:0:0:
214,210,9494,1,8,0:0:0:0:
221,207,9658,1,0,0:0:0:0:
221,207,9823,1,8,0:0:0:0:
224,215,10153,1,0,0:0:0:0:
233,208,10483,1,12,0:0:0:0:
215,227,11142,1,8,0:0:0:0:
215,227,11472,1,8,0:0:0:0:
215,227,11801,1,0,0:0:0:0:
215,227,12131,1,8,0:0:0:0:
215,227,12461,1,0,0:0:0:0:
232,224,12790,1,8,0:0:0:0:
232,224,12955,1,0,0:0:0:0:
226,212,13120,1,0,0:0:0:0:
224,217,13779,1,0,0:0:0:0:
224,217,14109,1,8,0:0:0:0:
224,247,14439,1,0,0:0:0:0:
224,247,14768,1,8,0:0:0:0:
224,247,15098,1,8,0:0:0:0:
219,219,15428,1,8,0:0:0:0:
224,212,15592,1,8,0:0:0:0:
210,238,15757,1,0,0:0:0:0:
224,212,15922,1,0,0:0:0:0:
210,238,16087,1,8,0:0:0:0:
228,239,16417,1,0,0:0:0:0:
221,220,16746,1,8,0:0:0:0:
222,223,17076,1,8,0:0:0:0:
222,223,17406,1,0,0:0:0:0:
221,220,17735,1,8,0:0:0:0:
266,177,18065,1,0,0:0:0:0:
220,251,18230,1,0,0:0:0:0:
220,251,18395,1,8,0:0:0:0:
213,223,19054,1,8,0:0:0:0:
242,243,19384,1,8,0:0:0:0:
241,243,19713,1,0,0:0:0:0:
213,223,20043,1,8,0:0:0:0:
213,223,20373,1,0,0:0:0:0:
248,185,20702,1,12,0:0:0:0:
229,187,21032,1,0,0:0:0:0:
229,187,21197,1,0,0:0:0:0:
229,187,21362,1,8,0:0:0:0:
200,212,21691,1,8,0:0:0:0:
212,197,22021,1,0,0:0:0:0:
201,212,22351,1,0,0:0:0:0:
200,212,22680,1,8,0:0:0:0:
200,210,23010,1,0,0:0:0:0:
201,204,23340,1,8,0:0:0:0:
251,207,23505,1,8,0:0:0:0:
204,204,23669,1,0,0:0:0:0:
199,172,24329,1,0,0:0:0:0:
206,175,24658,1,8,0:0:0:0:
206,175,24988,1,0,0:0:0:0:
208,177,25318,1,0,0:0:0:0:
209,178,25647,1,8,0:0:0:0:
209,193,25977,1,8,0:0:0:0:
196,192,26142,1,0,0:0:0:0:
218,211,26307,1,0,0:0:0:0:
226,225,26636,1,8,0:0:0:0:
226,225,26801,1,8,0:0:0:0:
232,219,26966,1,0,0:0:0:0:
205,244,27296,1,0,0:0:0:0:
205,244,27461,1,0,0:0:0:0:
205,244,27625,1,8,0:0:0:0:
209,221,27955,1,0,0:0:0:0:
204,233,28285,1,8,0:0:0:0:
223,246,28614,1,8,0:0:0:0:
202,222,28779,1,8,0:0:0:0:
207,232,28944,1,0,0:0:0:0:
202,222,29603,1,0,0:0:0:0:
202,226,29933,1,8,0:0:0:0:
202,222,30263,1,8,0:0:0:0:
235,202,30592,1,8,0:0:0:0:
202,184,30757,1,0,0:0:0:0:
202,184,30922,1,8,0:0:0:0:
219,204,31252,1,8,0:0:0:0:
221,210,31417,1,0,0:0:0:0:
214,245,31582,1,0,0:0:0:0:
223,179,32241,1,8,0:0:0:0:
211,188,32406,1,8,0:0:0:0:
226,190,32571,1,0,0:0:0:0:
226,190,32900,1,0,0:0:0:0:
224,173,33230,1,8,0:0:0:0:
224,173,33560,1,0,0:0:0:0:
224,173,33724,1,0,0:0:0:0:
224,173,33889,1,8,0:0:0:0:
245,213,34219,1,8,0:0:0:0:
203,224,34549,1,8,0:0:0:0:
216,216,34878,1,0,0:0:0:0:
231,167,35043,1,8,0:0:0:0:
210,217,35208,1,0,0:0:0:0:
206,227,35538,1,0,0:0:0:0:
206,227,35867,1,8,0:0:0:0:
220,265,36197,1,8,0:0:0:0:
221,233,36362,1,0,0:0:0:0:
218,238,36527,1,0,0:0:0:0:
242,263,36856,1,0,0:0:0:0:
242,263,37021,1,0,0:0:0:0:
242,263,37186,1,8,0:0:0:0:
256,186,37516,1,4,0:0:0:0:
187,231,37845,1,0,0:0:0:0:
216,232,38010,1,8,0:0:0:0:
216,232,38175,1,8,0:0:0:0:
246,226,38505,1,0,0:0:0:0:
221,181,38834,1,8,0:0:0:0:
229,242,39164,1,0,0:0:0:0:
227,204,39329,1,0,0:0:0:0:
227,166,39494,1,0,0:0:0:0:
221,192,40153,1,0,0:0:0:0:
227,204,40483,1,8,0:0:0:0:
221,192,40812,1,8,0:0:0:0:
213,197,41142,1,0,0:0:0:0:
225,193,41472,1,8,0:0:0:0:
216,221,41801,1,0,0:0:0:0:
217,182,42131,1,0,0:0:0:0:
216,221,42296,1,8,0:0:0:0:
240,206,42461,1,0,0:0:0:0:
235,187,42790,1,8,0:0:0:0:
216,198,42955,1,8,0:0:0:0:
210,291,43120,1,0,0:0:0:0:
210,291,43450,1,8,0:0:0:0:
210,291,43614,1,8,0:0:0:0:
210,291,43779,1,8,0:0:0:0:
206,252,44109,1,8,0:0:0:0:
206,252,44274,1,0,0:0:0:0:
206,252,44439,1,0,0:0:0:0:
236,241,44768,1,8,0:0:0:0:
236,241,45098,1,8,0:0:0:0:
218,198,45428,1,8,0:0:0:0:
218,198,45592,1,0,0:0:0:0:
218,198,45757,1,0,0:0:0:0:
194,193,46087,1,8,0:0:0:0:
194,193,46252,1,8,0:0:0:0:
218,198,46417,1,0,0:0:0:0:
218,198,46746,1,8,0:0:0:0:
218,198,47076,1,0,0:0:0:0:
201,192,47406,1,0,0:0:0:0:
231,207,47571,1,0,0:0:0:0:
231,207,47735,1,8,0:0:0:0:
181,173,48065,1,12,0:0:0:0:
212,182,48395,1,8,0:0:0:0:
212,182,48724,1,0,0:0:0:0:
237,142,49054,1,8,0:0:0:0:
237,142,49384,1,0,0:0:0:0:
237,142,49713,1,0,0:0:0:0:
205,202,50043,1,8,0:0:0:0:
224,177,50373,1,8,0:0:0:0:
224,177,50538,1,8,0:0:0:0:
252,169,50702,1,4,0:0:0:0:
246,203,51362,1,8,0:0:0:0:
237,216,51691,1,0,0:0:0:0:
231,182,51856,1,0,0:0:0:0:
237,216,52021,1,8,0:0:0:0:
223,208,52680,1,0,0:0:0:0:
251,220,53010,1,0,0:0:0:0:
251,220,53175,1,0,0:0:0:0:
217,203,53340,1,12,0:0:0:0:
207,194,53669,1,0,0:0:0:0:
238,194,53999,1,8,0:0:0:0:
245,193,54329,1,0,0:0:0:0:
245,193,54658,1,0,0:0:0:0:
252,193,54988,1,8,0:0:0:0:
252,193,55153,1,8,0:0:0:0:
252,193,55318,1,8,0:0:0:0:
261,193,55647,1,0,0:0:0:0:
252,193,55812,1,0,0:0:0:0:
256,190,55977,1,12,0:0:0:0:
224,178,56307,1,0,0:0:0:0:
252,206,56636,1,8,0:0:0:0:
239,202,56966,1,8,0:0:0:0:
239,202,57131,1,8,0:0:0:0:
239,202,57296,1,0,0:0:0:0:
236,232,57625,1,0,0:0:0:0:
251,236,57955,1,0,0:0:0:0:
238,268,58285,1,8,0:0:0:0:
238,268,58450,1,8,0:0:0:0:
228,212,58614,1,8,0:0:0:0:
251,236,59274,1,8,0:0:0:0:
259,237,59603,1,0,0:0:0:0:
259,237,59768,1,0,0:0:0:0:
259,237,59933,1,8,0:0:0:0:
225,221,60263,1,0,0:0:0:0:
225,221,60592,1,8,0:0:0:0:
212,197,61252,1,0,0:0:0:0:
249,222,61417,1,0,0:0:0:0:
249,222,61582,1,8,0:0:0:0:
212,197,61911,1,8,0:0:0:0:
212,197,62076,1,8,0:0:0:0:
203,250,62241,1,8,0:0:0:0:
212,212,62571,1,8,0:0:0:0:
215,213,62735,1,0,0:0:0:0:
215,213,62900,1,0,0:0:0:0:
215,215,63230,1,0,0:0:0:0:
215,215,63395,1,0,0:0:0:0:
215,215,63560,1,0,0:0:0:0:
215,213,63889,1,8,0:0:0:0:
215,215,64219,1,0,0:0:0:0:
259,220,64549,1,8,0:0:0:0:
219,188,64878,1,0,0:0:0:0:
215,215,65043,1,0,0:0:0:0:
219,188,65208,1,8,0:0:0:0:
206,196,65538,1,8,0:0:0:0:
206,196,65702,1,8,0:0:0:0:
215,207,65867,1,0,0:0:0:0:
216,207,66032,1,0,0:0:0:0:
226,211,66197,1,8,0:0:0:0:
265,196,66527,1,12,0:0:0:0:
221,241,66856,1,0,0:0:0:0:
221,241,67186,1,0,0:0:0:0:
208,266,67516,1,8,0:0:0:0:
208,266,67680,1,8,0:0:0:0:
208,266,67845,1,8,0:0:0:0:
216,198,68175,1,0,0:0:0:0:
206,222,68505,1,0,0:0:0:0:
222,223,68834,1,0,0:0:0:0:
209,207,68999,1,0,0:0:0:0:
222,223,69164,1,8,0:0:0:0:
215,251,69823,1,0,0:0:0:0:
222,223,70153,1,8,0:0:0:0:
222,223,70318,1,8,0:0:0:0:
222,223,70483,1,0,0:0:0:0:
241,258,70812,1,0,0:0:0:0:
253,242,71142,1,8,0:0:0:0:
241,258,71472,1,8,0:0:0:0:
261,243,71801,1,0,0:0:0:0:
271,301,72131,1,0,0:0:0:0:
196,288,72461,1,8,0:0:0:0:
216,222,72790,1,0,0:0:0:0:
198,283,72955,1,0,0:0:0:0:
206,282,73120,1,8,0:0:0:0:
202,195,73450,1,8,0:0:0:0:
216,203,73779,1,0,0:0:0:0:
216,198,74109,1,0,0:0:0:0:
216,198,74439,1,8,0:0:0:0:
212,211,75098,1,0,0:0:0:0:
212,211,75428,1,8,0:0:0:0:
212,211,75592,1,8,0:0:0:0:
217,215,75922,1,8,0:0:0:0:
225,222,76087,1,0,0:0:0:0:
196,208,76417,1,0,0:0:0:0:
200,208,76582,1,0,0:0:0:0:
200,208,76746,1,0,0:0:0:0:
202,211,77076,1,8,0:0:0:0:
211,212,77406,1,8,0:0:0:0:
226,181,77571,1,0,0:0:0:0:
215,213,77735,1,0,0:0:0:0:
215,213,78065,1,0,0:0:0:0:
216,213,78395,1,8,0:0:0:0:
215,213,79054,1,8,0:0:0:0:
219,216,79384,1,0,0:0:0:0:
219,216,79713,1,0,0:0:0:0:
242,192,80043,1,0,0:0:0:0:
241,222,80373,1,8,0:0:0:0:
201,167,80702,1,8,0:0:0:0:
201,167,81032,1,0,0:0:0:0:
221,157,81362,1,8,0:0:0:0:
206,183,81527,1,0,0:0:0:0:
206,183,81691,1,0,0:0:0:0:
215,175,82021,1,8,0:0:0:0:
216,175,82186,1,8,0:0:0:0:
240,211,82351,1,4,0:0:0:0:
240,211,83010,1,8,0:0:0:0:
231,224,83340,1,0,0:0:0:0:
226,254,83669,1,8,0:0:0:0:
232,251,83999,1,8,0:0:0:0:
232,252,84329,1,0,0:0:0:0:
241,257,84988,1,8,0:0:0:0:
266,173,85318,1,8,0:0:0:0:
228,241,85647,1,0,0:0:0:0:
228,241,85977,1,8,0:0:0:0:
228,241,86142,1,8,0:0:0:0:
228,241,86307,1,0,0:0:0:0:
236,237,86636,1,0,0:0:0:0:
236,237,86966,1,8,0:0:0:0:
212,197,87625,1,0,0:0:0:0:
249,222,87790,1,0,0:0:0:0:
249,222,87955,1,8,0:0:0:0:
212,197,88285,1,8,0:0:0:0:
212,197,88450,1,8,0:0:0:0:
203,250,88614,1,8,0:0:0:0:
212,212,88944,1,8,0:0:0:0:
215,213,89109,1,0,0:0:0:0:
215,213,89274,1,0,0:0:0:0:
215,215,89603,1,0,0:0:0:0:
215,215,89768,1,0,0:0:0:0:
215,215,89933,1,0,0:0:0:0:
194,242,90263,1,0,0:0:0:0:
224,200,90592,1,0,0:0:0:0:
224,196,90922,1,8,0:0:0:0:
224,200,91252,1,8,0:0:0:0:
215,197,91582,1,0,0:0:0:0:
239,191,91911,1,8,0:0:0:0:
195,241,92076,1,8,0:0:0:0:
234,216,92241,1,0,0:0:0:0:
217,234,92406,1,0,0:0:0:0:
234,176,92571,1,8,0:0:0:0:
254,184,92900,1,4,0:0:0:0:
206,210,93560,1,0,0:0:0:0:
223,211,93889,1,0,0:0:0:0:
214,212,94054,1,0,0:0:0:0:
223,211,94219,1,8,0:0:0:0:
218,227,94549,1,0,0:0:0:0:
218,227,94878,1,8,0:0:0:0:
225,200,95208,1,0,0:0:0:0:
215,210,95538,1,8,0:0:0:0:
216,210,95702,1,8,0:0:0:0:
216,210,95867,1,0,0:0:0:0:
220,198,96197,1,0,0:0:0:0:
208,191,96527,1,8,0:0:0:0:
205,187,96691,1,0,0:0:0:0:
206,189,96856,1,0,0:0:0:0:
210,194,97186,1,0,0:0:0:0:
208,191,97516,1,8,0:0:0:0:
213,184,97845,1,0,0:0:0:0:
213,185,98010,1,0,0:0:0:0:
245,220,98175,1,12,0:0:0:0:
209,222,98505,1,8,0:0:0:0:
209,222,98834,1,0,0:0:0:0:
218,222,99164,1,0,0:0:0:0:
195,217,99494,1,8,0:0:0:0:
211,193,99823,1,0,0:0:0:0:
211,193,100153,1,8,0:0:0:0:
195,217,100483,1,8,0:0:0:0:
191,214,100647,1,8,0:0:0:0:
196,217,100812,1,0,0:0:0:0:
265,263,101142,1,8,0:0:0:0:
211,227,101472,1,8,0:0:0:0:
211,227,101636,1,8,0:0:0:0:
212,227,101801,1,8,0:0:0:0:
239,222,102131,1,0,0:0:0:0:
231,199,102461,1,0,0:0:0:0:
233,199,102625,1,0,0:0:0:0:
233,199,102790,1,8,0:0:0:0:
237,200,103120,1,8,0:0:0:0:
232,180,103450,1,4,0:0:0:0:
256,192,103779,12,0,106087,0:0:0:0:
