osu file format v14

[General]
AudioFilename: audio.mp3
AudioLeadIn: 0
PreviewTime: 55977
Countdown: 0
SampleSet: Normal
StackLeniency: 0.7
Mode: 1
LetterboxInBreaks: 0
WidescreenStoryboard: 1

[Editor]
DistanceSpacing: 1
BeatDivisor: 4
GridSize: 4
TimelineZoom: 0.8

[Metadata]
Title:Tabi no Hidarite, Saihate no Migite [Riko & Reg & Nanachi ver.]
TitleUnicode:旅の左手、最果ての右手[リコ&レグ&ナナチver.]
Artist:Tomita Miyu, Ise Mariya, Izawa Shiori
ArtistUnicode:富田美憂、伊瀬茉莉也、井澤詩織
Creator:Horiiizon
Version:Muzukashii
Source:メイドインアビス
Tags:made in abyss meido abisu japanese anime tv size ed ending riko reg nanachi リコ レグ ナナチ cut version pop 橋本由香利 Hashimoto Yukari
BeatmapID:2497837
BeatmapSetID:1199437

[Difficulty]
HPDrainRate:6
CircleSize:5
OverallDifficulty:4
ApproachRate:5
SliderMultiplier:1.4
SliderTickRate:1

[Events]
//Background and Video events
0,0,"MIA.jpg",0,-25
//Break Periods
//Storyboard Layer 0 (Background)
//Storyboard Layer 1 (Fail)
//Storyboard Layer 2 (Pass)
//Storyboard Layer 3 (Foreground)
//Storyboard Layer 4 (Overlay)
//Storyboard Sound Samples

[TimingPoints]
593,659.340659340659,4,1,0,40,1,0
5785,-100,4,1,0,50,0,0
11060,-100,4,1,0,60,0,0
55977,-95.2380952380952,4,1,0,60,0,1
82351,-95.2380952380952,4,1,0,60,0,0
82928,-100,4,1,0,50,0,0
103697,-100,4,1,0,30,0,0

[HitObjects]
178,321,593,5,0,0:0:0:0:
194,301,1911,1,0,0:0:0:0:
261,266,2241,1,0,0:0:0:0:
194,301,2571,1,8,0:0:0:0:
205,305,3230,1,8,0:0:0:0:
214,312,3560,1,8,0:0:0:0:
205,305,3889,1,0,0:0:0:0:
214,312,4549,1,0,0:0:0:0:
217,318,5208,1,8,0:0:0:0:
223,231,5867,1,8,0:0:0:0:
223,231,6197,1,0,0:0:0:0:
240,237,6527,1,0,0:0:0:0:
220,237,6691,1,0,0:0:0:0:
237,235,6856,1,0,0:0:0:0:
220,237,7186,1,8,0:0:0:0:
220,237,7516,1,0,0:0:0:0:
220,237,7845,1,8,0:0:0:0:
224,239,8010,1,8,0:0:0:0:
224,239,8175,1,8,0:0:0:0:
220,237,8505,1,0,0:0:0:0:
185,221,9164,1,8,0:0:0:0:
232,264,9823,1,0,0:0:0:0:
251,261,10153,1,0,0:0:0:0:
243,188,10483,1,12,0:0:0:0:
218,172,11142,1,8,0:0:0:0:
218,172,11472,1,8,0:0:0:0:
218,172,11801,1,0,0:0:0:0:
214,206,12461,1,8,0:0:0:0:
214,206,12790,1,0,0:0:0:0:
251,169,12955,1,0,0:0:0:0:
242,193,13779,1,0,0:0:0:0:
231,199,14439,1,0,0:0:0:0:
231,212,14768,1,8,0:0:0:0:
216,195,15098,1,8,0:0:0:0:
185,182,15757,1,8,0:0:0:0:
205,217,16087,1,8,0:0:0:0:
232,244,16417,1,0,0:0:0:0:
287,194,17076,1,0,0:0:0:0:
223,227,17735,1,0,0:0:0:0:
209,203,18065,1,8,0:0:0:0:
224,182,18230,1,8,0:0:0:0:
292,192,19054,1,8,0:0:0:0:
212,211,19713,1,8,0:0:0:0:
218,215,20043,1,8,0:0:0:0:
218,215,20373,1,0,0:0:0:0:
222,184,20702,1,12,0:0:0:0:
218,192,21032,1,0,0:0:0:0:
218,215,21691,1,8,0:0:0:0:
228,190,22021,1,8,0:0:0:0:
134,223,22351,1,0,0:0:0:0:
203,209,23010,1,8,0:0:0:0:
248,201,23340,1,0,0:0:0:0:
219,187,23505,1,0,0:0:0:0:
225,213,24329,1,0,0:0:0:0:
211,237,24658,1,8,0:0:0:0:
211,234,24988,1,0,0:0:0:0:
183,250,25318,1,0,0:0:0:0:
215,210,25647,1,8,0:0:0:0:
215,210,26307,1,0,0:0:0:0:
230,219,26966,1,8,0:0:0:0:
230,219,27296,1,0,0:0:0:0:
230,219,27461,1,0,0:0:0:0:
230,219,27955,1,8,0:0:0:0:
230,219,28285,1,0,0:0:0:0:
230,219,28614,1,8,0:0:0:0:
230,219,28779,1,8,0:0:0:0:
233,207,29603,1,0,0:0:0:0:
210,274,30263,1,8,0:0:0:0:
201,232,30592,1,0,0:0:0:0:
256,272,30757,1,0,0:0:0:0:
201,232,30922,1,0,0:0:0:0:
246,250,31252,1,8,0:0:0:0:
246,250,31582,1,0,0:0:0:0:
204,227,32241,1,8,0:0:0:0:
204,227,32406,1,8,0:0:0:0:
204,227,32571,1,8,0:0:0:0:
204,227,33230,1,8,0:0:0:0:
204,227,33560,1,0,0:0:0:0:
204,227,33724,1,0,0:0:0:0:
204,227,33889,1,0,0:0:0:0:
233,211,34878,1,0,0:0:0:0:
213,214,35043,1,0,0:0:0:0:
233,211,35208,1,0,0:0:0:0:
214,207,35867,1,8,0:0:0:0:
224,184,36197,1,8,0:0:0:0:
209,214,36362,1,8,0:0:0:0:
199,205,36527,1,8,0:0:0:0:
213,192,37186,1,8,0:0:0:0:
213,192,37516,1,4,0:0:0:0:
213,192,37845,1,8,0:0:0:0:
213,192,38010,1,8,0:0:0:0:
237,198,38505,1,0,0:0:0:0:
213,192,38834,1,8,0:0:0:0:
215,187,39164,1,0,0:0:0:0:
215,187,39329,1,0,0:0:0:0:
225,196,40153,1,0,0:0:0:0:
209,177,40483,1,8,0:0:0:0:
229,168,40812,1,8,0:0:0:0:
229,168,41472,1,0,0:0:0:0:
229,168,41801,1,0,0:0:0:0:
229,168,42131,1,8,0:0:0:0:
214,176,42461,1,0,0:0:0:0:
218,176,42790,1,8,0:0:0:0:
226,281,42955,1,8,0:0:0:0:
226,281,43120,1,8,0:0:0:0:
205,184,43450,1,0,0:0:0:0:
236,244,43614,1,0,0:0:0:0:
236,244,43779,1,0,0:0:0:0:
236,244,44109,1,8,0:0:0:0:
236,244,44274,1,8,0:0:0:0:
236,244,44439,1,8,0:0:0:0:
221,182,45428,1,0,0:0:0:0:
210,184,45592,1,0,0:0:0:0:
210,184,45757,1,0,0:0:0:0:
209,199,46087,1,8,0:0:0:0:
206,198,46252,1,8,0:0:0:0:
206,198,46417,1,8,0:0:0:0:
200,168,46746,1,0,0:0:0:0:
200,168,46911,1,0,0:0:0:0:
200,168,47076,1,0,0:0:0:0:
224,200,47406,1,8,0:0:0:0:
200,192,47735,1,0,0:0:0:0:
191,167,48065,1,12,0:0:0:0:
221,216,48724,1,0,0:0:0:0:
203,203,49384,1,0,0:0:0:0:
220,180,50043,1,8,0:0:0:0:
196,194,50373,1,8,0:0:0:0:
272,184,50702,1,4,0:0:0:0:
224,195,51362,1,8,0:0:0:0:
241,213,52021,1,0,0:0:0:0:
248,213,52680,1,0,0:0:0:0:
241,213,53010,1,0,0:0:0:0:
220,213,53340,1,12,0:0:0:0:
220,240,53999,1,8,0:0:0:0:
235,207,54329,1,0,0:0:0:0:
225,205,54658,1,0,0:0:0:0:
247,174,54988,1,0,0:0:0:0:
247,174,55318,1,8,0:0:0:0:
243,199,55977,1,12,0:0:0:0:
219,293,56636,1,8,0:0:0:0:
209,213,56966,1,0,0:0:0:0:
209,213,57131,1,0,0:0:0:0:
218,244,57296,1,0,0:0:0:0:
212,253,57955,1,0,0:0:0:0:
212,253,58614,1,8,0:0:0:0:
218,236,59603,1,8,0:0:0:0:
218,236,59768,1,8,0:0:0:0:
218,236,59933,1,8,0:0:0:0:
231,239,60592,1,8,0:0:0:0:
231,239,61252,1,0,0:0:0:0:
220,214,61417,1,0,0:0:0:0:
231,239,61582,1,0,0:0:0:0:
231,239,61911,1,8,0:0:0:0:
231,239,62241,1,0,0:0:0:0:
220,248,62571,1,8,0:0:0:0:
222,215,62735,1,8,0:0:0:0:
220,248,62900,1,8,0:0:0:0:
238,237,63230,1,0,0:0:0:0:
222,228,63560,1,0,0:0:0:0:
245,262,63889,1,8,0:0:0:0:
248,268,64549,1,8,0:0:0:0:
245,268,64878,1,0,0:0:0:0:
246,268,65208,1,8,0:0:0:0:
248,268,65538,1,0,0:0:0:0:
238,234,65702,1,0,0:0:0:0:
245,268,65867,1,0,0:0:0:0:
221,195,66197,1,0,0:0:0:0:
228,224,66527,1,12,0:0:0:0:
223,268,67186,1,0,0:0:0:0:
223,268,67516,1,8,0:0:0:0:
223,268,67845,1,8,0:0:0:0:
223,268,68505,1,0,0:0:0:0:
232,170,68834,1,0,0:0:0:0:
245,267,69164,1,8,0:0:0:0:
235,223,70153,1,0,0:0:0:0:
221,189,70483,1,0,0:0:0:0:
246,187,71142,1,8,0:0:0:0:
246,187,71801,1,0,0:0:0:0:
208,200,72131,1,8,0:0:0:0:
208,200,72461,1,0,0:0:0:0:
246,233,72790,1,8,0:0:0:0:
246,233,72955,1,8,0:0:0:0:
250,232,73120,1,8,0:0:0:0:
209,188,73450,1,0,0:0:0:0:
209,188,73779,1,0,0:0:0:0:
237,224,74109,1,8,0:0:0:0:
225,218,74439,1,8,0:0:0:0:
208,243,75098,1,0,0:0:0:0:
254,233,75428,1,8,0:0:0:0:
227,203,75592,1,8,0:0:0:0:
227,203,75922,1,0,0:0:0:0:
227,203,76087,1,0,0:0:0:0:
250,269,76417,1,0,0:0:0:0:
250,269,76582,1,0,0:0:0:0:
244,241,76746,1,0,0:0:0:0:
236,216,77076,1,8,0:0:0:0:
225,240,77406,1,0,0:0:0:0:
191,207,77571,1,0,0:0:0:0:
206,198,77735,1,0,0:0:0:0:
226,203,78065,1,0,0:0:0:0:
216,210,78395,1,8,0:0:0:0:
225,228,79054,1,8,0:0:0:0:
225,240,79384,1,0,0:0:0:0:
225,228,79713,1,0,0:0:0:0:
230,222,80702,1,8,0:0:0:0:
226,232,81032,1,0,0:0:0:0:
226,232,81362,1,0,0:0:0:0:
229,232,81527,1,0,0:0:0:0:
229,232,81691,1,0,0:0:0:0:
226,232,82021,1,8,0:0:0:0:
293,304,82351,1,4,0:0:0:0:
269,225,83010,1,8,0:0:0:0:
251,231,83340,1,0,0:0:0:0:
225,201,83669,1,8,0:0:0:0:
225,201,84329,1,0,0:0:0:0:
218,216,84988,1,8,0:0:0:0:
218,216,85647,1,8,0:0:0:0:
223,221,85977,1,0,0:0:0:0:
223,221,86307,1,0,0:0:0:0:
109,365,86966,1,0,0:0:0:0:
224,209,87625,1,8,0:0:0:0:
248,248,87790,1,8,0:0:0:0:
248,248,87955,1,8,0:0:0:0:
252,248,88285,1,0,0:0:0:0:
200,184,88614,1,8,0:0:0:0:
200,184,88944,1,0,0:0:0:0:
200,184,89109,1,0,0:0:0:0:
226,243,89274,1,0,0:0:0:0:
252,224,89603,1,8,0:0:0:0:
236,216,89933,1,0,0:0:0:0:
224,278,90263,1,8,0:0:0:0:
256,216,90592,1,0,0:0:0:0:
214,227,90922,1,8,0:0:0:0:
217,240,91252,1,8,0:0:0:0:
217,240,91582,1,8,0:0:0:0:
219,181,91911,1,0,0:0:0:0:
219,181,92076,1,0,0:0:0:0:
219,181,92241,1,0,0:0:0:0:
222,185,92571,1,8,0:0:0:0:
280,160,92900,1,4,0:0:0:0:
215,231,93560,1,0,0:0:0:0:
222,198,93889,1,0,0:0:0:0:
231,224,94219,1,8,0:0:0:0:
222,198,94549,1,0,0:0:0:0:
222,198,94878,1,8,0:0:0:0:
220,207,95208,1,8,0:0:0:0:
233,223,95538,1,0,0:0:0:0:
216,172,96197,1,8,0:0:0:0:
208,212,96527,1,0,0:0:0:0:
208,212,96691,1,0,0:0:0:0:
208,212,96856,1,0,0:0:0:0:
202,206,97186,1,8,0:0:0:0:
218,231,97516,1,0,0:0:0:0:
218,231,97845,1,0,0:0:0:0:
221,217,98175,1,12,0:0:0:0:
218,170,98834,1,0,0:0:0:0:
232,219,99164,1,8,0:0:0:0:
232,219,99494,1,8,0:0:0:0:
232,219,100153,1,0,0:0:0:0:
232,219,100812,1,8,0:0:0:0:
235,201,101142,1,0,0:0:0:0:
234,202,101472,1,8,0:0:0:0:
234,202,101636,1,8,0:0:0:0:
234,202,101801,1,8,0:0:0:0:
235,201,102131,1,0,0:0:0:0:
235,222,102461,1,0,0:0:0:0:
247,205,102790,1,8,0:0:0:0:
225,196,103120,1,8,0:0:0:0:
281,229,103450,1,4,0:0:0:0:
256,192,103779,12,0,106087,0:0:0:0:
