osu file format v14

[General]
AudioFilename: audio.mp3
AudioLeadIn: 0
PreviewTime: 55977
Countdown: 0
SampleSet: Normal
StackLeniency: 0.7
Mode: 1
LetterboxInBreaks: 0
WidescreenStoryboard: 1

[Editor]
DistanceSpacing: 1
BeatDivisor: 2
GridSize: 4
TimelineZoom: 0.6

[Metadata]
Title:Tabi no Hidarite, Saihate no Migite [Riko & Reg & Nanachi ver.]
TitleUnicode:旅の左手、最果ての右手[リコ&レグ&ナナチver.]
Artist:Tomita Miyu, Ise Mariya, Izawa Shiori
ArtistUnicode:富田美憂、伊瀬茉莉也、井澤詩織
Creator:Horiiizon
Version:Kantan
Source:メイドインアビス
Tags:made in abyss meido abisu japanese anime tv size ed ending riko reg nanachi リコ レグ ナナチ cut version pop 橋本由香利 Hashimoto Yukari
BeatmapID:2498291
BeatmapSetID:1199437

[Difficulty]
HPDrainRate:7.5
CircleSize:5
OverallDifficulty:2.5
ApproachRate:5
SliderMultiplier:1.4
SliderTickRate:1

[Events]
//Background and Video events
0,0,"MIA.jpg",0,-25
//Break Periods
//Storyboard Layer 0 (Background)
//Storyboard Layer 1 (Fail)
//Storyboard Layer 2 (Pass)
//Storyboard Layer 3 (Foreground)
//Storyboard Layer 4 (Overlay)
//Storyboard Sound Samples

[TimingPoints]
593,659.340659340659,4,1,0,40,1,0
5785,-100,4,1,0,50,0,0
11060,-100,4,1,0,60,0,0
55977,-95.2380952380952,4,1,0,60,0,1
82351,-95.2380952380952,4,1,0,60,0,0
82928,-100,4,1,0,50,0,0
103697,-100,4,1,0,30,0,0

[HitObjects]
248,218,593,5,0,0:0:0:0:
250,257,1911,1,0,0:0:0:0:
224,232,2571,1,8,0:0:0:0:
255,252,3230,1,8,0:0:0:0:
255,252,3889,1,8,0:0:0:0:
255,252,4549,1,0,0:0:0:0:
233,227,5867,1,0,0:0:0:0:
233,227,6527,1,0,0:0:0:0:
233,227,7186,1,8,0:0:0:0:
215,231,7845,1,8,0:0:0:0:
234,229,8505,1,0,0:0:0:0:
234,229,9164,1,8,0:0:0:0:
248,196,10483,1,12,0:0:0:0:
212,256,11142,1,0,0:0:0:0:
228,236,11801,1,8,0:0:0:0:
240,241,12461,1,0,0:0:0:0:
241,241,13779,1,8,0:0:0:0:
211,224,15098,1,8,0:0:0:0:
211,224,15757,1,0,0:0:0:0:
225,195,16417,1,0,0:0:0:0:
219,224,17076,1,8,0:0:0:0:
222,207,17735,1,8,0:0:0:0:
212,224,19054,1,8,0:0:0:0:
212,208,20373,1,0,0:0:0:0:
234,230,21032,1,0,0:0:0:0:
216,227,21691,1,8,0:0:0:0:
216,227,22351,1,0,0:0:0:0:
242,284,23010,1,0,0:0:0:0:
197,204,24329,1,8,0:0:0:0:
264,168,25647,1,8,0:0:0:0:
216,263,26307,1,0,0:0:0:0:
216,263,26966,1,8,0:0:0:0:
203,207,28285,1,8,0:0:0:0:
191,212,29603,1,0,0:0:0:0:
220,164,30263,1,8,0:0:0:0:
206,213,30922,1,0,0:0:0:0:
245,190,31582,1,0,0:0:0:0:
215,209,32241,1,8,0:0:0:0:
224,172,33560,1,8,0:0:0:0:
224,208,34219,1,0,0:0:0:0:
216,209,34878,1,0,0:0:0:0:
224,184,36197,1,8,0:0:0:0:
192,148,36856,1,8,0:0:0:0:
305,196,37516,1,4,0:0:0:0:
203,241,38834,1,8,0:0:0:0:
220,224,39494,1,0,0:0:0:0:
211,228,40153,1,0,0:0:0:0:
194,199,41472,1,0,0:0:0:0:
192,229,42131,1,0,0:0:0:0:
255,188,42790,1,12,0:0:0:0:
200,184,43450,1,8,0:0:0:0:
212,250,44109,1,0,0:0:0:0:
232,208,45428,1,0,0:0:0:0:
234,181,46087,1,8,0:0:0:0:
252,222,46746,1,0,0:0:0:0:
235,256,47406,1,0,0:0:0:0:
261,173,48065,1,12,0:0:0:0:
231,187,49384,1,0,0:0:0:0:
220,136,50043,1,8,0:0:0:0:
257,198,50702,1,4,0:0:0:0:
237,226,52021,1,0,0:0:0:0:
237,219,52680,1,0,0:0:0:0:
296,192,53340,1,12,0:0:0:0:
240,188,54658,1,0,0:0:0:0:
237,243,55318,1,0,0:0:0:0:
247,188,55977,1,12,0:0:0:0:
226,222,57296,1,0,0:0:0:0:
238,217,57955,1,8,0:0:0:0:
226,222,58614,1,8,0:0:0:0:
222,217,59933,1,8,0:0:0:0:
263,217,60592,1,8,0:0:0:0:
242,218,61252,1,0,0:0:0:0:
232,212,62571,1,8,0:0:0:0:
239,222,63889,1,0,0:0:0:0:
216,192,64549,1,8,0:0:0:0:
233,206,65208,1,0,0:0:0:0:
232,206,65867,1,0,0:0:0:0:
244,196,66527,1,12,0:0:0:0:
224,192,67845,1,8,0:0:0:0:
232,226,68505,1,0,0:0:0:0:
232,226,69164,1,8,0:0:0:0:
259,207,70483,1,0,0:0:0:0:
236,188,71142,1,8,0:0:0:0:
236,208,71801,1,0,0:0:0:0:
213,197,73120,1,8,0:0:0:0:
236,218,73779,1,0,0:0:0:0:
227,188,74439,1,0,0:0:0:0:
287,200,75757,1,0,0:0:0:0:
231,195,77076,1,8,0:0:0:0:
196,192,77735,1,0,0:0:0:0:
252,199,78395,1,8,0:0:0:0:
214,237,79054,1,8,0:0:0:0:
217,239,79713,1,0,0:0:0:0:
222,225,81032,1,8,0:0:0:0:
216,231,81691,1,8,0:0:0:0:
266,179,82351,1,4,0:0:0:0:
212,148,83669,1,0,0:0:0:0:
228,212,84329,1,0,0:0:0:0:
228,212,84988,1,8,0:0:0:0:
241,242,86307,1,8,0:0:0:0:
206,221,86966,1,0,0:0:0:0:
239,224,87625,1,8,0:0:0:0:
240,260,88944,1,0,0:0:0:0:
226,232,90263,1,8,0:0:0:0:
248,204,90922,1,0,0:0:0:0:
235,240,91582,1,8,0:0:0:0:
241,223,92241,1,8,0:0:0:0:
261,182,92900,1,4,0:0:0:0:
228,216,94219,1,8,0:0:0:0:
228,192,94878,1,8,0:0:0:0:
228,223,95538,1,0,0:0:0:0:
220,219,96856,1,0,0:0:0:0:
220,219,97516,1,0,0:0:0:0:
254,194,98175,1,12,0:0:0:0:
212,196,99494,1,0,0:0:0:0:
215,188,100153,1,0,0:0:0:0:
201,196,100812,1,8,0:0:0:0:
225,197,101472,1,8,0:0:0:0:
212,198,102131,1,0,0:0:0:0:
206,186,102790,1,8,0:0:0:0:
256,192,103450,1,4,0:0:0:0:
256,192,103779,12,0,106087,0:0:0:0:
