osu file format v14

[General]
AudioFilename: audio.mp3
AudioLeadIn: 0
PreviewTime: 55977
Countdown: 0
SampleSet: Normal
StackLeniency: 0.7
Mode: 1
LetterboxInBreaks: 0
WidescreenStoryboard: 0

[Editor]
DistanceSpacing: 1
BeatDivisor: 4
GridSize: 4
TimelineZoom: 2.2

[Metadata]
Title:Tabi no Hidarite, Saihate no Migite [Riko & Reg & Nanachi ver.]
TitleUnicode:旅の左手、最果ての右手[リコ&レグ&ナナチver.]
Artist:Tomita Miyu, Ise Mariya, Izawa Shiori
ArtistUnicode:富田美憂、伊瀬茉莉也、井澤詩織
Creator:Horiiizon
Version:Inner Oni
Source:メイドインアビス
Tags:made in abyss meido abisu japanese anime tv size ed ending riko reg nanachi リコ レグ ナナチ cut version pop 橋本由香利 Hashimoto Yukari
BeatmapID:2497836
BeatmapSetID:1199437

[Difficulty]
HPDrainRate:4.5
CircleSize:5
OverallDifficulty:5.5
ApproachRate:5
SliderMultiplier:1.4
SliderTickRate:1

[Events]
//Background and Video events
0,0,"MIA.jpg",0,-25
//Break Periods
//Storyboard Layer 0 (Background)
//Storyboard Layer 1 (Fail)
//Storyboard Layer 2 (Pass)
//Storyboard Layer 3 (Foreground)
//Storyboard Layer 4 (Overlay)
//Storyboard Sound Samples

[TimingPoints]
593,659.340659340659,4,1,0,40,1,0
5785,-100,4,1,0,50,0,0
11060,-100,4,1,0,60,0,0
53669,-98.0392156862745,4,1,0,60,0,0
53999,-96.1538461538461,4,1,0,60,0,0
54329,-94.3396226415094,4,1,0,60,0,0
54658,-92.5925925925926,4,1,0,60,0,0
54988,-90.9090909090909,4,1,0,60,0,0
55153,-90.0900900900901,4,1,0,60,0,0
55318,-89.2857142857143,4,1,0,60,0,0
55483,-88.4955752212389,4,1,0,60,0,0
55647,-87.719298245614,4,1,0,60,0,0
55812,-86.9565217391304,4,1,0,60,0,0
55977,-86.2068965517241,4,1,0,60,0,1
80043,-87.719298245614,4,1,0,60,0,1
80373,-89.2857142857143,4,1,0,60,0,1
80702,-90.9090909090909,4,1,0,60,0,1
80812,-91.4636934868704,4,1,0,60,0,1
80922,-92.0251044484935,4,1,0,60,0,1
81032,-92.5925925925926,4,1,0,60,0,1
81197,-93.4579439252336,4,1,0,60,0,1
81362,-94.3396226415094,4,1,0,60,0,1
81472,-94.9370092943332,4,1,0,60,0,1
81582,-95.5420098217186,4,1,0,60,0,1
81691,-96.1538461538461,4,1,0,60,0,1
81801,-96.774505724212,4,1,0,60,0,1
81911,-97.4032298911032,4,1,0,60,0,1
82021,-98.0392156862745,4,1,0,60,0,1
82186,-99.009900990099,4,1,0,60,0,1
82351,-100,4,1,0,60,0,0
82598,-100,4,1,0,50,0,0
103697,-100,4,1,0,30,0,0

[HitObjects]
222,217,593,5,0,0:0:0:0:
246,282,1911,1,0,0:0:0:0:
246,282,2241,1,0,0:0:0:0:
246,282,2571,1,8,0:0:0:0:
219,228,2900,1,0,0:0:0:0:
226,287,3230,1,8,0:0:0:0:
231,248,3395,1,0,0:0:0:0:
231,248,3560,1,8,0:0:0:0:
231,248,3889,1,8,0:0:0:0:
231,248,4219,1,0,0:0:0:0:
231,248,4549,1,0,0:0:0:0:
226,222,4878,1,8,0:0:0:0:
234,222,5208,1,0,0:0:0:0:
233,254,5538,1,8,0:0:0:0:
234,222,5867,1,8,0:0:0:0:
234,222,6032,1,0,0:0:0:0:
234,222,6197,1,0,0:0:0:0:
224,224,6527,1,8,0:0:0:0:
211,256,6691,1,8,0:0:0:0:
254,228,6856,1,0,0:0:0:0:
202,220,6966,1,0,0:0:0:0:
202,220,7076,1,0,0:0:0:0:
255,228,7186,1,8,0:0:0:0:
216,192,7351,1,0,0:0:0:0:
216,192,7516,1,8,0:0:0:0:
219,214,7845,1,0,0:0:0:0:
230,222,8010,1,0,0:0:0:0:
230,239,8175,1,8,0:0:0:0:
231,233,8285,1,8,0:0:0:0:
231,233,8395,1,8,0:0:0:0:
248,232,8505,1,0,0:0:0:0:
247,231,8669,1,0,0:0:0:0:
247,231,8834,1,8,0:0:0:0:
273,215,9164,1,0,0:0:0:0:
241,281,9274,1,0,0:0:0:0:
241,281,9384,1,0,0:0:0:0:
248,214,9494,1,8,0:0:0:0:
276,241,9658,1,0,0:0:0:0:
276,241,9823,1,8,0:0:0:0:
260,218,10153,1,0,0:0:0:0:
241,169,10483,1,12,0:0:0:0:
231,219,11142,1,8,0:0:0:0:
226,209,11472,1,8,0:0:0:0:
231,210,11801,1,0,0:0:0:0:
248,207,12131,1,8,0:0:0:0:
224,218,12461,1,0,0:0:0:0:
227,219,12790,1,8,0:0:0:0:
227,219,12955,1,0,0:0:0:0:
227,219,13120,1,0,0:0:0:0:
224,218,13450,1,0,0:0:0:0:
243,218,13779,1,0,0:0:0:0:
244,218,14109,1,8,0:0:0:0:
245,220,14439,1,0,0:0:0:0:
243,218,14768,1,8,0:0:0:0:
255,220,15098,1,8,0:0:0:0:
220,208,15263,1,0,0:0:0:0:
245,220,15428,1,8,0:0:0:0:
213,257,15592,1,8,0:0:0:0:
243,218,15757,1,0,0:0:0:0:
212,281,15922,1,0,0:0:0:0:
253,220,16087,1,8,0:0:0:0:
213,222,16197,1,8,0:0:0:0:
213,222,16307,1,8,0:0:0:0:
253,220,16417,1,0,0:0:0:0:
233,264,16746,1,8,0:0:0:0:
233,264,17076,1,8,0:0:0:0:
233,264,17406,1,0,0:0:0:0:
233,264,17735,1,8,0:0:0:0:
247,263,18065,1,0,0:0:0:0:
240,264,18230,1,0,0:0:0:0:
240,264,18395,1,8,0:0:0:0:
222,241,18724,1,0,0:0:0:0:
222,241,19054,1,8,0:0:0:0:
222,241,19384,1,8,0:0:0:0:
222,241,19713,1,0,0:0:0:0:
229,242,20043,1,8,0:0:0:0:
183,265,20373,1,0,0:0:0:0:
241,269,20702,1,12,0:0:0:0:
248,265,21032,1,0,0:0:0:0:
248,265,21197,1,0,0:0:0:0:
248,265,21362,1,8,0:0:0:0:
248,265,21527,1,0,0:0:0:0:
248,265,21691,1,8,0:0:0:0:
230,236,22021,1,0,0:0:0:0:
234,256,22351,1,0,0:0:0:0:
244,274,22680,1,8,0:0:0:0:
251,251,23010,1,0,0:0:0:0:
230,236,23340,1,8,0:0:0:0:
230,236,23505,1,8,0:0:0:0:
230,236,23669,1,0,0:0:0:0:
245,246,23999,1,8,0:0:0:0:
236,234,24329,1,0,0:0:0:0:
242,223,24658,1,8,0:0:0:0:
242,223,24988,1,0,0:0:0:0:
242,223,25318,1,0,0:0:0:0:
218,226,25647,1,8,0:0:0:0:
213,245,25812,1,0,0:0:0:0:
233,236,25977,1,0,0:0:0:0:
228,243,26142,1,8,0:0:0:0:
228,243,26307,1,0,0:0:0:0:
205,227,26636,1,8,0:0:0:0:
205,227,26746,1,8,0:0:0:0:
205,227,26856,1,8,0:0:0:0:
230,245,26966,1,0,0:0:0:0:
223,231,27296,1,8,0:0:0:0:
223,231,27461,1,0,0:0:0:0:
211,227,27625,1,0,0:0:0:0:
223,231,27955,1,0,0:0:0:0:
214,227,28285,1,8,0:0:0:0:
211,227,28614,1,8,0:0:0:0:
222,251,28779,1,0,0:0:0:0:
222,251,28944,1,8,0:0:0:0:
221,228,29274,1,8,0:0:0:0:
221,228,29603,1,0,0:0:0:0:
217,229,29933,1,8,0:0:0:0:
226,209,30098,1,8,0:0:0:0:
221,228,30263,1,8,0:0:0:0:
221,228,30592,1,0,0:0:0:0:
215,201,30757,1,0,0:0:0:0:
225,228,30922,1,8,0:0:0:0:
244,136,31252,1,8,0:0:0:0:
226,194,31362,1,8,0:0:0:0:
226,194,31472,1,8,0:0:0:0:
226,194,31582,1,0,0:0:0:0:
225,235,31746,1,8,0:0:0:0:
225,235,31911,1,0,0:0:0:0:
236,232,32241,1,8,0:0:0:0:
226,225,32406,1,8,0:0:0:0:
226,225,32571,1,0,0:0:0:0:
184,232,32735,1,8,0:0:0:0:
226,225,32900,1,0,0:0:0:0:
193,235,33230,1,8,0:0:0:0:
171,231,33560,1,0,0:0:0:0:
173,232,33724,1,0,0:0:0:0:
175,232,33889,1,8,0:0:0:0:
198,238,34219,1,8,0:0:0:0:
197,232,34384,1,8,0:0:0:0:
203,238,34549,1,8,0:0:0:0:
218,202,34878,1,0,0:0:0:0:
220,208,35043,1,8,0:0:0:0:
216,232,35208,1,0,0:0:0:0:
216,220,35373,1,0,0:0:0:0:
216,220,35538,1,8,0:0:0:0:
197,230,35867,1,8,0:0:0:0:
197,230,36197,1,8,0:0:0:0:
206,204,36362,1,0,0:0:0:0:
206,207,36527,1,8,0:0:0:0:
206,207,36691,1,8,0:0:0:0:
206,207,36856,1,0,0:0:0:0:
206,207,37021,1,8,0:0:0:0:
207,207,37186,1,0,0:0:0:0:
239,197,37516,1,4,0:0:0:0:
206,207,37845,1,0,0:0:0:0:
206,207,38010,1,8,0:0:0:0:
207,207,38175,1,8,0:0:0:0:
249,192,38505,1,0,0:0:0:0:
249,192,38834,1,8,0:0:0:0:
226,207,39164,1,0,0:0:0:0:
226,207,39329,1,0,0:0:0:0:
226,207,39494,1,8,0:0:0:0:
240,204,39658,1,0,0:0:0:0:
240,204,39823,1,8,0:0:0:0:
205,206,40153,1,0,0:0:0:0:
209,213,40483,1,8,0:0:0:0:
205,206,40812,1,8,0:0:0:0:
221,208,41142,1,0,0:0:0:0:
227,213,41307,1,0,0:0:0:0:
197,202,41472,1,8,0:0:0:0:
205,206,41801,1,0,0:0:0:0:
198,210,42131,1,0,0:0:0:0:
208,209,42296,1,0,0:0:0:0:
197,202,42461,1,0,0:0:0:0:
217,197,42790,1,8,0:0:0:0:
208,209,42955,1,8,0:0:0:0:
202,202,43120,1,0,0:0:0:0:
202,202,43450,1,8,0:0:0:0:
202,202,43614,1,0,0:0:0:0:
202,202,43779,1,8,0:0:0:0:
208,209,44109,1,8,0:0:0:0:
202,202,44274,1,0,0:0:0:0:
208,209,44439,1,0,0:0:0:0:
237,214,44768,1,8,0:0:0:0:
237,214,45098,1,8,0:0:0:0:
206,189,45428,1,8,0:0:0:0:
206,189,45592,1,0,0:0:0:0:
206,189,45757,1,8,0:0:0:0:
206,189,46087,1,8,0:0:0:0:
206,189,46252,1,0,0:0:0:0:
206,189,46417,1,0,0:0:0:0:
206,189,46582,1,0,0:0:0:0:
206,189,46746,1,8,0:0:0:0:
206,189,46911,1,8,0:0:0:0:
206,189,47076,1,0,0:0:0:0:
202,153,47406,1,0,0:0:0:0:
202,153,47571,1,0,0:0:0:0:
208,177,47735,1,8,0:0:0:0:
243,180,47900,1,0,0:0:0:0:
234,222,48065,1,12,0:0:0:0:
219,155,48395,1,8,0:0:0:0:
263,208,48724,1,0,0:0:0:0:
200,182,49054,1,8,0:0:0:0:
200,182,49384,1,0,0:0:0:0:
200,182,49713,1,0,0:0:0:0:
200,182,50043,1,8,0:0:0:0:
206,183,50373,1,8,0:0:0:0:
206,183,50538,1,8,0:0:0:0:
269,181,50702,1,4,0:0:0:0:
154,188,51032,1,0,0:0:0:0:
220,199,51362,1,8,0:0:0:0:
240,178,51691,1,0,0:0:0:0:
234,176,51856,1,0,0:0:0:0:
240,178,52021,1,8,0:0:0:0:
217,208,52351,1,8,0:0:0:0:
251,252,52516,1,0,0:0:0:0:
251,252,52680,1,0,0:0:0:0:
217,249,53010,1,0,0:0:0:0:
217,249,53175,1,0,0:0:0:0:
256,237,53340,1,12,0:0:0:0:
244,214,53669,1,0,0:0:0:0:
238,214,53999,1,0,0:0:0:0:
238,214,54329,1,0,0:0:0:0:
238,214,54658,1,8,0:0:0:0:
216,214,54988,1,8,0:0:0:0:
222,218,55153,1,0,0:0:0:0:
222,218,55318,1,8,0:0:0:0:
219,217,55483,1,0,0:0:0:0:
219,217,55647,1,0,0:0:0:0:
216,214,55812,1,0,0:0:0:0:
196,178,55977,1,12,0:0:0:0:
229,277,56307,1,0,0:0:0:0:
206,239,56636,1,8,0:0:0:0:
225,266,56966,1,8,0:0:0:0:
232,266,57131,1,8,0:0:0:0:
232,267,57296,1,0,0:0:0:0:
221,269,57625,1,0,0:0:0:0:
230,210,57955,1,0,0:0:0:0:
251,316,58285,1,8,0:0:0:0:
239,300,58450,1,8,0:0:0:0:
239,300,58614,1,8,0:0:0:0:
214,288,58944,1,0,0:0:0:0:
214,288,59274,1,8,0:0:0:0:
214,221,59603,1,0,0:0:0:0:
220,222,59768,1,0,0:0:0:0:
222,222,59933,1,8,0:0:0:0:
226,222,60263,1,0,0:0:0:0:
226,222,60592,1,8,0:0:0:0:
226,222,60922,1,8,0:0:0:0:
234,215,61252,1,0,0:0:0:0:
226,222,61417,1,0,0:0:0:0:
226,222,61582,1,8,0:0:0:0:
236,214,61911,1,8,0:0:0:0:
214,214,62076,1,0,0:0:0:0:
214,214,62241,1,8,0:0:0:0:
216,214,62571,1,8,0:0:0:0:
214,214,62735,1,0,0:0:0:0:
214,214,62900,1,0,0:0:0:0:
222,198,63230,1,0,0:0:0:0:
222,198,63395,1,8,0:0:0:0:
223,214,63560,1,0,0:0:0:0:
222,198,63724,1,0,0:0:0:0:
222,198,63889,1,8,0:0:0:0:
222,198,64219,1,0,0:0:0:0:
222,198,64549,1,8,0:0:0:0:
222,198,64878,1,0,0:0:0:0:
222,198,65043,1,0,0:0:0:0:
222,198,65208,1,8,0:0:0:0:
212,202,65538,1,8,0:0:0:0:
213,204,65702,1,8,0:0:0:0:
213,204,65867,1,0,0:0:0:0:
213,204,66032,1,0,0:0:0:0:
213,204,66197,1,8,0:0:0:0:
212,202,66362,1,0,0:0:0:0:
283,184,66527,1,12,0:0:0:0:
216,247,66856,1,0,0:0:0:0:
224,241,67186,1,8,0:0:0:0:
206,244,67516,1,8,0:0:0:0:
206,244,67680,1,0,0:0:0:0:
206,244,67845,1,8,0:0:0:0:
206,244,68175,1,0,0:0:0:0:
211,245,68505,1,0,0:0:0:0:
206,244,68834,1,0,0:0:0:0:
206,244,68999,1,0,0:0:0:0:
206,244,69164,1,8,0:0:0:0:
206,244,69494,1,0,0:0:0:0:
206,244,69823,1,8,0:0:0:0:
216,243,70153,1,8,0:0:0:0:
216,243,70318,1,8,0:0:0:0:
216,243,70483,1,0,0:0:0:0:
216,242,70812,1,0,0:0:0:0:
216,243,71142,1,8,0:0:0:0:
216,243,71472,1,8,0:0:0:0:
225,242,71801,1,0,0:0:0:0:
201,227,72131,1,0,0:0:0:0:
201,227,72296,1,8,0:0:0:0:
201,227,72461,1,0,0:0:0:0:
236,255,72790,1,0,0:0:0:0:
236,255,72955,1,0,0:0:0:0:
236,255,73120,1,8,0:0:0:0:
236,255,73450,1,8,0:0:0:0:
192,220,73614,1,0,0:0:0:0:
192,220,73779,1,8,0:0:0:0:
236,255,74109,1,8,0:0:0:0:
226,230,74439,1,8,0:0:0:0:
226,230,74768,1,0,0:0:0:0:
234,238,75098,1,8,0:0:0:0:
233,219,75263,1,0,0:0:0:0:
251,197,75428,1,8,0:0:0:0:
251,211,75592,1,8,0:0:0:0:
222,195,75757,1,0,0:0:0:0:
240,221,76087,1,0,0:0:0:0:
240,221,76417,1,8,0:0:0:0:
240,221,76582,1,8,0:0:0:0:
234,189,76746,1,0,0:0:0:0:
235,184,76856,1,0,0:0:0:0:
235,184,76966,1,0,0:0:0:0:
241,202,77076,1,12,0:0:0:0:
240,221,77406,1,8,0:0:0:0:
240,221,77571,1,8,0:0:0:0:
240,220,77735,1,0,0:0:0:0:
240,221,78065,1,0,0:0:0:0:
240,221,78230,1,0,0:0:0:0:
240,221,78395,1,8,0:0:0:0:
253,223,78724,1,0,0:0:0:0:
251,223,79054,1,8,0:0:0:0:
251,223,79384,1,8,0:0:0:0:
233,224,79549,1,0,0:0:0:0:
253,223,79713,1,0,0:0:0:0:
226,221,80043,1,0,0:0:0:0:
233,224,80373,1,8,0:0:0:0:
231,270,80702,1,8,0:0:0:0:
226,221,80812,1,8,0:0:0:0:
221,236,80922,1,8,0:0:0:0:
222,237,81032,1,0,0:0:0:0:
207,255,81197,1,8,0:0:0:0:
211,285,81362,1,8,0:0:0:0:
250,244,81472,1,0,0:0:0:0:
250,244,81582,1,0,0:0:0:0:
250,244,81691,1,8,0:0:0:0:
250,244,81801,1,0,0:0:0:0:
250,244,81911,1,0,0:0:0:0:
239,216,82021,1,8,0:0:0:0:
224,231,82186,1,8,0:0:0:0:
230,178,82351,1,4,0:0:0:0:
209,237,82680,1,0,0:0:0:0:
209,237,83010,1,8,0:0:0:0:
209,237,83340,1,0,0:0:0:0:
209,237,83505,1,0,0:0:0:0:
209,237,83669,1,8,0:0:0:0:
209,237,83999,1,0,0:0:0:0:
209,237,84329,1,8,0:0:0:0:
218,244,84658,1,0,0:0:0:0:
218,244,84988,1,8,0:0:0:0:
219,245,85318,1,8,0:0:0:0:
218,244,85647,1,0,0:0:0:0:
218,244,85977,1,8,0:0:0:0:
219,245,86142,1,0,0:0:0:0:
218,244,86307,1,0,0:0:0:0:
218,244,86636,1,0,0:0:0:0:
218,244,86966,1,8,0:0:0:0:
218,244,87296,1,8,0:0:0:0:
218,244,87625,1,8,0:0:0:0:
218,244,87790,1,0,0:0:0:0:
218,244,87955,1,8,0:0:0:0:
218,244,88285,1,0,0:0:0:0:
218,244,88450,1,8,0:0:0:0:
218,244,88614,1,0,0:0:0:0:
218,244,88944,1,8,0:0:0:0:
218,244,89109,1,0,0:0:0:0:
218,244,89274,1,0,0:0:0:0:
218,244,89603,1,0,0:0:0:0:
218,244,89768,1,0,0:0:0:0:
218,244,89933,1,8,0:0:0:0:
218,244,90098,1,8,0:0:0:0:
218,244,90263,1,0,0:0:0:0:
222,236,90592,1,0,0:0:0:0:
226,241,90922,1,8,0:0:0:0:
231,245,91252,1,8,0:0:0:0:
207,217,91582,1,0,0:0:0:0:
247,187,91691,1,0,0:0:0:0:
247,187,91801,1,0,0:0:0:0:
247,187,91911,1,8,0:0:0:0:
239,230,92076,1,8,0:0:0:0:
228,185,92241,1,0,0:0:0:0:
239,256,92406,1,0,0:0:0:0:
239,256,92571,1,8,0:0:0:0:
239,256,92735,1,8,0:0:0:0:
214,253,92900,1,4,0:0:0:0:
226,258,93230,1,0,0:0:0:0:
201,190,93560,1,0,0:0:0:0:
215,218,93889,1,8,0:0:0:0:
215,218,94054,1,0,0:0:0:0:
215,218,94219,1,8,0:0:0:0:
215,218,94549,1,0,0:0:0:0:
215,218,94878,1,8,0:0:0:0:
211,210,95208,1,8,0:0:0:0:
214,212,95373,1,8,0:0:0:0:
214,212,95538,1,0,0:0:0:0:
215,218,95702,1,0,0:0:0:0:
215,218,95867,1,8,0:0:0:0:
216,213,96197,1,0,0:0:0:0:
216,219,96527,1,8,0:0:0:0:
215,218,96691,1,0,0:0:0:0:
215,218,96856,1,0,0:0:0:0:
216,220,97186,1,8,0:0:0:0:
200,231,97516,1,0,0:0:0:0:
205,223,97845,1,0,0:0:0:0:
205,223,98010,1,0,0:0:0:0:
222,172,98175,1,12,0:0:0:0:
204,216,98505,1,8,0:0:0:0:
220,221,98834,1,0,0:0:0:0:
221,222,99164,1,8,0:0:0:0:
225,222,99329,1,8,0:0:0:0:
224,222,99494,1,0,0:0:0:0:
200,203,99823,1,0,0:0:0:0:
231,188,100153,1,8,0:0:0:0:
212,209,100483,1,0,0:0:0:0:
212,209,100647,1,8,0:0:0:0:
212,209,100812,1,0,0:0:0:0:
212,209,101142,1,0,0:0:0:0:
212,209,101472,1,8,0:0:0:0:
190,240,101582,1,8,0:0:0:0:
227,201,101691,1,8,0:0:0:0:
231,238,101801,1,0,0:0:0:0:
227,201,101911,1,0,0:0:0:0:
226,201,102021,1,0,0:0:0:0:
226,201,102131,1,8,0:0:0:0:
212,209,102461,1,0,0:0:0:0:
212,209,102625,1,0,0:0:0:0:
212,209,102790,1,8,0:0:0:0:
212,209,102955,1,0,0:0:0:0:
221,223,103120,1,8,0:0:0:0:
216,219,103285,1,8,0:0:0:0:
247,217,103450,1,4,0:0:0:0:
256,192,103779,12,0,106087,0:0:0:0:
