osu file format v14

[General]
AudioFilename: audio.mp3
AudioLeadIn: 0
PreviewTime: 55263
Countdown: 0
SampleSet: Soft
StackLeniency: 0.7
Mode: 0
LetterboxInBreaks: 0
WidescreenStoryboard: 1

[Editor]
DistanceSpacing: 0.9
BeatDivisor: 4
GridSize: 32
TimelineZoom: 1.5

[Metadata]
Title:Present Moment (TV Size)
TitleUnicode:Present Moment (TV Size)
Artist:Tomita Miyu
ArtistUnicode:富田美憂
Creator:Nao Tomori
Version:Normal
Source:放課後さいころ倶楽部
Tags:houkago saikoro kurabu club after school dice games japanese anime lasse
BeatmapID:2186951
BeatmapSetID:1046084

[Difficulty]
HPDrainRate:3
CircleSize:3.3
OverallDifficulty:4
ApproachRate:6
SliderMultiplier:0.899999999999999
SliderTickRate:1

[Events]
//Background and Video events
0,0,"3nJd5Jo.png",0,0
Video,-907,"houkago_op.mp4"
//Break Periods
2,12149,19286
//Storyboard Layer 0 (Background)
//Storyboard Layer 1 (Fail)
//Storyboard Layer 2 (Pass)
//Storyboard Layer 3 (Foreground)
//Storyboard Layer 4 (Overlay)
//Storyboard Sound Samples

[TimingPoints]
337,322.58064516129,4,2,1,45,1,0
2272,-133.333333333333,4,2,1,45,0,0
2917,-100,4,2,1,45,0,0
5175,-66.6666666666667,4,2,1,75,0,0
5498,-90.9090909090909,4,2,1,65,0,0
11466,-90.9090909090909,4,2,1,65,0,0
11949,-200,4,2,1,35,0,0
20336,-100,4,2,1,45,0,0
20982,-100,4,2,1,75,0,0
22111,-100,4,2,1,55,0,0
22272,-100,4,2,1,65,0,0
32595,-100,4,2,1,65,0,0
48078,-100,4,2,1,65,0,0
54530,-133.333333333333,4,2,1,65,0,0
55498,-66.6666666666667,4,2,1,65,0,0
55820,-90.9090909090909,4,2,1,85,0,1
65820,-90.9090909090909,4,2,1,75,0,1
66143,-90.9090909090909,4,2,1,75,0,1
76466,-90.9090909090909,4,2,1,65,0,0
82433,-100,4,2,1,65,0,0

[Colours]
Combo1 : 247,199,36
Combo2 : 250,61,61
Combo3 : 91,208,238
Combo4 : 67,165,82

[HitObjects]
17,160,337,6,0,P|57:145|115:168,1,89.9999999999999,2|0,0:2|0:2,0:0:0:0:
138,189,820,2,0,P|180:200|222:185,1,89.9999999999999,2|0,0:2|0:2,0:0:0:0:
264,210,1304,2,0,L|367:220,1,89.9999999999999,2|0,0:2|0:2,0:0:0:0:
394,247,1788,2,0,L|500:235,1,89.9999999999999,2|0,0:2|0:2,0:0:0:0:
499,203,2272,1,2,0:2:0:0:
395,34,2917,6,0,P|349:24|299:17,1,89.9999999999999,2|0,0:2|0:2,0:0:0:0:
259,34,3401,2,0,P|249:80|242:130,1,89.9999999999999,2|0,0:2|0:2,0:0:0:0:
270,163,3885,1,2,0:2:0:0:
270,163,4046,5,2,0:2:0:0:
100,289,5014,5,0,3:2:0:0:
100,289,5175,1,10,0:2:0:0:
203,255,5498,6,0,P|280:253|306:251,1,99.0000030212402,2|8,3:2|0:2,0:0:0:0:
351,227,5982,2,0,P|412:221|470:220,1,99.0000030212402,2|0,3:2|3:2,0:0:0:0:
486,179,6466,1,8,0:2:0:0:
486,179,6627,2,0,P|500:148|429:56,1,148.50000453186,2|10,3:2|0:2,0:0:0:0:
347,104,7433,1,2,3:2:0:0:
249,54,7756,1,10,0:2:0:0:
145,87,8078,6,0,P|130:141|121:187,1,99.0000030212402,2|8,3:2|0:2,0:0:0:0:
71,205,8562,2,0,P|88:252|104:314,1,99.0000030212402,2|0,3:2|3:2,0:0:0:0:
97,353,9046,1,14,0:2:0:0:
205,367,9369,5,0,3:2:0:0:
205,367,9530,1,0,3:2:0:0:
307,329,9853,1,0,3:2:0:0:
409,366,10175,2,0,L|510:356,2,99.0000030212402,4|4|4,3:2|3:2|3:2,0:0:0:0:
428,258,11143,1,4,3:2:0:0:
346,185,11466,6,0,P|354:127|365:34,1,148.50000453186,6|2,3:2|3:2,0:0:0:0:
254,44,20336,6,0,P|240:91|243:147,1,89.9999999999999,2|2,0:2|0:2,0:0:0:0:
305,206,20982,1,2,3:2:0:0:
305,206,21143,1,6,3:2:0:0:
448,165,21627,1,0,3:2:0:0:
448,165,21788,1,6,3:2:0:0:
404,306,22272,6,0,B|309:298|349:353|225:342,1,180,6|0,3:2|3:2,0:0:0:0:
143,298,23240,1,8,0:2:0:0:
50,331,23562,2,0,P|30:293|43:156,1,180,2|0,3:2|3:2,0:0:0:0:
119,101,24530,1,8,0:2:0:0:
209,141,24853,6,0,P|259:150|332:105,1,135,2|2,3:2|0:2,0:0:0:0:
373,20,25659,1,2,0:2:0:0:
462,63,25982,2,0,B|451:103|451:103|492:145|478:208,1,135,2|8,3:2|0:2,0:0:0:0:
423,269,26788,2,0,P|379:253|335:255,1,89.9999999999999,0|10,3:2|0:2,0:0:0:0:
263,321,27433,5,6,3:2:0:0:
171,281,27756,1,8,0:2:0:0:
79,317,28078,2,0,P|61:240|56:216,1,89.9999999999999,2|8,3:2|0:2,0:0:0:0:
110,144,28724,1,2,3:2:0:0:
205,168,29046,1,8,0:2:0:0:
289,116,29369,2,0,P|352:111|390:107,1,89.9999999999999,2|8,3:2|0:2,0:0:0:0:
373,9,30014,6,0,P|310:14|272:18,1,89.9999999999999,2|8,3:2|0:2,0:0:0:0:
246,49,30498,2,0,P|214:72|118:64,1,135,2|8,0:2|0:2,0:0:0:0:
85,33,31143,5,6,3:2:0:0:
20,108,31466,1,0,3:2:0:0:
20,108,31627,2,0,L|32:209,1,89.9999999999999,14|4,0:2|0:3,0:0:0:0:
55,293,32272,1,10,0:2:0:0:
142,245,32595,6,0,P|192:235|279:329,1,180,6|10,3:2|0:2,0:0:0:0:
370,350,33562,1,0,3:2:0:0:
370,350,33724,2,0,P|388:298|412:206,1,135,2|2,3:2|3:2,0:0:0:0:
380,125,34530,1,10,0:2:0:0:
286,159,34853,1,2,3:2:0:0:
205,101,35175,6,0,P|139:76|104:75,1,89.9999999999999,2|0,3:2|3:2,0:0:0:0:
71,83,35659,2,0,P|59:122|61:225,1,135,2|8,0:2|0:2,0:0:0:0:
52,314,36466,2,0,P|106:315|145:321,1,89.9999999999999,0|0,0:0|3:2,0:0:0:0:
235,350,37111,1,8,0:2:0:0:
333,341,37433,1,2,3:2:0:0:
428,367,37756,6,0,P|434:325|455:174,2,180,2|10|0,3:2|0:2|0:0,0:0:0:0:
333,336,39369,1,0,3:2:0:0:
237,360,39691,2,0,P|195:363|137:360,1,89.9999999999999,10|0,0:2|3:2,0:0:0:0:
58,316,40336,2,0,P|45:281|59:220,1,89.9999999999999,2|0,3:2|3:2,0:0:0:0:
84,191,40820,1,2,0:2:0:0:
178,221,41143,1,2,0:2:0:0:
267,178,41466,2,0,P|333:174|414:168,2,135,2|14|8,3:2|0:2|0:2,0:0:0:0:
223,153,42595,1,8,0:3:0:0:
246,57,42917,6,0,B|284:21|284:21|342:62|426:45,1,180,6|8,3:2|0:2,0:0:0:0:
494,92,43885,1,2,3:2:0:0:
494,92,44046,2,0,P|468:127|481:216,1,135,2|0,0:0|3:2,0:0:0:0:
426,297,44853,1,10,0:2:0:0:
333,261,45175,1,2,3:2:0:0:
259,327,45498,6,0,P|184:316|155:314,1,89.9999999999999,2|0,3:2|3:2,0:0:0:0:
124,336,45982,1,2,0:2:0:0:
32,298,46304,1,2,0:2:0:0:
80,211,46627,2,0,P|81:166|82:65,1,135,10|0,0:2|3:2,0:0:0:0:
160,16,47433,1,8,0:2:0:0:
251,53,47756,1,10,0:2:0:0:
346,29,48078,6,0,P|380:26|414:144,1,180,6|0,3:2|3:2,0:0:0:0:
355,214,49046,1,8,0:2:0:0:
257,194,49369,2,0,P|205:187|148:187,1,89.9999999999999,2|8,3:2|0:2,0:0:0:0:
125,212,49853,2,0,P|118:263|118:320,1,89.9999999999999,2|2,3:2|3:2,0:0:0:0:
148,339,50336,1,8,0:2:0:0:
246,329,50659,6,0,B|296:345|296:345|391:323,2,135,14|14|14,2:2|2:2|0:2,0:0:0:0:
191,246,51949,2,0,P|181:199|170:110,2,135,14|14|14,0:2|0:2|0:2,0:0:0:0:
118,314,53240,2,0,P|66:318|9:380,2,135,14|14|14,0:2|0:2|0:2,0:0:0:0:
208,364,54530,6,0,B|244:262|165:267|201:163,1,202.500007724762,14|10,2:2|0:2,0:0:0:0:
280,95,55820,6,0,B|331:80|331:80|446:110,1,148.50000453186,6|2,3:2|3:2,0:0:0:0:
478,101,56466,2,0,P|462:145|466:214,1,99.0000030212402,2|8,0:2|0:2,0:0:0:0:
498,299,57111,1,2,3:2:0:0:
402,351,57433,1,10,0:2:0:0:
402,351,57595,2,0,P|342:336|290:328,1,99.0000030212402,2|2,3:2|3:2,0:0:0:0:
200,361,58240,1,2,0:2:0:0:
200,361,58401,5,2,3:2:0:0:
105,306,58724,1,10,0:2:0:0:
105,306,58885,2,0,P|94:264|97:195,1,99.0000030212402,2|2,3:2|3:2,0:0:0:0:
149,114,59530,2,0,P|183:131|303:97,1,148.50000453186,2|10,3:2|0:2,0:0:0:0:
353,198,60336,2,0,L|462:184,1,99.0000030212402,2|4,0:2|0:3,0:0:0:0:
497,86,60982,6,0,B|466:44|466:44|359:33,1,148.50000453186,6|2,3:2|3:2,0:0:0:0:
319,54,61627,2,0,P|277:70|212:67,1,99.0000030212402,2|8,0:2|0:2,0:0:0:0:
129,15,62272,1,6,3:2:0:0:
54,94,62595,1,10,0:2:0:0:
54,94,62756,1,2,3:2:0:0:
112,185,63078,1,2,3:2:0:0:
61,281,63401,1,2,3:2:0:0:
61,281,63562,6,0,P|108:273|197:336,1,148.50000453186,2|2,3:2|3:2,0:0:0:0:
288,274,64369,1,2,3:2:0:0:
385,321,64691,2,0,P|396:265|414:157,1,148.50000453186,6|10,3:2|0:2,0:0:0:0:
437,68,65498,1,8,0:2:0:0:
336,25,65820,1,14,2:2:0:0:
299,127,66143,6,0,P|242:151|160:128,1,148.50000453186,6|2,3:2|3:2,0:0:0:0:
110,108,66788,2,0,P|127:176|122:222,1,99.0000030212402,2|8,0:2|0:2,0:0:0:0:
73,299,67433,1,2,3:2:0:0:
170,348,67756,1,10,0:2:0:0:
170,348,67917,1,2,3:2:0:0:
268,301,68240,2,0,P|333:292|374:283,1,99.0000030212402,2|0,3:2|0:2,0:0:0:0:
419,295,68724,6,0,P|397:238|370:144,1,148.50000453186,2|2,3:2|3:2,0:0:0:0:
394,47,69530,1,2,3:2:0:0:
503,45,69853,2,0,P|502:90|488:208,1,148.50000453186,6|10,3:2|0:2,0:0:0:0:
427,281,70659,1,10,0:2:0:0:
321,253,70982,1,14,0:2:0:0:
224,302,71304,6,0,P|176:317|78:279,2,148.50000453186,6|2|8,3:2|3:2|0:2,0:0:0:0:
273,326,72433,2,0,P|257:249|244:161,1,148.50000453186,0|8,3:2|0:2,0:0:0:0:
275,74,73240,1,2,3:2:0:0:
378,107,73562,1,10,0:2:0:0:
374,215,73885,6,0,B|432:237|432:237|466:203|529:205,2,148.50000453186,6|2|8,3:2|3:2|0:2,0:0:0:0:
338,256,75014,2,0,P|295:268|189:258,1,148.50000453186,6|4,3:2|0:3,0:0:0:0:
98,203,75820,1,2,3:2:0:0:
98,203,75982,1,2,3:2:0:0:
98,203,76143,1,14,0:2:0:0:
166,118,76466,6,0,P|219:95|296:143,2,148.50000453186,6|2|8,3:2|3:2|0:2,0:0:0:0:
118,144,77595,2,0,P|120:212|126:264,1,99.0000030212402,2|0,3:2|3:2,0:0:0:0:
137,295,78078,1,10,0:2:0:0:
248,286,78401,1,2,3:2:0:0:
351,319,78724,1,10,0:2:0:0:
446,267,79046,6,0,P|452:200|456:152,1,99.0000030212402,2|8,3:2|0:2,0:0:0:0:
420,125,79530,2,0,L|407:20,1,99.0000030212402,2|0,3:2|3:2,0:0:0:0:
358,3,80014,1,10,0:2:0:0:
272,69,80336,5,10,0:2:0:0:
272,69,80498,1,2,3:2:0:0:
170,31,80820,1,2,3:2:0:0:
86,101,81143,2,0,P|79:156|73:212,1,99.0000030212402,6|6,3:2|3:2,0:0:0:0:
144,282,81788,2,0,P|193:287|242:293,1,99.0000030212402,6|6,3:2|3:2,0:0:0:0:
352,261,82433,6,0,P|400:258|436:331,1,135,6|0,3:2|0:2,0:0:0:0:
