osu file format v14

[General]
AudioFilename: audio.mp3
AudioLeadIn: 0
PreviewTime: 55263
Countdown: 0
SampleSet: Soft
StackLeniency: 0.7
Mode: 0
LetterboxInBreaks: 0
WidescreenStoryboard: 1

[Editor]
DistanceSpacing: 0.9
BeatDivisor: 4
GridSize: 32
TimelineZoom: 1.5

[Metadata]
Title:Present Moment (TV Size)
TitleUnicode:Present Moment (TV Size)
Artist:Tomita Miyu
ArtistUnicode:富田美憂
Creator:Nao Tomori
Version:Hard
Source:放課後さいころ倶楽部
Tags:houkago saikoro kurabu club after school dice games japanese anime lasse
BeatmapID:2186989
BeatmapSetID:1046084

[Difficulty]
HPDrainRate:4
CircleSize:3.7
OverallDifficulty:6.5
ApproachRate:8
SliderMultiplier:1.3
SliderTickRate:1

[Events]
//Background and Video events
0,0,"3nJd5Jo.png",0,0
Video,-907,"houkago_op.mp4"
//Break Periods
2,12149,19586
//Storyboard Layer 0 (Background)
//Storyboard Layer 1 (Fail)
//Storyboard Layer 2 (Pass)
//Storyboard Layer 3 (Foreground)
//Storyboard Layer 4 (Overlay)
//Storyboard Sound Samples

[TimingPoints]
337,322.58064516129,4,2,1,45,1,0
2272,-133.333333333333,4,2,1,45,0,0
2917,-100,4,2,1,45,0,0
5175,-100,4,2,1,75,0,0
5498,-90.9090909090909,4,2,1,65,0,0
11466,-166.666666666667,4,2,1,65,0,0
11949,-200,4,2,1,35,0,0
20336,-133.333333333333,4,2,1,45,0,0
20982,-133.333333333333,4,2,1,75,0,0
22111,-133.333333333333,4,2,1,55,0,0
22272,-100,4,2,1,65,0,0
32595,-133.333333333333,4,2,1,65,0,0
48078,-117.647058823529,4,2,1,65,0,0
50659,-100,4,2,1,65,0,0
54530,-222.222222222222,4,2,1,65,0,0
55498,-100,4,2,1,65,0,0
55820,-86.9565217391304,4,2,1,85,0,1
65820,-86.9565217391304,4,2,1,75,0,1
66143,-86.9565217391304,4,2,1,75,0,1
76466,-90.9090909090909,4,2,1,65,0,0
82433,-200,4,2,1,65,0,0

[Colours]
Combo1 : 247,199,36
Combo2 : 250,61,61
Combo3 : 91,208,238
Combo4 : 67,165,82

[HitObjects]
110,297,175,5,2,0:2:0:0:
110,297,256,1,2,0:2:0:0:
110,297,337,2,0,L|96:209,2,65,2|0|0,0:2|0:2|0:2,0:0:0:0:
205,281,820,2,0,L|215:345,2,65,2|0|0,0:2|0:2|0:2,0:0:0:0:
277,216,1304,2,0,P|315:198|397:241,1,130,2|0,0:2|0:2,0:0:0:0:
481,193,1788,2,0,P|477:233|468:333,1,130,2|0,0:2|0:2,0:0:0:0:
471,349,2272,5,2,0:2:0:0:
37,68,2917,6,0,P|25:120|19:148,2,65,2|0|0,0:2|0:2|0:2,0:0:0:0:
135,45,3401,2,0,P|158:66|182:89,2,65,2|0|0,0:2|0:2|0:2,0:0:0:0:
152,185,3885,2,0,P|121:194|89:204,1,65,2|2,0:2|0:2,0:0:0:0:
78,218,4369,1,2,0:2:0:0:
81,232,4691,1,2,0:2:0:0:
82,250,5014,5,0,3:2:0:0:
157,307,5175,2,0,P|228:283|264:307,1,97.5,10|0,0:2|0:2,0:0:0:0:
261,326,5498,6,0,P|256:238|249:165,1,143.000004364014,2|8,3:2|0:2,0:0:0:0:
355,110,5982,2,0,P|360:198|367:271,1,143.000004364014,2|0,3:2|3:2,0:0:0:0:
451,307,6466,1,8,0:2:0:0:
505,226,6627,6,0,B|510:182|510:182|468:142|480:86,1,143.000004364014,2|0,3:2|3:2,0:0:0:0:
392,39,7111,2,0,P|360:68|320:80,1,71.5000021820069,10|0,0:2|0:2,0:0:0:0:
240,51,7433,2,0,P|188:44|147:58,1,71.5000021820069,2|0,3:2|3:2,0:0:0:0:
97,102,7756,1,10,0:2:0:0:
16,267,8078,6,0,P|60:254|136:322,1,143.000004364014,2|8,3:2|0:2,0:0:0:0:
224,263,8562,2,0,P|259:285|369:254,1,143.000004364014,2|0,3:2|3:2,0:0:0:0:
442,315,9046,2,0,L|454:190,1,107.25000327301,14|2,0:2|0:2,0:0:0:0:
476,182,9369,5,0,3:2:0:0:
436,71,9530,1,0,3:2:0:0:
307,214,9853,1,0,3:2:0:0:
156,73,10175,5,4,3:2:0:0:
339,107,10498,1,4,3:2:0:0:
194,243,10820,1,4,3:2:0:0:
11,209,11143,1,4,3:2:0:0:
106,167,11466,6,0,P|115:221|82:286,1,116.999996429443,6|2,3:2|3:2,0:0:0:0:
370,354,20336,6,0,P|362:319|365:282,1,73.1250027894975,2|0,0:2|0:2,0:0:0:0:
333,255,20659,2,0,P|298:263|261:260,1,73.1250027894975,2|0,0:2|0:2,0:0:0:0:
225,246,20982,5,2,3:2:0:0:
116,235,21143,1,6,3:2:0:0:
30,382,21627,5,0,3:2:0:0:
158,360,21788,1,6,3:2:0:0:
40,207,22111,5,8,0:2:0:0:
40,207,22191,1,8,0:2:0:0:
40,207,22272,2,0,P|81:243|177:228,1,130,6|8,3:2|0:2,0:0:0:0:
238,208,22756,1,0,0:0:0:0:
334,224,22917,2,0,P|350:277|355:300,1,65,0|2,3:2|3:2,0:0:0:0:
415,167,23240,2,0,P|399:114|394:91,1,65,8|2,0:2|3:2,0:0:0:0:
315,43,23562,6,0,P|302:91|268:187,1,130,2|8,3:2|0:2,0:0:0:0:
185,216,24046,2,0,B|126:197|126:197|36:228,1,130,0|2,0:2|3:2,0:0:0:0:
2,291,24530,1,8,0:2:0:0:
2,291,24691,1,2,0:2:0:0:
86,341,24853,6,0,B|148:317|158:378|235:339,1,130,2|10,3:2|0:2,0:0:0:0:
310,362,25336,2,0,P|311:319|317:277,1,65,2|0,0:2|3:2,0:0:0:0:
396,174,25659,2,0,P|395:217|389:259,1,65,2|8,0:2|0:2,0:0:0:0:
477,292,25982,6,0,P|489:229|504:144,1,130,2|0,3:2|3:2,0:0:0:0:
450,83,26466,1,8,0:2:0:0:
450,83,26627,1,0,0:2:0:0:
358,112,26788,2,0,P|308:118|273:119,1,65,0|0,3:2|3:2,0:0:0:0:
145,67,27111,2,0,P|195:61|230:60,1,65,10|8,0:2|0:2,0:0:0:0:
77,9,27433,6,0,P|55:49|93:145,1,130,6|8,3:2|0:2,0:0:0:0:
31,209,27917,1,0,0:2:0:0:
31,209,28078,2,0,L|46:300,1,65,2|0,3:2|3:2,0:0:0:0:
153,325,28401,2,0,L|142:260,1,65,8|0,0:2|0:2,0:0:0:0:
228,193,28724,6,0,B|280:179|280:179|305:186|305:186|374:168,1,130,2|8,3:2|0:2,0:0:0:0:
420,105,29207,1,0,0:2:0:0:
507,151,29369,2,0,P|519:187|529:233,1,65,2|0,3:2|3:2,0:0:0:0:
482,347,29691,2,0,P|471:316|463:284,1,65,8|0,0:2|0:2,0:0:0:0:
377,246,30014,6,0,P|342:268|233:252,1,130,2|8,3:2|0:2,0:0:0:0:
166,323,30498,2,0,P|148:268|120:182,1,130,2|0,0:2|3:2,0:0:0:0:
48,148,30982,1,8,0:2:0:0:
128,58,31143,6,0,P|174:91|257:63,1,130,6|0,3:2|3:2,0:0:0:0:
328,8,31627,2,0,P|331:48|332:89,1,65,14|8,0:2|0:3,0:0:0:0:
430,75,31949,2,0,P|423:127|412:168,1,65,4|4,0:3|0:3,0:0:0:0:
505,184,32272,2,0,P|488:230|473:260,1,65,10|8,0:2|0:2,0:0:0:0:
512,348,32595,6,0,P|466:338|322:380,1,195.00000743866,6|10,3:2|0:2,0:0:0:0:
196,335,33562,1,0,3:2:0:0:
196,335,33724,2,0,L|187:224,1,97.50000371933,2|0,3:2|0:2,0:0:0:0:
254,164,34207,2,0,L|245:53,2,97.50000371933,2|10|2,3:2|0:2|3:2,0:0:0:0:
376,235,35175,6,0,B|422:216|422:216|485:229,1,97.50000371933,2|0,3:2|3:2,0:0:0:0:
485,318,35659,2,0,B|439:337|439:337|376:324,1,97.50000371933,2|0,0:2|0:2,0:0:0:0:
314,372,36143,1,8,0:2:0:0:
314,372,36304,2,0,P|251:359|207:376,1,97.50000371933,2|0,3:2|0:2,0:0:0:0:
134,313,36788,2,0,P|86:322|40:309,2,97.50000371933,0|8|2,3:2|0:2|3:2,0:0:0:0:
237,182,37756,6,0,L|249:76,1,97.50000371933,2|0,3:2|3:2,0:0:0:0:
110,3,38401,2,0,L|99:99,1,97.50000371933,10|0,0:2|3:2,0:0:0:0:
13,111,38885,2,0,P|28:154|36:219,1,97.50000371933,0|0,3:2|3:2,0:0:0:0:
5,289,39369,1,0,3:2:0:0:
190,360,39691,2,0,P|196:311|212:265,1,97.50000371933,10|0,0:2|3:2,0:0:0:0:
348,172,40336,6,0,L|451:187,2,97.50000371933,2|0|0,3:2|3:2|3:2,0:0:0:0:
252,58,41304,1,8,0:2:0:0:
252,58,41466,2,0,P|198:41|142:57,1,97.50000371933,2|0,3:2|3:2,0:0:0:0:
94,112,41949,2,0,P|77:166|93:222,1,97.50000371933,14|8,0:2|0:2,0:0:0:0:
153,261,42433,1,8,0:2:0:0:
153,261,42595,2,0,L|205:257,1,48.750001859665,8|4,0:3|0:3,0:0:0:0:
223,270,42836,1,4,0:3:0:0:
223,270,42917,6,0,P|261:257|377:353,1,195.00000743866,6|8,3:2|0:2,0:0:0:0:
498,222,43885,1,2,3:2:0:0:
498,222,44046,2,0,L|487:108,1,97.50000371933,2|0,0:0|0:0,0:0:0:0:
389,99,44530,2,0,L|399:197,1,97.50000371933,0|10,3:2|0:2,0:0:0:0:
280,298,45175,1,2,3:2:0:0:
123,229,45498,6,0,P|75:215|12:226,1,97.50000371933,2|0,3:2|3:2,0:0:0:0:
35,115,45982,2,0,P|83:129|146:118,1,97.50000371933,2|2,0:2|0:2,0:0:0:0:
206,75,46466,1,0,3:2:0:0:
206,75,46627,2,0,L|311:97,1,97.50000371933,10|0,0:2|0:0,0:0:0:0:
387,52,47111,2,0,L|482:71,2,97.50000371933,0|8|10,3:2|0:2|0:2,0:0:0:0:
253,192,48078,6,0,P|228:230|251:299,1,110.50000210762,6|8,3:2|0:2,0:0:0:0:
475,322,48724,2,0,P|500:284|477:215,1,110.50000210762,0|8,3:2|0:2,0:0:0:0:
399,74,49369,2,0,L|379:189,1,110.50000210762,2|8,3:2|0:2,0:0:0:0:
302,129,49853,2,0,L|321:21,1,110.50000210762,2|2,3:2|3:2,0:0:0:0:
225,37,50336,2,0,P|210:66|202:117,1,82.8750015807152,8|2,0:2|0:2,0:0:0:0:
187,147,50659,6,0,P|131:185|54:177,1,130,14|0,2:2|3:2,0:0:0:0:
240,250,51143,2,0,L|383:240,1,130,14|0,2:2|3:2,0:0:0:0:
456,172,51627,1,14,0:2:0:0:
456,172,51788,1,0,3:2:0:0:
378,84,51949,6,0,B|313:74|322:127|246:107,1,130,14|0,0:2|3:2,0:0:0:0:
145,49,52433,2,0,P|154:96|105:166,1,130,14|0,0:2|3:2,0:0:0:0:
175,241,52917,2,0,L|182:312,1,65,14|8,0:2|0:2,0:0:0:0:
106,378,53240,6,0,P|88:345|82:297,2,65,14|0|0,0:0|3:0|3:0,0:0:0:0:
6,254,53724,2,0,P|24:221|30:173,2,65,14|0|0,0:0|3:0|3:0,0:0:0:0:
0,102,54207,5,14,0:2:0:0:
0,102,54369,1,0,3:2:0:0:
69,31,54530,5,14,2:2:0:0:
482,249,55336,5,0,3:2:0:0:
422,181,55498,2,0,P|359:164|323:187,1,97.5,10|0,0:2|0:2,0:0:0:0:
306,203,55820,6,0,P|251:224|171:156,1,149.500002851486,6|8,3:2|0:2,0:0:0:0:
88,227,56304,1,2,3:2:0:0:
8,153,56466,2,0,L|-1:54,1,74.7500014257431,2|0,0:2|3:2,0:0:0:0:
75,242,56788,2,0,L|81:316,1,74.7500014257431,8|2,0:2|0:2,0:0:0:0:
193,366,57111,6,0,B|240:342|240:342|354:361,1,149.500002851486,2|10,3:2|0:2,0:0:0:0:
441,321,57595,2,0,P|458:284|461:243,1,74.7500014257431,2|0,3:2|0:2,0:0:0:0:
401,117,57917,2,0,P|384:154|381:195,1,74.7500014257431,2|8,3:2|0:2,0:0:0:0:
311,247,58240,1,2,0:2:0:0:
221,198,58401,6,0,P|152:213|54:220,1,149.500002851486,2|10,3:2|0:2,0:0:0:0:
1,150,58885,2,0,P|-17:101|-17:49,1,74.7500014257431,2|0,3:2|0:2,0:0:0:0:
68,1,59207,2,0,P|86:50|86:102,1,74.7500014257431,2|8,3:2|0:2,0:0:0:0:
190,105,59530,6,0,P|285:78|342:105,1,149.500002851486,2|0,3:2|3:2,0:0:0:0:
424,59,60014,1,10,0:2:0:0:
492,132,60175,2,0,P|473:192|462:301,1,149.500002851486,0|8,3:2|0:3,0:0:0:0:
493,374,60659,1,4,0:3:0:0:
493,374,60820,1,2,0:2:0:0:
367,257,60982,6,0,B|340:250|310:257|310:257|268:302|196:278,1,149.500002851486,6|8,3:2|0:2,0:0:0:0:
132,324,61466,1,2,3:2:0:0:
41,281,61627,2,0,L|30:203,2,74.7500014257431,2|0|8,0:2|3:2|0:2,0:0:0:0:
119,158,62111,1,2,3:2:0:0:
50,89,62272,6,0,P|102:113|191:56,1,149.500002851486,6|10,3:2|0:2,0:0:0:0:
300,124,62756,2,0,P|324:185|317:216,1,74.7500014257431,2|0,3:2|0:2,0:0:0:0:
430,243,63078,2,0,P|398:287|378:331,1,74.7500014257431,2|8,3:2|0:2,0:0:0:0:
473,369,63401,1,2,3:2:0:0:
473,369,63562,6,0,P|414:343|316:386,1,149.500002851486,2|10,3:2|0:2,0:0:0:0:
174,304,64046,2,0,P|233:308|264:300,1,74.7500014257431,2|0,3:2|0:2,0:0:0:0:
344,240,64369,2,0,L|354:145,1,74.7500014257431,2|8,3:2|0:2,0:0:0:0:
249,53,64691,6,0,B|277:94|277:94|236:140|256:209,1,149.500002851486,6|0,3:2|3:2,0:0:0:0:
156,234,65175,2,0,L|59:218,1,74.7500014257431,10|0,0:2|3:2,0:0:0:0:
229,321,65498,2,0,L|326:305,1,74.7500014257431,8|8,0:2|0:3,0:0:0:0:
333,326,65740,1,4,0:3:0:0:
333,326,65820,2,0,P|390:337|443:294,1,112.125002138615,14|0,2:2|0:2,0:0:0:0:
473,312,66143,6,0,L|456:146,1,149.500002851486,6|8,3:2|0:2,0:0:0:0:
502,67,66627,1,2,3:2:0:0:
395,24,66788,2,0,B|308:11|341:83|229:54,1,149.500002851486,2|8,0:2|0:2,0:0:0:0:
169,16,67272,1,2,3:2:0:0:
45,80,67433,6,0,B|82:114|82:114|55:223,1,149.500002851486,2|10,3:2|0:2,0:0:0:0:
160,227,67917,2,0,L|175:308,1,74.7500014257431,2|0,3:2|0:2,0:0:0:0:
295,342,68240,1,2,3:2:0:0:
295,342,68401,2,0,L|282:269,1,74.7500014257431,8|0,0:2|0:2,0:0:0:0:
398,125,68724,6,0,P|428:174|365:263,1,149.500002851486,2|10,3:2|0:2,0:0:0:0:
307,140,69207,2,0,L|292:54,1,74.7500014257431,2|0,3:2|0:0,0:0:0:0:
174,29,69530,2,0,L|186:102,1,74.7500014257431,2|8,3:2|0:2,0:0:0:0:
113,184,69853,6,0,B|-4:168|-4:168|40:206,1,149.500002851486,6|0,3:2|3:2,0:0:0:0:
92,283,70336,2,0,P|141:286|177:271,1,74.7500014257431,10|0,0:2|3:2,0:0:0:0:
258,217,70659,2,0,L|277:297,1,74.7500014257431,10|0,0:2|3:2,0:0:0:0:
379,331,70982,2,0,P|445:319|492:313,1,112.125002138615,14|0,0:2|0:2,0:0:0:0:
512,288,71304,6,0,P|468:232|472:148,1,149.500002851486,6|8,3:2|0:2,0:0:0:0:
381,94,71788,2,0,P|327:80|264:170,1,149.500002851486,2|0,3:2|3:2,0:0:0:0:
327,225,72272,1,8,0:2:0:0:
245,318,72433,6,0,P|160:308|75:302,1,149.500002851486,0|0,3:2|3:2,0:0:0:0:
5,225,72917,1,8,0:2:0:0:
5,225,73078,1,0,3:2:0:0:
77,158,73240,2,0,P|83:97|83:77,1,74.7500014257431,2|0,3:2|3:2,0:0:0:0:
186,33,73562,2,0,P|180:94|180:114,1,74.7500014257431,10|2,0:2|0:2,0:0:0:0:
304,203,73885,6,0,B|250:179|250:179|210:213|148:205,1,149.500002851486,6|10,3:2|0:2,0:0:0:0:
368,272,74369,2,0,P|401:219|365:127,1,149.500002851486,2|0,3:2|3:2,0:0:0:0:
289,91,74853,1,8,0:2:0:0:
392,14,75014,6,0,B|440:1|440:1|496:49|466:124,1,149.500002851486,6|8,3:2|0:3,0:0:0:0:
401,267,75498,1,4,0:3:0:0:
412,291,75982,5,0,3:2:0:0:
316,243,76143,2,0,P|266:242|190:236,1,112.125002138615,14|0,0:2|0:2,0:0:0:0:
173,260,76466,6,0,P|119:276|43:229,1,143.000004364014,6|8,3:2|0:2,0:0:0:0:
70,127,76949,2,0,P|124:111|200:158,1,143.000004364014,2|0,3:2|3:2,0:0:0:0:
290,122,77433,1,8,0:2:0:0:
385,171,77595,6,0,P|393:230|407:320,1,143.000004364014,2|0,3:2|3:2,0:0:0:0:
326,373,78078,2,0,P|269:355|231:355,1,71.5000021820069,10|0,0:2|0:2,0:0:0:0:
153,364,78401,2,0,P|118:359|85:346,1,71.5000021820069,2|0,3:2|3:2,0:0:0:0:
27,263,78724,2,0,P|43:231|59:199,1,71.5000021820069,10|0,0:2|0:2,0:0:0:0:
140,106,79046,6,0,P|144:153|182:258,1,143.000004364014,2|8,3:2|0:2,0:0:0:0:
267,188,79530,2,0,P|313:208|414:229,1,143.000004364014,2|0,3:2|3:2,0:0:0:0:
498,191,80014,1,10,0:2:0:0:
429,120,80175,1,2,0:2:0:0:
429,120,80256,1,2,0:2:0:0:
429,120,80336,6,0,L|420:26,1,71.5000021820069,10|2,0:2|3:2,0:0:0:0:
83,264,80820,6,0,L|92:358,1,71.5000021820069,2|0,3:2|0:0,0:0:0:0:
177,289,81143,2,0,L|186:383,1,71.5000021820069,6|0,3:2|0:0,0:0:0:0:
266,247,81466,2,0,L|272:318,1,71.5000021820069,6|0,3:2|0:0,0:0:0:0:
359,361,81788,6,0,B|425:336|425:336|515:356,2,143.000004364014,6|6|6,3:2|3:2|3:2,0:0:0:0:
