osu file format v14

[General]
AudioFilename: audio.ogg
AudioLeadIn: 0
PreviewTime: 49655
Countdown: 0
SampleSet: Soft
StackLeniency: 0.7
Mode: 0
LetterboxInBreaks: 0
WidescreenStoryboard: 1

[Editor]
Bookmarks: 596,12886,24452,36018,47584,50476,67825,76500
DistanceSpacing: 1
BeatDivisor: 8
GridSize: 8
TimelineZoom: 1

[Metadata]
Title:Paradoxes (TV Size)
TitleUnicode:Paradoxes (TV Size)
Artist:Tomita Miyu
ArtistUnicode:富田美憂
Creator:pnky
Version:Normal
Source:デート・ア・ライブⅤ
Tags:clammbon dal date a live V 5th kadokawa 渡部紫緒 坂部 剛 anime japanese pop op opening jpop j-pop season 5 s5
BeatmapID:4534820
BeatmapSetID:2152297

[Difficulty]
HPDrainRate:3
CircleSize:3.6
OverallDifficulty:4
ApproachRate:5.5
SliderMultiplier:2.4
SliderTickRate:1

[Events]
//Background and Video events
0,0,"kotori.jpg",0,0
Video,-60,"datealivev.avi"
//Break Periods
//Storyboard Layer 0 (Background)
//Storyboard Layer 1 (Fail)
//Storyboard Layer 2 (Pass)
//Storyboard Layer 3 (Foreground)
//Storyboard Layer 4 (Overlay)
//Storyboard Sound Samples

[TimingPoints]
596,722.89156626506,4,2,1,35,1,0
596,-111.111111111111,4,2,1,40,0,0
1318,722.89156626506,4,2,1,40,1,0
1318,-111.111111111111,4,2,1,40,0,0
12884,-111.111111111111,4,2,1,50,0,0
23727,710.059171597633,4,2,1,50,1,0
23727,-111.111111111111,4,2,1,50,0,0
24437,740.740740740741,4,2,1,60,1,0
24437,-100,4,2,1,60,0,0
24451,-99.9999999999999,4,2,1,60,0,0
25177,705.882352941176,4,2,1,60,1,0
26235,759.493670886076,4,2,1,60,1,0
26614,722.89156626506,4,2,1,60,1,0
27336,722.89156626506,4,2,1,60,1,0
36010,-100,4,2,1,65,0,0
47576,-100,4,2,1,55,0,0
47938,-100,4,2,1,50,0,0
48299,-100,4,2,1,45,0,0
48661,-100,4,2,1,40,0,0
49022,-100,4,2,1,35,0,0
49745,697.674418604651,4,2,1,75,1,0
49745,-100,4,2,1,75,0,0
50468,722.89156626506,4,2,1,85,1,0
50468,-95.2380952380952,4,2,1,85,0,1
67817,-95.2380952380952,4,2,1,80,0,1
76492,-111.111111111111,4,2,1,60,0,0
77937,-111.111111111111,4,2,1,40,0,0

[Colours]
Combo1 : 181,226,253
Combo2 : 218,67,67
Combo3 : 255,157,149
Combo4 : 132,32,213
Combo5 : 197,138,255
Combo6 : 164,164,164
Combo7 : 219,219,219
Combo8 : 90,189,248

[HitObjects]
37,117,596,70,0,P|90:110|143:100,1,107.999996704102,2|2,0:0|0:0,0:0:0:0:
232,39,1318,2,0,P|238:92|248:145,1,107.999996704102,2|0,0:0|0:0,0:0:0:0:
299,174,1860,1,0,0:0:0:0:
299,174,2040,1,2,0:0:0:0:
226,254,2402,1,2,0:0:0:0:
299,332,2763,2,0,P|352:321|405:315,1,107.999996704102,2|0,0:0|0:0,0:0:0:0:
502,266,3486,2,0,P|491:212|485:159,1,107.999996704102,2|2,0:0|0:0,0:0:0:0:
470,52,4209,6,0,P|416:41|363:35,1,107.999996704102,2|0,0:0|0:0,0:0:0:0:
281,105,4932,2,0,P|277:131|272:158,2,53.9999983520508,2|2|2,0:0|0:0|0:0,0:0:0:0:
247,69,5474,1,2,0:0:0:0:
247,69,5655,2,0,P|193:62|140:52,1,107.999996704102
32,42,6378,1,2,0:0:0:0:
20,149,6739,1,2,0:0:0:0:
122,183,7101,102,0,P|115:237|105:290,1,107.999996704102,2|0,0:0|0:0,0:0:0:0:
70,332,7643,1,0,0:0:0:0:
70,332,7824,1,2,0:0:0:0:
165,383,8185,1,2,0:0:0:0:
246,312,8546,2,0,P|299:302|352:295,2,107.999996704102,2|0|0,0:0|0:0|0:0,0:0:0:0:
167,237,9631,1,2,0:0:0:0:
245,162,9992,6,0,P|235:108|228:55,1,107.999996704102,2|0,0:0|0:0,0:0:0:0:
265,16,10534,1,0,0:0:0:0:
366,53,10896,2,0,P|370:27|374:0,2,53.9999983520508,2|2|2,0:0|0:0|0:0,0:0:0:0:
393,99,11438,1,2,0:0:0:0:
280,281,12884,102,0,P|226:285|173:296,1,107.999996704102,2|2,0:0|0:0,0:0:0:0:
132,269,13426,1,0,0:0:0:0:
132,269,13607,1,2,0:0:0:0:
194,182,13968,1,2,0:0:0:0:
194,182,14149,2,0,P|190:128|179:75,1,107.999996704102,2|2,0:0|0:0,0:0:0:0:
140,37,14691,2,0,P|194:33|247:22,2,107.999996704102,2|0|2,0:0|0:0|0:0,0:0:0:0:
43,85,15775,6,0,P|11:162|25:191,1,107.999996704102,2|2,0:0|0:0,0:0:0:0:
72,202,16317,1,0,0:0:0:0:
72,202,16498,1,2,0:0:0:0:
53,311,16860,1,2,0:0:0:0:
53,311,17040,2,0,P|132:293|224:283,1,161.999995056153,2|2,0:0|0:0,0:0:0:0:
311,236,17944,1,2,0:0:0:0:
311,236,18125,1,0,0:0:0:0:
419,265,18486,101,0,0:0:0:0:
419,265,18667,2,0,P|425:211|437:158,1,107.999996704102,2|2,0:0|0:0,0:0:0:0:
464,113,19209,1,0,0:0:0:0:
464,113,19390,2,0,P|410:106|357:94,1,107.999996704102,2|2,0:0|0:0,0:0:0:0:
327,49,19932,1,2,0:0:0:0:
243,116,20293,1,2,0:0:0:0:
243,116,20474,2,0,P|254:168|261:222,1,107.999996704102,2|2,0:0|0:0,0:0:0:0:
174,287,21197,6,0,P|170:317|167:344,2,53.9999983520508,2|0|2,0:0|0:0|0:0,0:0:0:0:
76,252,21920,1,0,0:0:0:0:
76,252,22101,2,0,P|64:199|57:145,1,107.999996704102
82,99,22643,1,2,0:0:0:0:
82,99,22824,2,0,P|152:134|233:122,1,161.999995056153,2|2,0:0|0:0,0:0:0:0:
324,63,23727,1,2,0:0:0:0:
324,63,23904,2,0,P|377:51|431:44,1,107.999996704102,0|0,0:0|3:2,0:0:0:0:
473,85,24437,6,0,P|460:143|453:209,1,120,4|2,1:1|0:0,0:0:0:0:
470,265,24992,1,2,0:0:0:0:
470,265,25177,1,8,0:0:0:0:
367,324,25529,1,2,0:0:0:0:
367,324,25706,2,0,P|360:264|347:205,1,120,2|0,1:2|1:0,0:0:0:0:
323,155,26235,2,0,P|275:201|214:196,1,120,2|8,1:2|0:0,0:0:0:0:
127,126,26975,1,0,0:0:0:0:
57,223,27336,6,0,P|24:214|-16:209,2,60,2|2|2,1:2|0:0|0:0,0:0:0:0:
89,279,27878,1,2,0:0:0:0:
89,279,28058,2,0,P|148:270|206:254,1,120,10|2,0:0|2:2,0:0:0:0:
252,292,28601,1,2,1:2:0:0:
374,274,28962,1,0,1:2:0:0:
374,274,29143,2,0,P|383:215|399:157,1,120,2|8,1:2|0:0,0:0:0:0:
439,43,29866,2,0,P|406:34|366:29,1,60,2|2,0:0|3:2,0:0:0:0:
326,57,30227,102,0,P|268:105|200:85,1,120,2|2,1:2|0:0,0:0:0:0:
195,57,30769,1,2,0:0:0:0:
195,57,30950,2,0,P|135:47|75:45,1,120,10|2,0:0|0:0,0:0:0:0:
36,90,31492,1,2,1:2:0:0:
118,184,31854,1,0,1:2:0:0:
118,184,32034,2,0,P|128:244|130:304,1,120,2|8,1:2|0:0,0:0:0:0:
235,360,32757,2,0,P|265:365|295:366,1,60,2|0,0:0|3:2,0:0:0:0:
349,339,33119,6,0,P|369:265|288:230,1,180,2|2,1:2|0:0,0:0:0:0:
243,190,33842,1,8,0:0:0:0:
297,84,34203,1,2,0:0:0:0:
297,84,34384,2,0,P|357:96|440:99,1,120,0|0,1:2|3:2,0:0:0:0:
474,86,34926,2,0,P|462:146|459:229,1,120,0|12,1:2|1:3,0:0:0:0:
481,260,35468,1,12,1:3:0:0:
452,312,35649,1,4,1:3:0:0:
351,377,36010,70,0,P|233:351|114:336,1,240,4|2,1:1|1:2,0:0:0:0:
20,262,37095,1,2,0:0:0:0:
108,180,37456,2,0,P|96:118|91:56,2,120,0|2|0,1:2|0:0|1:2,0:0:0:0:
217,228,38540,1,2,0:0:0:0:
298,139,38902,6,0,P|398:141|448:274,1,240,2|2,1:2|1:2,0:0:0:0:
380,352,39986,2,0,P|348:358|321:365,1,60,2|2,2:2|0:0,0:0:0:0:
281,338,40348,1,0,1:2:0:0:
163,365,40709,2,0,P|131:359|104:352,1,60,2|0,1:2|0:0,0:0:0:0:
61,310,41070,2,0,P|73:245|87:190,1,120,0|0,1:2|0:0,0:0:0:0:
198,150,41793,102,0,P|314:179|432:200,1,240,4|2,1:1|1:2,0:0:0:0:
468,85,42878,1,2,0:0:0:0:
371,13,43239,2,0,P|312:27|253:38,1,120,0|2,1:2|0:0,0:0:0:0:
170,125,43962,2,0,P|111:110|52:99,1,120,0|2,1:2|0:0,0:0:0:0:
2,208,44685,6,0,P|120:232|236:264,1,240,2|2,1:2|1:2,0:0:0:0:
314,353,45769,1,0,0:0:0:0:
431,328,46131,2,0,P|446:269|457:210,1,120,2|2,1:2|0:0,0:0:0:0:
422,168,46673,1,2,0:0:0:0:
422,168,46854,2,0,P|363:156|304:142,1,120,0|0,1:2|0:0,0:0:0:0:
248,36,47576,1,2,0:0:0:0:
248,36,49564,53,0,1:2:0:0:
248,36,49745,2,0,P|216:28|176:24,2,60,8|8|8,1:2|1:2|1:2,0:0:0:0:
288,87,50268,101,8,1:2:0:0:
288,87,50468,2,0,P|299:144|256:192,1,125.999996154785,4|0,1:1|0:0,0:0:0:0:
232,251,51010,1,2,0:0:0:0:
232,251,51190,1,10,0:0:0:0:
307,351,51552,2,0,P|338:355|371:362,1,62.9999980773926,0|8,1:2|0:0,0:0:0:0:
433,345,51913,1,2,1:2:0:0:
433,345,52094,2,0,P|440:283|454:218,1,125.999996154785,8|2,0:0|1:2,0:0:0:0:
430,162,52636,2,0,P|368:154|304:140,1,125.999996154785,10|0,0:0|0:0,0:0:0:0:
227,43,53359,6,0,P|288:29|351:21,1,125.999996154785,2|2,1:2|1:2,0:0:0:0:
415,5,53901,1,2,0:0:0:0:
415,5,54082,2,0,P|445:11|477:15,1,62.9999980773926,8|2,0:0|0:0,0:0:0:0:
510,75,54443,1,2,0:0:0:0:
510,75,54624,1,2,3:2:0:0:
414,156,54986,1,10,0:0:0:0:
414,156,55166,2,0,P|414:231|463:267,1,125.999996154785,0|8,0:0|0:0,0:0:0:0:
479,317,55708,2,0,P|416:323|354:336,1,125.999996154785,0|2,1:2|3:2,0:0:0:0:
301,303,56251,102,0,P|238:295|176:282,1,125.999996154785,4|0,1:1|0:0,0:0:0:0:
129,323,56793,1,2,0:0:0:0:
129,323,56974,1,10,0:0:0:0:
41,232,57335,2,0,P|47:202|56:171,1,62.9999980773926,0|0,0:0|3:2,0:0:0:0:
116,145,57696,1,2,1:2:0:0:
116,145,57877,2,0,P|145:153|176:159,1,62.9999980773926,8|0,0:0|1:2,0:0:0:0:
233,128,58239,1,2,0:0:0:0:
233,128,58419,2,0,P|274:81|257:16,1,125.999996154785,10|0,0:0|0:0,0:0:0:0:
138,2,59142,6,0,P|76:17|13:30,1,125.999996154785,2|2,1:2|1:2,0:0:0:0:
13,97,59684,1,2,1:2:0:0:
13,97,59865,2,0,P|18:127|26:158,1,62.9999980773926,10|0,0:0|0:0,0:0:0:0:
89,185,60227,1,0,2:2:0:0:
89,185,60407,2,0,P|78:252|73:313,1,125.999996154785,2|10,1:2|0:0,0:0:0:0:
34,360,60949,1,2,1:2:0:0:
159,374,61311,2,0,P|188:367|220:361,1,62.9999980773926,10|10,1:3|1:3,0:0:0:0:
261,312,61672,1,6,1:3:0:0:
376,362,62034,102,0,P|381:298|391:235,1,125.999996154785,4|0,1:1|0:0,0:0:0:0:
349,197,62576,1,2,0:0:0:0:
349,197,62757,1,10,0:0:0:0:
316,75,63118,2,0,P|286:81|254:87,1,62.9999980773926,0|8,1:2|0:0,0:0:0:0:
214,136,63480,1,2,1:2:0:0:
214,136,63660,2,0,P|150:126|86:121,1,125.999996154785,8|2,0:0|0:0,0:0:0:0:
48,73,64202,1,10,0:0:0:0:
4,191,64564,2,0,P|12:221|18:258,1,62.9999980773926,0|0,0:0|3:2,0:0:0:0:
69,288,64925,6,0,P|132:318|189:303,1,125.999996154785,2|2,1:2|0:0,0:0:0:0:
236,271,65467,2,0,P|241:206|249:142,1,125.999996154785,2|2,1:2|0:0,0:0:0:0:
306,115,66010,1,2,1:2:0:0:
306,115,66190,1,2,2:0:0:0:
423,159,66552,2,0,P|458:150|495:143,2,62.9999980773926,10|2|2,0:0|0:0|1:2,0:0:0:0:
387,210,67094,2,0,P|392:271|400:334,1,125.999996154785,8|8,1:2|1:3,0:0:0:0:
353,377,67636,1,4,1:3:0:0:
292,360,67817,101,4,1:2:0:0:
197,276,68178,1,0,1:2:0:0:
77,316,68540,2,0,P|71:253|63:189,1,125.999996154785,10|2,0:0|1:2,0:0:0:0:
41,136,69082,1,2,1:2:0:0:
41,136,69263,2,0,P|71:132|103:128,2,62.9999980773926,2|0|2,0:0|1:2|1:2,0:0:0:0:
108,30,69986,1,10,2:1:0:0:
108,30,70166,2,2,P|169:35|232:43,1,125.999996154785,2|2,1:1|0:0,0:1:0:0:
276,89,70708,5,2,1:2:0:0:
393,44,71070,1,0,1:2:0:0:
478,136,71431,2,0,P|467:197|454:260,1,125.999996154785,10|2,0:0|2:2,0:0:0:0:
404,295,71974,1,2,1:2:0:0:
404,295,72154,2,0,P|372:298|340:302,1,62.9999980773926,2|0,0:0|2:2,0:0:0:0:
294,260,72516,1,2,2:2:0:0:
190,330,72877,1,10,1:1:0:0:
190,330,73058,2,2,P|137:364|74:360,1,125.999996154785,14|2,1:2|0:0,0:1:0:0:
36,312,73600,102,0,P|31:254|18:186,2,125.999996154785,6|2|10,1:2|1:2|0:0,0:0:0:0:
127,224,74684,2,0,P|156:221|190:215,1,62.9999980773926,2|10,1:2|0:0,0:0:0:0:
229,166,75046,2,0,P|258:168|292:175,2,62.9999980773926,2|10|2,1:2|1:3|1:2,0:0:0:0:
194,119,75588,1,6,1:3:0:0:
194,119,75769,2,0,P|194:43|145:19,1,125.999996154785,10|6,1:3|1:3,0:0:0:0:
101,45,76311,1,6,1:3:0:0:
101,45,76492,54,0,P|87:145|83:265,1,215.999993408203,4|0,1:1|0:0,0:0:0:0:
293,309,77937,2,0,P|307:209|311:89,2,215.999993408203,4|0|2,1:1|0:0|0:0,0:0:0:0:
