osu file format v14

[General]
AudioFilename: audio.ogg
AudioLeadIn: 0
PreviewTime: 49655
Countdown: 0
SampleSet: Soft
StackLeniency: 0.7
Mode: 0
LetterboxInBreaks: 0
WidescreenStoryboard: 1

[Editor]
Bookmarks: 596,12886,24452,36018,47584,50476,67825,76500
DistanceSpacing: 0.7
BeatDivisor: 8
GridSize: 16
TimelineZoom: 1

[Metadata]
Title:Paradoxes (TV Size)
TitleUnicode:Paradoxes (TV Size)
Artist:Tomita Miyu
ArtistUnicode:富田美憂
Creator:pnky
Version:Insane
Source:デート・ア・ライブⅤ
Tags:clammbon dal date a live V 5th kadokawa 渡部紫緒 坂部 剛 anime japanese pop op opening jpop j-pop season 5 s5
BeatmapID:4537144
BeatmapSetID:2152297

[Difficulty]
HPDrainRate:5
CircleSize:4
OverallDifficulty:7.5
ApproachRate:8
SliderMultiplier:3.2
SliderTickRate:1

[Events]
//Background and Video events
0,0,"kotori.jpg",0,0
Video,-60,"datealivev.avi"
//Break Periods
//Storyboard Layer 0 (Background)
//Storyboard Layer 1 (Fail)
//Storyboard Layer 2 (Pass)
//Storyboard Layer 3 (Foreground)
//Storyboard Layer 4 (Overlay)
//Storyboard Sound Samples

[TimingPoints]
596,722.89156626506,4,2,1,35,1,0
596,-133.333333333333,4,2,1,40,0,0
1318,722.89156626506,4,2,1,40,1,0
1318,-133.333333333333,4,2,1,40,0,0
11438,-166.666666666667,4,2,1,40,0,0
12884,-133.333333333333,4,2,1,50,0,0
23727,710.059171597633,4,2,1,50,1,0
24437,740.740740740741,4,2,1,60,1,0
24437,-117.647058823529,4,2,1,60,0,0
25177,705.882352941176,4,2,1,60,1,0
25177,-117.647058823529,4,2,1,60,0,0
26235,759.493670886076,4,2,1,60,1,0
26235,-250,4,2,1,60,0,0
26519,-250,4,2,1,5,0,0
26614,722.89156626506,4,2,1,60,1,0
26614,-117.647058823529,4,2,1,60,0,0
27336,722.89156626506,4,2,1,60,1,0
27336,-117.647058823529,4,2,1,60,0,0
29143,-250,4,2,1,60,0,0
29414,-250,4,2,1,5,0,0
29504,-117.647058823529,4,2,1,60,0,0
32034,-250,4,2,1,60,0,0
32305,-250,4,2,1,5,0,0
32396,-117.647058823529,4,2,1,60,0,0
34926,-250,4,2,1,60,0,0
35197,-250,4,2,1,5,0,0
35287,-100,4,2,1,60,0,0
36010,-166.666666666667,4,2,1,65,0,0
47576,-133.333333333333,4,2,1,55,0,0
47938,-133.333333333333,4,2,1,50,0,0
48299,-133.333333333333,4,2,1,45,0,0
48661,-133.333333333333,4,2,1,40,0,0
49022,-133.333333333333,4,2,1,35,0,0
49745,697.674418604651,4,2,1,75,1,0
49745,-100,4,2,1,75,0,0
50468,722.89156626506,4,2,1,85,1,0
50468,-100,4,2,1,85,0,1
61311,-133.333333333333,4,2,1,85,0,1
61943,-133.333333333333,4,2,1,5,0,1
62034,-100,4,2,1,85,0,1
67094,-100,4,2,1,85,0,1
67817,-90.9090909090909,4,2,1,80,0,1
69986,-200,4,2,1,80,0,1
70618,-200,4,2,1,5,0,1
70708,-90.9090909090909,4,2,1,80,0,1
72877,-200,4,2,1,80,0,1
73510,-200,4,2,1,5,0,1
73600,-100,4,2,1,80,0,1
76492,-166.666666666667,4,2,1,60,0,0
77937,-125,4,2,1,40,0,0

[Colours]
Combo1 : 181,226,253
Combo2 : 218,67,67
Combo3 : 255,157,149
Combo4 : 132,32,213
Combo5 : 197,138,255
Combo6 : 164,164,164
Combo7 : 219,219,219
Combo8 : 90,189,248

[HitObjects]
133,83,596,69,2,0:0:0:0:
133,83,957,1,2,0:0:0:0:
133,83,1318,2,0,P|131:53|127:23,2,60.0000022888184,2|0|0,0:0|0:0|0:0,0:0:0:0:
192,133,1860,1,0,0:0:0:0:
129,210,2040,2,0,P|130:239|134:269,1,60.0000022888184,2|0,0:0|0:0,0:0:0:0:
220,318,2402,2,0,P|218:288|214:258,1,60.0000022888184,2|0,0:0|0:0,0:0:0:0:
338,135,2763,6,0,P|339:164|343:194,2,60.0000022888184,2|0|0,0:0|0:0|0:0,0:0:0:0:
278,83,3305,1,0,0:0:0:0:
409,33,3486,2,0,P|416:92|420:152,1,120.000004577637,2|2,0:0|0:0,0:0:0:0:
512,323,4209,102,0,P|483:324|453:328,1,60.0000022888184,2|0,0:0|0:0,0:0:0:0:
386,287,4571,1,0,0:0:0:0:
386,287,4932,2,0,P|357:288|327:292,1,60.0000022888184,2|2,0:0|0:0,0:0:0:0:
212,270,5293,1,2,0:0:0:0:
259,331,5474,1,2,0:0:0:0:
156,378,5655,6,0,P|152:349|150:319,1,60.0000022888184
150,319,6378,2,0,P|152:349|157:379,1,60.0000022888184,2|0,0:0|0:0,0:0:0:0:
77,365,6739,2,0,P|75:335|70:305,1,60.0000022888184,2|0,0:0|0:0,0:0:0:0:
0,182,7101,102,0,P|30:177|60:176,2,60.0000022888184,2|0|0,0:0|0:0|0:0,0:0:0:0:
117,225,7643,1,0,0:0:0:0:
183,138,7824,2,0,P|212:136|242:131,1,60.0000022888184,2|0,0:0|0:0,0:0:0:0:
321,210,8185,2,0,P|291:211|261:216,1,60.0000022888184,2|0,0:0|0:0,0:0:0:0:
413,60,8546,6,0,P|414:89|419:119,2,60.0000022888184,2|0|0,0:0|0:0|0:0,0:0:0:0:
303,31,9089,2,0,P|317:119|321:209,1,180.000006866455,0|2,0:0|0:0,0:0:0:0:
142,368,9992,102,0,P|171:367|201:362,1,60.0000022888184,2|0,0:0|0:0,0:0:0:0:
227,287,10354,1,0,0:0:0:0:
263,312,10534,1,0,0:0:0:0:
267,269,10715,1,0,0:0:0:0:
343,305,10896,1,2,0:0:0:0:
343,305,11077,2,0,P|373:306|403:312,1,60.0000022888184,2|2,0:0|0:0,0:0:0:0:
495,219,11438,6,0,P|397:215|300:196,1,191.999994140625,2|0,0:0|0:0,0:0:0:0:
305,196,12884,102,0,P|300:137|287:78,1,120.000004577637,2|2,0:0|0:0,0:0:0:0:
228,29,13426,1,0,0:0:0:0:
162,72,13607,2,0,P|166:131|179:190,1,120.000004577637,2|2,0:0|0:0,0:0:0:0:
156,325,14149,2,0,P|96:329|37:342,1,120.000004577637,2|2,0:0|0:0,0:0:0:0:
0,273,14691,1,2,0:0:0:0:
0,273,15052,2,0,L|10:212,1,60.0000022888184
70,167,15414,1,2,0:0:0:0:
1,98,15595,1,0,0:0:0:0:
97,29,15775,5,2,0:0:0:0:
97,29,15956,1,0,0:0:0:0:
159,76,16137,2,0,P|189:72|220:66,1,60.0000022888184,2|0,0:0|0:0,0:0:0:0:
287,103,16498,2,0,P|298:161|306:221,1,120.000004577637,2|2,0:0|0:0,0:0:0:0:
464,267,17040,2,0,P|452:208|444:148,1,120.000004577637,2|2,0:0|0:0,0:0:0:0:
475,77,17583,1,2,0:0:0:0:
475,77,17944,101,2,0:0:0:0:
370,46,18125,1,0,0:0:0:0:
339,151,18305,1,2,0:0:0:0:
444,182,18486,1,0,0:0:0:0:
366,227,18667,6,0,P|336:231|305:237,2,60.0000022888184,2|0|2,0:0|0:0|0:0,0:0:0:0:
345,308,19209,1,0,0:0:0:0:
246,284,19390,2,0,P|186:291|125:303,1,120.000004577637,2|2,0:0|0:0,0:0:0:0:
19,384,19932,2,0,P|7:325|0:265,1,120.000004577637,2|2,0:0|0:0,0:0:0:0:
64,178,20474,2,0,P|69:207|73:237,1,60.0000022888184,2|0,0:0|0:0,0:0:0:0:
26,150,20836,2,0,P|20:120|16:90,1,60.0000022888184,2|0,0:0|0:0,0:0:0:0:
65,27,21197,1,2,0:0:0:0:
65,27,21378,1,0,0:0:0:0:
157,112,21558,102,0,P|213:115|262:65,1,120.000004577637,2|0,0:0|0:0,0:0:0:0:
335,70,22101,1,0,0:0:0:0:
398,194,22281,2,0,P|355:154|296:156,1,120.000004577637,2|2,0:0|0:0,0:0:0:0:
228,198,22824,2,0,P|240:257|247:317,1,120.000004577637,2|2,0:0|0:0,0:0:0:0:
173,376,23366,2,0,P|167:346|163:316,1,60.0000022888184,2|0,0:0|0:0,0:0:0:0:
246,316,23727,5,2,0:0:0:0:
354,354,23904,1,0,0:0:0:0:
440,279,24082,1,2,0:0:0:0:
332,241,24259,1,0,3:0:0:0:
262,183,24437,6,0,P|269:115|283:48,1,136.000002593994,4|2,1:1|0:0,0:0:0:0:
187,100,24992,1,2,0:0:0:0:
113,14,25177,2,0,P|106:82|92:149,1,136.000002593994,8|2,0:0|0:0,0:0:0:0:
139,243,25706,2,0,P|72:229|4:222,1,136.000002593994,2|0,1:2|1:0,0:0:0:0:
196,304,26235,54,0,L|246:296,1,48,2|0,1:2|3:1,0:0:0:0:
325,206,26614,53,8,0:0:0:0:
325,206,26975,2,0,P|331:174|335:138,1,68.0000012969971,0|0,0:0|3:0,0:0:0:0:
290,50,27246,1,0,3:0:0:0:
290,50,27336,6,0,P|357:56|424:70,1,136.000002593994,2|2,1:2|0:0,0:0:0:0:
418,152,27878,1,2,0:0:0:0:
490,226,28058,2,0,P|496:194|500:158,1,68.0000012969971,10|0,0:0|0:0,0:0:0:0:
490,226,28420,1,2,2:2:0:0:
416,298,28601,2,0,P|348:291|281:277,1,136.000002593994,2|0,1:2|1:2,0:0:0:0:
188,194,29143,38,0,L|196:244,1,48,2|0,1:2|3:0,0:0:0:0:
150,330,29504,53,8,0:0:0:0:
150,330,29866,1,2,0:0:0:0:
60,384,30046,5,2,3:2:0:0:
60,384,30137,1,0,3:2:0:0:
60,384,30227,2,0,P|46:317|39:249,1,136.000002593994,2|2,1:2|0:0,0:0:0:0:
104,186,30769,1,2,0:0:0:0:
213,212,30950,2,0,P|219:244|223:280,2,68.0000012969971,10|0|2,0:0|0:0|0:0,0:0:0:0:
23,166,31492,2,0,P|9:99|2:31,1,136.000002593994,2|0,1:2|1:2,0:0:0:0:
154,61,32034,38,0,L|208:50,1,48,2|0,1:2|3:2,0:0:0:0:
308,11,32396,53,8,0:0:0:0:
288,85,32576,1,0,0:0:0:0:
362,105,32757,1,2,0:0:0:0:
382,31,32938,2,0,L|436:20,1,34.0000006484985,0|0,3:2|3:2,0:0:0:0:
492,103,33119,6,0,P|506:170|513:238,1,136.000002593994,2|0,1:2|0:0,0:0:0:0:
428,197,33661,1,2,0:0:0:0:
390,330,33842,2,0,P|383:296|380:262,1,68.0000012969971,8|0,0:0|0:0,0:0:0:0:
470,306,34203,1,2,0:0:0:0:
277,283,34384,2,0,P|263:216|256:148,1,136.000002593994,0|0,1:2|3:2,0:0:0:0:
130,213,34926,38,0,L|136:260,1,48,0|0,1:2|3:2,0:0:0:0:
97,365,35287,6,0,L|58:373,1,40,12|0,1:3|0:0,0:0:0:0:
22,301,35468,2,0,L|61:293,1,40,12|0,1:3|0:0,0:0:0:0:
189,384,35649,2,0,P|197:344|200:303,1,80,4|0,1:3|0:0,0:0:0:0:
30,70,36010,6,0,P|36:141|50:212,1,143.999995605469,4|0,1:1|0:0,0:0:0:0:
136,260,36733,6,0,L|143:202,1,47.9999985351563,2|0,1:2|0:0,0:0:0:0:
208,154,37095,1,2,0:0:0:0:
208,154,37275,1,2,0:0:0:0:
298,226,37456,2,0,P|345:216|393:213,2,95.9999970703126,0|2|0,1:2|0:0|1:2,0:0:0:0:
455,156,38540,102,0,L|460:108,1,47.9999985351563,2|0,0:0|0:0,0:0:0:0:
396,21,38902,2,0,P|325:15|254:1,1,143.999995605469,2|0,1:2|0:0,0:0:0:0:
165,54,39625,6,0,L|170:101,1,47.9999985351563,2|0,1:2|0:0,0:0:0:0:
246,144,39986,1,2,2:2:0:0:
246,144,40167,1,2,0:0:0:0:
168,223,40348,2,0,P|121:213|73:210,1,95.9999970703126,0|2,1:2|1:2,0:0:0:0:
214,299,40890,1,0,0:0:0:0:
214,299,41070,2,0,P|261:295|308:285,1,95.9999970703126,0|0,1:2|0:0,0:0:0:0:
479,384,41793,102,0,P|485:313|499:242,1,143.999995605469,4|0,1:1|0:0,0:0:0:0:
428,132,42516,6,0,L|435:178,2,47.9999985351563,2|0|2,1:2|0:0|0:0,0:0:0:0:
479,66,43058,1,2,0:0:0:0:
346,124,43239,2,0,L|285:114,1,47.9999985351563,0|0,1:2|0:0,0:0:0:0:
205,191,43601,2,0,L|266:181,1,47.9999985351563,2|0,0:0|0:0,0:0:0:0:
264,43,43962,1,0,1:2:0:0:
264,43,44143,1,0,0:0:0:0:
186,72,44323,1,2,0:0:0:0:
186,72,44685,102,0,P|138:62|91:59,1,95.9999970703126,2|0,1:2|0:0,0:0:0:0:
30,13,45227,1,0,0:0:0:0:
112,98,45408,2,0,P|88:96|64:91,1,47.9999985351563,2|0,1:2|0:0,0:0:0:0:
0,172,45769,2,0,P|24:174|48:179,1,47.9999985351563
179,304,46131,6,0,P|131:294|84:291,1,95.9999970703126,2|2,1:2|0:0,0:0:0:0:
156,380,46673,1,2,0:0:0:0:
273,351,46854,2,0,P|296:355|320:357,1,47.9999985351563,0|2,1:2|0:0,0:0:0:0:
440,317,47215,2,0,P|417:313|393:311,1,47.9999985351563
287,184,47576,85,2,0:0:0:0:
287,184,47757,1,2,0:0:0:0:
377,217,47938,1,2,0:0:0:0:
360,122,48119,1,2,0:0:0:0:
393,311,48299,22,0,P|371:331|347:349,1,60.0000022888184,2|2,0:0|0:0,0:0:0:0:
303,278,48661,2,0,P|274:269|247:257,1,60.0000022888184,2|2,0:0|0:0,0:0:0:0:
450,155,49022,86,0,P|479:164|506:176,1,60.0000022888184,2|2,0:0|0:0,0:0:0:0:
467,250,49384,2,0,P|473:279|476:309,1,60.0000022888184,2|2,0:0|1:2,0:0:0:0:
377,217,49745,69,8,1:2:0:0:
303,278,49919,5,8,1:2:0:0:
467,250,50093,1,8,1:2:0:0:
360,122,50268,1,8,1:2:0:0:
223,345,50468,102,0,P|204:267|196:187,1,160,4|0,1:1|0:0,0:0:0:0:
76,104,51010,1,2,0:0:0:0:
171,0,51190,2,0,P|166:39|157:78,1,80,10|0,0:0|0:0,0:0:0:0:
90,273,51552,1,0,1:2:0:0:
196,187,51733,1,8,0:0:0:0:
0,203,51913,5,2,1:2:0:0:
0,203,52094,2,0,P|39:197|78:188,1,80,8|0,0:0|1:2,0:0:0:0:
157,79,52455,1,2,1:2:0:0:
281,217,52636,2,0,P|273:297|255:375,1,160,10|0,0:0|0:0,0:0:0:0:
196,187,53178,101,0,3:2:0:0:
196,187,53269,1,0,3:2:0:0:
196,187,53359,2,0,P|186:112|244:61,1,160,2|2,1:2|1:2,0:0:0:0:
350,79,53901,1,2,0:0:0:0:
281,217,54082,2,0,P|319:226|359:232,1,80,8|2,0:0|0:0,0:0:0:0:
426,176,54443,1,2,0:0:0:0:
263,307,54624,5,2,3:2:0:0:
263,307,54714,1,0,3:2:0:0:
263,307,54805,1,0,1:2:0:0:
196,187,54986,2,0,P|156:192|117:202,1,80,10|0,0:0|0:0,0:0:0:0:
39,138,55347,1,0,1:2:0:0:
216,82,55528,101,8,0:0:0:0:
117,201,55708,2,0,P|124:121|142:43,1,160,0|2,1:2|3:2,0:0:0:0:
395,183,56251,6,0,P|388:263|370:341,1,160,4|0,1:1|0:0,0:0:0:0:
256,192,56793,1,2,0:0:0:0:
144,296,56974,2,0,P|184:291|223:281,1,80,10|0,0:0|0:0,0:0:0:0:
117,201,57335,1,0,0:0:0:0:
222,281,57516,1,0,3:2:0:0:
44,384,57696,101,2,1:2:0:0:
44,384,57877,2,0,P|49:344|59:305,1,80,8|0,0:0|1:2,0:0:0:0:
141,183,58239,1,2,0:0:0:0:
247,310,58419,2,0,P|324:327|404:334,1,160,10|0,0:0|0:0,0:0:0:0:
512,210,58961,5,0,3:2:0:0:
512,210,59052,1,0,3:2:0:0:
512,210,59142,1,2,1:2:0:0:
421,235,59323,1,0,0:0:0:0:
396,144,59504,1,2,1:2:0:0:
487,119,59684,1,2,1:2:0:0:
300,192,59865,2,0,P|305:152|315:113,1,80,10|0,0:0|0:0,0:0:0:0:
396,144,60227,1,0,2:2:0:0:
193,0,60407,102,0,P|210:77|217:157,1,160,2|10,1:2|0:0,0:0:0:0:
62,264,60949,2,0,P|52:225|47:185,1,80,2|2,1:2|0:0,0:0:0:0:
242,267,61311,21,10,1:3:0:0:
3,339,61492,1,10,1:3:0:0:
242,267,61672,2,0,P|197:256|151:250,1,90.0000034332277,6|0,1:3|0:0,0:0:0:0:
177,341,62034,102,0,P|254:358|334:365,1,160,4|0,1:1|0:0,0:0:0:0:
494,240,62576,1,2,0:0:0:0:
394,297,62757,2,0,P|384:258|379:218,1,80,10|0,0:0|1:2,0:0:0:0:
457,123,63118,1,0,1:2:0:0:
312,33,63299,1,8,0:0:0:0:
295,166,63480,101,2,1:2:0:0:
295,166,63660,2,0,P|256:156|216:151,1,80,8|0,0:0|1:2,0:0:0:0:
128,63,64022,1,2,0:0:0:0:
23,256,64202,2,0,P|102:249|180:231,1,160,10|0,0:0|0:0,0:0:0:0:
48,119,64745,5,0,3:2:0:0:
48,119,64835,1,0,3:2:0:0:
48,119,64925,2,0,P|38:80|33:40,1,80,2|0,1:2|0:0,0:0:0:0:
216,151,65287,1,2,0:0:0:0:
148,274,65467,2,0,P|187:268|226:259,1,80,2|8,1:2|0:0,0:0:0:0:
96,204,65829,1,2,0:0:0:0:
216,151,66010,1,2,1:2:0:0:
154,362,66190,1,2,2:0:0:0:
0,308,66371,101,0,1:2:0:0:
0,308,66552,2,0,P|39:314|78:323,2,80,10|2|2,0:0|0:0|1:2,0:0:0:0:
240,383,67094,6,0,P|298:374|357:360,1,120,8|0,1:2|0:0,0:0:0:0:
418,304,67455,6,0,L|427:245,1,40,8|0,1:3|0:0,0:0:0:0:
494,331,67636,2,0,L|503:272,1,40,4|0,1:3|0:0,0:0:0:0:
426,178,67817,86,0,P|382:166|338:158,1,88.000002685547,4|0,1:2|0:0,0:0:0:0:
201,300,68178,2,0,P|213:256|221:212,1,88.000002685547,0|0,1:2|0:0,0:0:0:0:
69,22,68540,2,0,P|57:66|49:110,1,88.000002685547,10|2,0:0|0:0,0:0:0:0:
132,218,68901,5,2,1:2:0:0:
262,109,69082,2,0,P|218:121|174:129,1,88.000002685547,2|2,1:2|0:0,0:0:0:0:
0,274,69443,1,0,1:2:0:0:
0,274,69624,2,0,P|43:282|85:293,1,88.000002685547,2|2,1:2|0:0,0:0:0:0:
302,384,69986,5,10,2:1:0:0:
422,356,70166,2,2,P|435:307|444:259,1,100,2|0,1:1|0:0,0:1:0:0:
373,192,70708,86,0,P|361:236|353:280,1,88.000002685547,2|0,1:2|0:0,0:0:0:0:
260,69,71070,2,0,P|304:81|348:89,1,88.000002685547,0|0,1:2|0:0,0:0:0:0:
98,191,71431,2,0,P|110:147|118:103,1,88.000002685547,10|2,0:0|0:0,0:0:0:0:
46,45,71793,5,2,2:2:0:0:
200,178,71974,2,0,P|208:221|219:263,1,88.000002685547,2|2,1:2|0:0,0:0:0:0:
70,370,72335,1,0,2:2:0:0:
70,370,72516,2,0,P|114:358|158:350,1,88.000002685547,2|2,2:2|1:2,0:0:0:0:
328,211,72877,5,10,1:1:0:0:
487,311,73058,2,2,P|437:301|388:289,1,100,14|0,1:2|0:0,0:1:0:0:
317,384,73600,86,0,P|309:342|298:301,1,80,6|0,1:2|0:0,0:0:0:0:
428,196,73961,2,0,P|468:189|507:179,1,80,2|0,1:2|0:0,0:0:0:0:
395,11,74323,2,0,P|355:18|316:28,1,80,10|0,0:0|0:0,0:0:0:0:
212,125,74684,5,2,1:2:0:0:
56,53,74865,1,10,0:0:0:0:
142,165,75046,101,2,1:2:0:0:
6,191,75227,1,10,1:3:0:0:
117,237,75407,5,2,1:2:0:0:
41,316,75588,1,6,1:3:0:0:
161,298,75769,101,10,1:3:0:0:
148,384,75949,1,10,1:3:0:0:
230,319,76130,5,6,1:3:0:0:
264,384,76311,1,6,1:3:0:0:
302,317,76492,38,0,B|319:281|300:232|296:236|292:240|253:161|280:71|417:120|380:194|358:207,1,287.999991210938,4|0,1:1|0:0,0:0:0:0:
217,239,77757,5,2,0:0:0:0:
217,239,77847,1,2,0:0:0:0:
217,239,77937,2,0,B|195:193|219:129|224:135|230:140|280:38|245:-77|67:-15|115:80|147:100,1,384,4|2,1:1|0:0,0:0:0:0:
85,152,79383,101,2,0:0:0:0:
