osu file format v14

[General]
AudioFilename: audio.ogg
AudioLeadIn: 0
PreviewTime: 49707
Countdown: 0
SampleSet: Soft
StackLeniency: 0.7
Mode: 0
LetterboxInBreaks: 0
WidescreenStoryboard: 0

[Editor]
Bookmarks: 1319,12886,24452,36018,50476,67825,79392
DistanceSpacing: 1.7
BeatDivisor: 8
GridSize: 16
TimelineZoom: 1

[Metadata]
Title:Paradoxes (TV Size)
TitleUnicode:Paradoxes (TV Size)
Artist:Tomita Miyu
ArtistUnicode:富田美憂
Creator:iRedi
Version:Finale
Source:デート・ア・ライブⅤ
Tags:aurorance graphical hina sorasaki yayoi takatsuki niizuma yae leominexd leomine anime japanese jpop j-pop pop op opening female vocals vocalist dal date a live v fifth 5th season 渡部紫緒 watanabe shio 坂部剛 sakabe gou
BeatmapID:4549438
BeatmapSetID:2158024

[Difficulty]
HPDrainRate:5
CircleSize:4
OverallDifficulty:8.2
ApproachRate:9
SliderMultiplier:3.59999990463257
SliderTickRate:1

[Events]
//Background and Video events
0,0,"bgb.jpg",0,0
//Break Periods
//Storyboard Layer 0 (Background)
//Storyboard Layer 1 (Fail)
//Storyboard Layer 2 (Pass)
//Storyboard Layer 3 (Foreground)
//Storyboard Layer 4 (Overlay)
//Storyboard Sound Samples

[TimingPoints]
596,722.89156626506,4,2,1,35,1,0
596,-200,4,2,1,35,0,0
1318,722.89156626506,4,2,1,45,1,0
1318,-200,4,2,1,45,0,0
12161,-200,4,2,1,5,0,0
12522,-111.111111111111,4,2,1,45,0,0
12884,-142.857142857143,4,2,1,50,0,0
23727,710.059171597633,4,2,1,50,1,0
23727,-142.857142857143,4,2,1,50,0,0
24437,740.740740740741,4,2,1,60,1,0
24437,-117.647058823529,4,2,1,60,0,0
25177,705.882352941176,4,2,1,60,1,0
25177,-117.647058823529,4,2,1,60,0,0
26235,759.493670886076,4,2,1,60,1,0
26235,-116.279069767442,4,2,1,60,0,0
26614,722.89156626506,4,2,1,60,1,0
26614,-117.647058823529,4,2,1,60,0,0
27336,722.89156626506,4,2,1,60,1,0
27336,-117.647058823529,4,2,1,60,0,0
36010,-133.333333333333,4,2,1,65,0,0
41793,-125,4,2,1,65,0,0
45408,-250,4,2,1,65,0,0
46131,-125,4,2,1,65,0,0
47576,-200,4,2,1,50,0,0
49745,697.674418604651,4,2,1,78,1,0
49745,-200,4,2,1,78,0,0
50468,722.89156626506,4,2,1,85,1,1
50468,-83.3333333333333,4,2,1,85,0,1
51191,-90.9090909090909,4,2,1,85,0,1
54986,-142.857142857143,4,2,1,85,0,1
55709,-181.818181818182,4,2,1,85,0,1
56251,-83.3333333333333,4,2,1,85,0,1
56974,-90.9090909090909,4,2,1,85,0,1
61673,-222.222222222222,4,2,1,85,0,1
62034,-83.3333333333333,4,2,1,85,0,1
62757,-90.9090909090909,4,2,1,85,0,1
67817,-83.3333333333333,4,2,1,85,0,1
68179,-90.9090909090909,4,2,1,85,0,1
70167,-181.818181818182,4,2,1,85,0,1
70709,-90.9090909090909,4,2,1,85,0,1
73058,-181.818181818182,4,2,1,85,0,1
73601,-90.9090909090909,4,2,1,85,0,1
75046,-100,4,2,1,85,0,1
76492,-250,4,2,1,70,0,0
79384,-250,4,2,1,60,0,0
85167,-250,4,2,1,30,0,0

[Colours]
Combo1 : 159,86,175
Combo2 : 204,51,55
Combo3 : 237,193,135
Combo4 : 189,174,213

[HitObjects]
218,28,596,6,0,P|184:0|140:0,1,89.9999976158142,2|2,2:2|2:2,0:0:0:0:
20,90,1318,6,0,L|31:133,3,44.9999988079071,2|2|2|2,2:2|2:2|2:2|2:2,0:0:0:0:
0,208,2040,2,0,P|43:217|86:231,1,89.9999976158142,2|2,2:2|2:2,0:0:0:0:
185,384,2763,6,0,L|196:340,3,44.9999988079071,2|2|2|2,2:2|2:2|2:2|2:2,0:0:0:0:
165,266,3486,2,0,P|208:256|251:242,1,89.9999976158142,2|2,2:2|2:2,0:0:0:0:
375,124,4209,6,0,L|418:135,2,44.9999988079071,2|2|2,2:2|2:2|2:2,0:0:0:0:
238,12,4932,2,0,L|176:28,1,44.9999988079071,2|2,2:2|2:2,0:0:0:0:
144,91,5293,1,2,2:2:0:0:
144,91,5474,1,2,2:2:0:0:
207,151,5655,2,0,L|268:167,2,44.9999988079071,2|2|2,2:2|2:2|2:2,0:0:0:0:
77,258,6378,2,0,P|75:301|106:333,1,89.9999976158142,2|2,2:2|2:2,0:0:0:0:
279,376,7101,6,0,L|267:332,3,44.9999988079071,2|2|2|2,2:2|2:2|2:2|2:2,0:0:0:0:
188,303,7824,2,0,P|217:258|272:253,1,89.9999976158142,2|2,2:2|2:2,0:0:0:0:
421,317,8546,6,0,L|432:273,3,44.9999988079071,2|2|2|2,2:2|2:2|2:2|2:2,0:0:0:0:
512,244,9269,2,0,P|482:199|427:194,1,89.9999976158142,2|2,2:2|2:2,0:0:0:0:
346,58,9992,6,0,L|302:69,3,44.9999988079071,2|2|2|2,2:2|2:2|2:2|2:2,0:0:0:0:
238,139,10715,2,0,L|194:127,1,44.9999988079071,2|2,2:2|2:2,0:0:0:0:
125,64,11077,1,2,2:2:0:0:
125,64,11257,1,2,2:2:0:0:
36,101,11438,2,0,B|36:145|-4:176|-4:176|42:147|84:152,1,179.999995231628,2|0,2:2|0:0,0:0:0:0:
91,324,12884,6,0,P|109:349|138:358,1,62.9999964084626,2|2,2:2|2:2,0:0:0:0:
133,247,13245,1,2,2:2:0:0:
133,247,13426,1,2,2:2:0:0:
222,333,13607,2,0,P|268:291|329:283,1,125.999992816925,2|2,2:2|2:2,0:0:0:0:
395,384,14149,2,0,P|407:322|427:262,1,125.999992816925,2|0,2:2|0:0,0:0:0:0:
511,219,14691,2,0,P|465:177|403:169,1,125.999992816925,2|2,2:2|2:2,0:0:0:0:
321,192,15233,2,0,P|295:173|280:146,2,62.9999964084626,0|2|2,0:0|2:2|2:2,0:0:0:0:
416,83,15775,6,0,L|436:5,1,62.9999964084626,2|2,2:2|2:2,0:0:0:0:
328,72,16137,1,2,2:2:0:0:
328,72,16317,1,2,2:2:0:0:
221,7,16498,2,0,P|160:25|99:39,1,125.999992816925,2|2,2:2|2:2,0:0:0:0:
266,155,17040,2,0,P|205:136|144:122,1,125.999992816925,2|2,2:2|2:2,0:0:0:0:
65,163,17583,2,0,L|44:240,1,62.9999964084626,2|0,2:2|0:0,0:0:0:0:
85,309,17944,1,2,2:2:0:0:
16,369,18125,2,0,L|0:308,2,62.9999964084626,2|0|2,2:2|0:0|2:2,0:0:0:0:
100,300,18667,6,0,L|160:316,1,62.9999964084626,2|2,2:2|2:2,0:0:0:0:
257,384,19028,1,2,2:2:0:0:
257,384,19209,1,2,2:2:0:0:
297,249,19390,2,0,P|321:317|370:341,1,125.999992816925,2|2,2:2|2:2,0:0:0:0:
480,381,19932,2,0,P|493:319|512:259,1,125.999992816925,2|0,2:2|0:0,0:0:0:0:
483,177,20474,2,0,P|412:163|366:194,1,125.999992816925,2|2,2:2|2:2,0:0:0:0:
212,295,21197,5,2,2:2:0:0:
212,295,21378,1,2,2:2:0:0:
109,227,21558,2,0,P|117:180|191:142,1,125.999992816925,2|2,2:2|2:2,0:0:0:0:
180,141,22101,1,2,2:2:0:0:
116,47,22281,2,0,P|202:47|237:19,1,125.999992816925,2|2,2:2|2:2,0:0:0:0:
366,0,22824,2,0,P|346:59|333:121,1,125.999992816925,2|0,2:2|0:0,0:0:0:0:
276,187,23366,2,0,L|292:248,1,62.9999964084626,2|2,2:2|2:2,0:0:0:0:
426,290,23727,2,0,L|442:229,2,62.9999964084626,2|2|2,2:2|2:2|2:2,0:0:0:0:
288,377,24259,5,0,0:0:0:0:
296,384,24348,1,0,0:0:0:0:
296,384,24437,2,0,P|248:322|170:321,1,152.999998865128,4|2,1:2|2:2,0:0:0:0:
178,317,24992,1,2,2:2:0:0:
42,227,25177,2,0,P|31:263|22:300,1,76.4999994325638,10|0,2:2|0:0,0:0:0:0:
96,361,25529,1,2,2:2:0:0:
167,235,25706,6,0,B|175:190|128:160|122:184|80:153|87:94,1,152.999998865128,2|0,1:2|0:0,0:0:0:0:
19,31,26235,2,0,P|10:68|0:105,1,77.3999991306305,2|0,1:2|0:0,0:0:0:0:
196,23,26614,2,0,P|184:59|176:96,1,76.4999994325638,8|0,2:2|0:0,0:0:0:0:
241,169,26975,1,0,0:0:0:0:
241,169,27156,1,0,0:0:0:0:
126,326,27336,6,0,B|79:320|58:274|58:274|6:273|-10:312,1,152.999998865128,2|2,1:2|2:2,0:0:0:0:
0,295,27878,1,2,2:2:0:0:
118,163,28058,2,0,P|128:206|139:245,1,76.4999994325638,10|0,2:2|0:0,0:0:0:0:
209,294,28420,1,2,2:2:0:0:
331,166,28601,6,0,B|392:156|434:201|434:201|448:266,1,152.999998865128,2|0,1:2|0:0,0:0:0:0:
316,320,29143,2,0,P|337:270|357:261,1,76.4999994325638,2|0,1:2|0:0,0:0:0:0:
468,368,29504,2,0,P|498:346|507:310,1,76.4999994325638,8|0,2:2|0:0,0:0:0:0:
442,239,29866,1,2,2:2:0:0:
393,60,30046,1,2,2:2:0:0:
474,101,30227,6,0,P|422:155|348:134,1,152.999998865128,0|2,1:1|2:2,0:0:0:0:
354,139,30769,1,2,2:2:0:0:
226,75,30950,2,0,P|262:64|299:55,1,76.4999994325638,8|0,2:2|0:0,0:0:0:0:
267,153,31311,1,2,2:2:0:0:
108,67,31492,6,0,B|102:112|146:141|153:118|194:148|187:207,1,152.999998865128,2|0,1:2|0:0,0:0:0:0:
113,243,32035,2,0,P|76:232|39:223,1,76.4999994325638,2|2,1:2|2:2,0:0:0:0:
172,361,32396,2,0,P|196:291|266:266,1,152.999998865128,8|2,2:2|2:2,0:0:0:0:
317,347,32938,1,2,2:2:0:0:
431,384,33119,6,0,P|448:303|470:236,1,152.999998865128,2|0,1:2|0:0,0:0:0:0:
470,236,33661,1,2,2:2:0:0:
383,142,33842,2,0,P|420:133|456:122,1,76.4999994325638,8|0,2:2|0:0,0:0:0:0:
493,328,34203,1,2,2:2:0:0:
369,268,34384,6,0,P|332:216|253:205,1,114.749999148846,0|0,1:1|0:0,0:0:0:0:
276,207,34745,1,8,2:2:0:0:
203,348,34926,2,0,P|165:355|129:367,1,76.4999994325638,2|2,1:2|2:2,0:0:0:0:
0,298,35287,5,2,3:2:0:0:
145,207,35468,1,2,3:2:0:0:
67,149,35649,2,0,B|64:170|58:188|48:223,1,76.4999994325638,2|0,1:2|0:0,0:0:0:0:
230,91,36010,6,0,B|273:56|269:3|269:3|300:53|364:54,1,202.500002360344,4|0,1:2|0:0,0:0:0:0:
483,5,36733,5,2,1:2:0:0:
441,88,36914,1,2,2:2:0:0:
512,150,37095,1,2,2:2:0:0:
428,183,37275,1,2,2:2:0:0:
428,183,37456,2,0,L|448:260,1,67.5000007867814,0|0,1:1|0:0,0:0:0:0:
310,374,37818,6,0,B|268:329|219:331|219:331|185:360,1,135.000001573563,2|0,2:2|1:1,0:0:0:0:
365,300,38541,2,0,L|347:234,1,67.5000007867814,2|2,2:2|2:2,0:0:0:0:
295,61,38902,6,0,B|233:48|198:108|227:115|189:166|115:153,1,202.500002360344,2|0,1:2|0:0,0:0:0:0:
1,73,39625,5,2,1:2:0:0:
52,0,39805,1,2,2:2:0:0:
93,74,39986,1,2,2:2:0:0:
49,152,40167,1,2,2:2:0:0:
49,152,40348,2,0,L|66:217,1,67.5000007867814,0|0,1:1|0:0,0:0:0:0:
180,344,40709,5,2,2:2:0:0:
92,332,40890,2,0,P|123:275|191:255,1,135.000001573563,2|0,2:2|0:0,0:0:0:0:
257,312,41432,2,0,L|334:332,1,67.5000007867814,2|2,2:2|2:2,0:0:0:0:
489,199,41793,6,0,B|475:149|420:137|420:137|407:68|483:30,1,215.999994277954,4|0,1:2|0:0,0:0:0:0:
317,16,42515,1,2,1:2:0:0:
332,107,42696,1,2,2:2:0:0:
243,72,42877,1,2,2:2:0:0:
207,160,43058,1,2,2:2:0:0:
207,160,43239,2,0,L|129:139,1,71.9999980926514,0|0,1:1|0:0,0:0:0:0:
0,0,43601,6,0,P|67:-1|110:68,1,143.999996185303,2|0,2:2|1:1,0:0:0:0:
0,221,44323,2,0,L|77:200,1,71.9999980926514,2|0,2:2|0:0,0:0:0:0:
197,80,44685,6,0,P|198:182|292:221,1,215.999994277954,2|0,1:2|0:0,0:0:0:0:
360,161,45408,2,0,B|357:137|375:110|375:110|353:133|327:138,1,107.999997138977,0|0,1:1|0:0,0:0:0:0:
440,9,46131,6,0,P|452:61|467:113,1,107.999997138977,2|0,1:2|0:0,0:0:0:0:
477,122,46492,1,2,2:2:0:0:
378,245,46673,2,0,P|405:289|430:299,1,71.9999980926514,2|0,2:2|1:1,0:0:0:0:
495,244,47034,1,2,2:2:0:0:
326,346,47215,2,0,P|272:329|221:318,1,71.9999980926514
153,375,47576,6,0,B|55:371|0:275|36:144|174:156|137:226|286:145|193:-11|80:47|151:108,1,494.999986886978,6|0,2:2|1:1,0:0:0:0:
169,109,49745,5,10,2:2:0:0:
231,0,49919,1,10,2:2:0:0:
40,124,50093,1,10,2:2:0:0:
235,231,50268,1,10,2:2:0:0:
418,14,50468,6,0,B|408:90|462:122|460:89|523:119|512:192,1,215.999987686158,4|0,1:2|0:0,0:0:0:0:
512,189,51010,1,2,2:2:0:0:
312,331,51191,2,0,P|321:287|337:235,1,99.0000003986359,10|0,2:2|0:0,0:0:0:0:
418,186,51552,1,0,0:0:0:0:
313,18,51733,1,0,3:3:0:0:
127,120,51914,5,2,1:2:0:0:
157,210,52095,2,0,P|199:186|219:141,1,99.0000003986359,8|0,2:2|0:0,0:0:0:0:
66,184,52456,1,2,3:2:0:0:
219,8,52637,2,0,P|234:128|278:147,1,148.500000597954,10|0,2:2|0:0,0:0:0:0:
256,151,52998,1,0,0:0:0:0:
364,108,53179,1,0,3:3:0:0:
447,326,53360,6,0,B|387:304|374:239|374:239|399:181,1,148.500000597954,2|0,1:2|0:0,0:0:0:0:
443,153,53721,2,0,P|473:192|467:239,1,99.0000003986359,2|2,1:2|2:2,0:0:0:0:
233,351,54083,1,8,2:2:0:0:
378,215,54263,1,2,2:2:0:0:
188,89,54444,1,2,2:2:0:0:
283,231,54625,1,2,2:2:0:0:
376,0,54805,5,2,1:2:0:0:
142,178,54986,2,0,P|134:211|124:242,1,62.9999964084626,10|0,2:2|0:0,0:0:0:0:
126,238,55348,1,0,1:1:0:0:
0,207,55528,5,8,2:2:0:0:
144,364,55709,2,0,P|188:312|237:304,1,99.0000003986359,0|2,1:1|3:2,0:0:0:0:
366,384,56251,6,0,P|456:302|418:184,1,215.999987686158,4|0,1:2|0:0,0:0:0:0:
445,217,56793,1,2,2:2:0:0:
237,128,56974,2,0,P|252:176|262:223,1,99.0000003986359,10|0,2:2|0:0,0:0:0:0:
340,156,57336,1,0,0:0:0:0:
161,203,57516,1,0,3:3:0:0:
17,54,57697,5,2,1:2:0:0:
102,10,57878,1,8,2:2:0:0:
9,205,58059,2,0,P|22:158|66:134,1,99.0000003986359,0|2,1:1|2:2,0:0:0:0:
232,275,58420,2,0,P|152:295|88:313,1,148.500000597954,10|0,2:2|0:0,0:0:0:0:
84,324,58781,1,0,0:0:0:0:
185,383,58962,1,0,0:0:0:0:
246,154,59143,6,0,B|245:191|292:214|294:190|345:211|345:257,1,148.500000597954,2|0,1:2|0:0,0:0:0:0:
343,264,59504,1,2,3:2:0:0:
161,203,59685,1,2,3:2:0:0:
321,384,59866,2,0,P|372:292|481:263,1,198.000000797272,10|0,2:2|0:0,0:0:0:0:
433,84,60408,6,0,P|419:132|407:179,1,99.0000003986359,2|0,1:2|0:0,0:0:0:0:
512,31,60769,1,10,2:2:0:0:
313,177,60950,1,2,1:2:0:0:
331,92,61131,1,2,2:2:0:0:
507,336,61311,5,2,3:2:0:0:
183,214,61492,1,2,3:2:0:0:
496,347,61673,2,0,P|514:311|506:282,1,60.7499965367319,2|0,3:2|0:0,0:0:0:0:
418,384,62034,6,0,P|366:304|247:276,1,215.999987686158,4|0,1:2|0:0,0:0:0:0:
254,274,62576,1,2,2:2:0:0:
150,128,62757,2,0,P|102:162|95:233,1,99.0000003986359,10|0,2:2|0:0,0:0:0:0:
3,132,63119,1,0,0:0:0:0:
183,214,63299,1,0,3:3:0:0:
323,63,63480,5,2,1:2:0:0:
245,135,63661,2,0,P|235:87|220:40,1,99.0000003986359,8|0,2:2|1:1,0:0:0:0:
336,154,64022,1,2,2:2:0:0:
512,16,64203,2,0,P|415:60|419:122,1,148.500000597954,10|0,2:2|0:0,0:0:0:0:
434,174,64565,2,0,B|488:165|488:165|496:110,1,99.0000003986359
303,0,64926,6,0,P|246:72|157:74,1,148.500000597954,2|0,1:2|0:0,0:0:0:0:
184,76,65287,1,2,2:2:0:0:
273,219,65468,1,2,1:2:0:0:
33,291,65649,2,0,P|47:243|58:195,1,99.0000003986359,8|2,2:2|2:2,0:0:0:0:
148,157,66010,1,2,2:2:0:0:
0,52,66191,1,2,2:2:0:0:
142,246,66372,5,0,1:1:0:0:
69,110,66552,1,10,2:2:0:0:
317,135,66733,1,2,2:2:0:0:
134,258,66914,1,2,1:2:0:0:
415,383,67095,1,8,2:2:0:0:
415,383,67185,1,0,0:0:0:0:
415,383,67275,1,0,1:1:0:0:
220,211,67456,1,10,2:2:0:0:
323,23,67637,1,10,2:2:0:0:
512,202,67817,6,0,P|425:220|344:246,1,161.999990764618,4|0,1:2|0:0,0:0:0:0:
271,279,68179,2,0,P|287:323|334:331,1,99.0000003986359,0|0,1:1|0:0,0:0:0:0:
414,128,68540,5,10,2:2:0:0:
295,95,68721,1,2,2:2:0:0:
439,3,68902,1,2,2:2:0:0:
272,198,69083,2,0,P|227:180|178:173,1,99.0000003986359,2|2,1:2|2:2,0:0:0:0:
92,201,69444,1,0,0:0:0:0:
251,15,69625,2,0,P|287:48|295:96,1,99.0000003986359,2|2,1:2|2:2,0:0:0:0:
90,74,69986,5,8,2:2:0:0:
332,275,70167,2,0,P|358:223|415:206,1,99.0000003986359,2|2,1:2|2:2,0:0:0:0:
512,127,70709,6,0,P|490:196|473:270,1,148.500000597954,2|0,1:2|0:0,0:0:0:0:
407,328,71070,2,0,B|441:366|441:366|516:350,1,99.0000003986359,0|0,1:1|0:0,0:0:0:0:
393,207,71432,5,10,2:2:0:0:
270,345,71613,1,2,2:2:0:0:
407,328,71793,1,2,2:2:0:0:
153,255,71974,2,0,P|141:206|126:159,1,99.0000003986359,2|2,1:2|2:2,0:0:0:0:
55,227,72336,1,0,0:0:0:0:
236,300,72516,2,0,P|286:284|331:274,1,99.0000003986359,2|2,2:2|1:2,0:0:0:0:
52,337,72878,5,8,2:2:0:0:
224,121,73058,2,0,P|191:57|200:14,1,99.0000003986359,2|2,3:2|2:2,0:0:0:0:
418,60,73601,6,0,B|407:128|353:144|363:115|300:126|292:193,2,198.000000797272,4|2|8,1:2|1:2|2:2,0:0:0:0:
352,268,74685,1,2,1:2:0:0:
103,146,74866,1,10,2:2:0:0:
186,193,75046,5,0,0:0:0:0:
13,311,75227,2,0,P|44:366|72:366,1,89.9999976158142,0|0,3:3|3:3,0:0:0:0:
95,279,75589,1,0,1:1:0:0:
320,384,75769,1,0,1:1:0:0:
250,251,75950,1,0,1:1:0:0:
150,348,76131,1,2,1:2:0:0:
263,252,76311,1,2,2:2:0:0:
162,63,76492,6,0,L|256:299,1,251.99999332428,4|0,1:2|0:0,0:0:0:0:
349,63,77938,2,0,L|253:303,1,251.99999332428,4|0,1:2|0:0,0:0:0:0:
256,306,79384,5,4,2:2:0:0:
256,192,79564,12,0,85167,0:0:0:0:
