osu file format v14

[General]
AudioFilename: audio.mp3
AudioLeadIn: 0
PreviewTime: 50731
Countdown: 0
SampleSet: Soft
StackLeniency: 0.4
Mode: 0
LetterboxInBreaks: 0
WidescreenStoryboard: 0

[Editor]
Bookmarks: 9973,29367,39064,51186,70580,77852,87549,97246,106943,119064,138458,145731,165125,175428,184519,189367,197852,198913,218458,237701
DistanceSpacing: 0.7
BeatDivisor: 4
GridSize: 16
TimelineZoom: 1.6

[Metadata]
Title:OveR
TitleUnicode:OveR
Artist:Tomita Miyu
ArtistUnicode:富田美憂
Creator:pnky
Version:ZaphkieL
Source:デート・ア・ライブⅣ
Tags:4 時崎狂三 tokisaki kurumi 坂部剛 dal date a live 4th season j rock j pop female vocal vocalist anime op opening kadokawa japanese jpop j-pop pop season full size version rock j-rock jrock l1ght_u light_u -hitomi
BeatmapID:3829895
BeatmapSetID:1862561

[Difficulty]
HPDrainRate:6
CircleSize:4.2
OverallDifficulty:9
ApproachRate:9.4
SliderMultiplier:1.72
SliderTickRate:1

[Events]
//Background and Video events
0,0,"68455016_p0.jpg",0,0
//Break Periods
2,19719,28761
2,87749,96640
2,189566,197246
//Storyboard Layer 0 (Background)
//Storyboard Layer 1 (Fail)
//Storyboard Layer 2 (Pass)
//Storyboard Layer 3 (Foreground)
//Storyboard Layer 4 (Overlay)
//Storyboard Sound Samples

[TimingPoints]
277,303.030303030303,4,2,69,40,1,0
277,-250,4,2,69,40,0,0
1943,-250,4,2,68,5,0,0
2019,-250,4,2,68,5,0,0
2095,-166.666666666667,4,2,68,40,0,0
2549,-166.666666666667,4,2,68,5,0,0
2701,-166.666666666667,4,2,69,40,0,0
3004,-166.666666666667,4,2,69,5,0,0
3080,-166.666666666667,4,2,69,5,0,0
3155,-142.857142857143,4,2,68,40,0,0
3458,-142.857142857143,4,2,68,5,0,0
3610,-142.857142857143,4,2,69,40,0,0
4973,-142.857142857143,4,2,69,5,0,0
5125,-250,4,2,69,40,0,0
6792,-250,4,2,69,5,0,0
6867,-250,4,2,69,5,0,0
6943,-166.666666666667,4,2,68,40,0,0
7398,-166.666666666667,4,2,68,5,0,0
7549,-166.666666666667,4,2,69,40,0,0
9292,-166.666666666667,4,2,69,40,0,0
9367,-125,4,2,1,40,0,0
9973,-76.9230769230769,4,2,3,60,0,0
10201,-76.9230769230769,4,2,3,5,0,0
10277,-90.9090909090909,4,2,1,70,0,0
11034,-76.9230769230769,4,2,1,70,0,0
11261,-76.9230769230769,4,2,1,5,0,0
11337,-62.5,4,2,1,70,0,0
11413,-62.5,4,2,1,5,0,0
11489,-181.818181818182,4,2,1,70,0,0
11716,-181.818181818182,4,2,1,5,0,0
11792,-76.9230769230769,4,2,1,70,0,0
12095,-111.111111111111,4,2,1,70,0,0
12322,-111.111111111111,4,2,1,5,0,0
12398,-66.6666666666667,4,2,1,70,0,0
13458,-90.9090909090909,4,2,1,70,0,0
13761,-90.9090909090909,4,2,1,70,0,0
14519,-111.111111111111,4,2,1,70,0,0
14746,-111.111111111111,4,2,1,5,0,0
14822,-76.9230769230769,4,2,1,70,0,0
15049,-76.9230769230769,4,2,1,5,0,0
15125,-90.9090909090909,4,2,1,70,0,0
15883,-76.9230769230769,4,2,1,70,0,0
16110,-76.9230769230769,4,2,1,5,0,0
16186,-62.5,4,2,1,70,0,0
16261,-62.5,4,2,1,5,0,0
16337,-181.818181818182,4,2,1,70,0,0
16564,-181.818181818182,4,2,1,5,0,0
16640,-90.9090909090909,4,2,1,70,0,0
17246,-76.9230769230769,4,2,1,70,0,0
17701,-153.846153846154,4,2,1,70,0,0
18155,-76.9230769230769,4,2,1,70,0,0
18610,-153.846153846154,4,2,1,70,0,0
19064,-71.4285714285714,4,2,1,70,0,0
19140,-71.4285714285714,4,2,1,5,0,0
19216,-71.4285714285714,4,2,1,70,0,0
19292,-71.4285714285714,4,2,1,5,0,0
19367,-71.4285714285714,4,2,1,70,0,0
19443,-71.4285714285714,4,2,1,5,0,0
19519,-133.333333333333,4,2,1,70,0,0
29367,-133.333333333333,4,2,1,50,0,0
33610,-133.333333333333,4,2,69,50,0,0
34216,-133.333333333333,4,2,68,50,0,0
34822,-133.333333333333,4,2,1,50,0,0
37928,-133.333333333333,4,2,1,5,0,0
38004,-166.666666666667,4,2,1,50,0,0
38080,-133.333333333333,4,2,1,50,0,0
38155,-153.846153846153,4,2,1,50,0,0
38458,-153.846153846153,4,2,68,50,0,0
38761,-153.846153846153,4,2,1,50,0,0
39064,-153.846153846153,4,2,1,60,0,0
39670,-90.9090909090909,4,2,1,60,0,0
40125,-125,4,2,1,60,0,0
41489,-153.846153846154,4,2,1,60,0,0
42095,-90.9090909090909,4,2,1,60,0,0
42549,-125,4,2,1,60,0,0
43913,-153.846153846154,4,2,1,60,0,0
44519,-90.9090909090909,4,2,1,60,0,0
44973,-125,4,2,1,60,0,0
46337,-125,4,2,1,65,0,0
50731,-333.333333333333,4,2,1,45,0,0
51186,-71.4285714285714,4,2,1,75,0,1
51792,-83.3333333333333,4,2,1,75,0,1
52095,-71.4285714285714,4,2,1,75,0,1
52170,-71.4285714285714,4,2,1,5,0,1
52246,-83.3333333333333,4,2,1,75,0,1
52852,-83.3333333333333,4,2,1,75,0,0
53004,-166.666666666667,4,2,1,75,0,0
53610,-71.4285714285714,4,2,1,75,0,1
54216,-83.3333333333333,4,2,1,75,0,1
54519,-71.4285714285714,4,2,1,75,0,1
54595,-71.4285714285714,4,2,1,5,0,1
54670,-83.3333333333333,4,2,1,75,0,1
55276,-83.3333333333333,4,2,1,75,0,0
55580,-125,4,2,1,75,0,0
55883,-76.9230769230769,4,2,1,75,0,1
56640,-90.9090909090909,4,2,1,75,0,1
56867,-90.9090909090909,4,2,1,5,0,1
56943,-90.9090909090909,4,2,1,75,0,1
57019,-90.9090909090909,4,2,1,5,0,1
57095,-90.9090909090909,4,2,1,75,0,1
57246,-83.3333333333333,4,2,1,75,0,1
57701,-90.9090909090909,4,2,1,75,0,1
58155,-250,4,2,1,75,0,1
58383,-250,4,2,1,5,0,1
58458,-90.9090909090909,4,2,1,75,0,1
59367,-142.857142857143,4,2,1,75,0,1
59595,-142.857142857143,4,2,1,5,0,1
59670,-76.9230769230769,4,2,1,75,0,1
60125,-50,4,2,1,75,0,1
60352,-66.6666666666667,4,2,1,5,0,1
60428,-66.6666666666667,4,2,1,75,0,0
60466,-66.6666666666667,4,2,1,5,0,0
60731,-76.9230769230769,4,2,1,80,0,1
61034,-86.9565217391304,4,2,1,80,0,1
61489,-76.9230769230769,4,2,1,80,0,1
61640,-86.9565217391304,4,2,1,80,0,1
61943,-71.4285714285714,4,2,1,80,0,1
62170,-71.4285714285714,4,2,1,5,0,1
62246,-100,4,2,1,80,0,1
62701,-71.4285714285714,4,2,1,80,0,1
63155,-76.9230769230769,4,2,1,80,0,1
64367,-71.4285714285714,4,2,1,80,0,1
64670,-90.9090909090909,4,2,1,80,0,1
64746,-90.9090909090909,4,2,1,5,0,1
64822,-90.9090909090909,4,2,1,80,0,1
64973,-83.3333333333333,4,2,1,80,0,1
65276,-90.9090909090909,4,2,1,80,0,1
65580,-76.9230769230769,4,2,1,80,0,1
66034,-90.9090909090909,4,2,1,80,0,1
67095,-90.9090909090909,4,2,1,80,0,1
67852,-71.4285714285714,4,2,1,80,0,1
68080,-71.4285714285714,4,2,1,5,0,1
68155,-90.9090909090909,4,2,1,80,0,1
70580,-142.857142857143,4,2,1,65,0,0
73004,-111.111111111111,4,2,1,65,0,0
73458,-142.857142857143,4,2,1,65,0,0
75428,-125,4,2,1,65,0,0
76034,-71.4285714285714,4,2,1,65,0,0
76640,-125,4,2,1,65,0,0
77246,-71.4285714285714,4,2,1,65,0,0
77852,-76.9230769230769,4,2,1,70,0,0
78080,-76.9230769230769,4,2,1,5,0,0
78155,-90.9090909090909,4,2,1,70,0,0
79064,-111.111111111111,4,2,1,70,0,0
79367,-100,4,2,1,70,0,0
79670,-90.9090909090909,4,2,1,70,0,0
79898,-90.9090909090909,4,2,1,5,0,0
79973,-250.000000000001,4,2,1,70,0,0
80201,-250.000000000001,4,2,1,5,0,0
80276,-76.9230769230769,4,2,1,70,0,0
80731,-90.9090909090909,4,2,1,70,0,0
81186,-142.857142857143,4,2,1,70,0,0
81413,-142.857142857143,4,2,1,5,0,0
81489,-90.9090909090909,4,2,1,70,0,0
82398,-71.4285714285714,4,2,1,70,0,0
82701,-76.9230769230769,4,2,1,70,0,0
82928,-76.9230769230769,4,2,1,5,0,0
83004,-90.9090909090909,4,2,1,70,0,0
83913,-111.111111111111,4,2,1,70,0,0
84216,-100,4,2,1,70,0,0
84519,-90.9090909090909,4,2,1,70,0,0
85125,-90.9090909090909,4,2,1,75,0,0
87549,-133.333333333333,4,2,2,50,0,0
97246,-133.333333333333,4,2,69,40,0,0
97398,-133.333333333333,4,2,1,40,0,0
98458,-133.333333333333,4,2,69,40,0,0
98610,-133.333333333333,4,2,1,40,0,0
101489,-133.333333333333,4,2,69,40,0,0
101792,-133.333333333333,4,2,68,40,0,0
102095,-133.333333333333,4,2,69,40,0,0
102398,-133.333333333333,4,2,1,40,0,0
103307,-133.333333333333,4,2,69,40,0,0
103458,-133.333333333333,4,2,1,40,0,0
105807,-133.333333333333,4,2,1,5,0,0
105883,-166.666666666667,4,2,1,40,0,0
105958,-166.666666666667,4,2,1,5,0,0
106034,-153.846153846153,4,2,1,40,0,0
106337,-133.333333333333,4,2,69,40,0,0
106640,-133.333333333333,4,2,68,50,0,0
106943,-153.846153846153,4,2,1,55,0,0
107549,-90.9090909090909,4,2,1,55,0,0
108004,-125,4,2,1,55,0,0
109367,-153.846153846154,4,2,1,55,0,0
109973,-90.9090909090909,4,2,1,55,0,0
110276,-125,4,2,1,55,0,0
111792,-153.846153846154,4,2,1,55,0,0
112398,-90.9090909090909,4,2,1,55,0,0
112852,-125,4,2,1,55,0,0
113913,-250,4,2,1,55,0,0
114216,-90.9090909090909,4,2,1,55,0,0
118610,-333.333333333333,4,2,1,45,0,0
119064,-71.4285714285714,4,2,1,75,0,1
119367,-83.3333333333333,4,2,1,75,0,1
119973,-71.4285714285714,4,2,1,75,0,1
120049,-71.4285714285714,4,2,1,5,0,1
120125,-83.3333333333333,4,2,1,75,0,1
120731,-166.666666666667,4,2,1,75,0,0
121489,-71.4285714285714,4,2,1,75,0,1
122095,-83.3333333333333,4,2,1,75,0,1
122398,-71.4285714285714,4,2,1,75,0,1
122473,-71.4285714285714,4,2,1,5,0,1
122549,-83.3333333333333,4,2,1,75,0,1
123155,-133.333333333333,4,2,1,75,0,0
123458,-125,4,2,1,75,0,0
123761,-76.9230769230769,4,2,1,75,0,1
124519,-90.9090909090909,4,2,1,75,0,1
124746,-90.9090909090909,4,2,1,5,0,1
124822,-90.9090909090909,4,2,1,75,0,1
124898,-90.9090909090909,4,2,1,5,0,1
124973,-90.9090909090909,4,2,1,75,0,1
125125,-83.3333333333333,4,2,1,75,0,1
125428,-90.9090909090909,4,2,1,75,0,1
126034,-250,4,2,1,75,0,1
126261,-250,4,2,1,5,0,1
126337,-90.9090909090909,4,2,1,75,0,1
127246,-142.857142857143,4,2,1,75,0,1
127473,-142.857142857143,4,2,1,5,0,1
127549,-76.9230769230769,4,2,1,75,0,1
128004,-50,4,2,1,75,0,1
128231,-50,4,2,1,5,0,1
128307,-66.6666666666667,4,2,1,75,0,0
128345,-66.6666666666667,4,2,1,5,0,0
128383,-66.6666666666667,4,2,1,75,0,0
128610,-76.9230769230769,4,2,1,80,0,1
129670,-76.9230769230769,4,2,1,80,0,1
129822,-71.4285714285714,4,2,1,80,0,1
130049,-71.4285714285714,4,2,1,5,0,1
130125,-100,4,2,1,80,0,1
130580,-71.4285714285714,4,2,1,80,0,1
131034,-76.9230769230769,4,2,1,80,0,1
132246,-71.4285714285714,4,2,1,80,0,1
132473,-71.4285714285714,4,2,1,5,0,1
132549,-100,4,2,1,80,0,1
132852,-90.9090909090909,4,2,1,80,0,1
133458,-76.9230769230769,4,2,1,80,0,1
134064,-90.9090909090909,4,2,1,80,0,1
135049,-90.9090909090909,4,2,1,5,0,1
135125,-90.9090909090909,4,2,1,80,0,1
135731,-71.4285714285714,4,2,1,80,0,1
135958,-71.4285714285714,4,2,1,5,0,1
136034,-90.9090909090909,4,2,1,80,0,1
137701,-71.4285714285714,4,2,1,80,0,1
137852,-90.9090909090909,4,2,1,80,0,1
138458,-142.857142857143,4,2,1,65,0,0
140883,-111.111111111111,4,2,1,65,0,0
141186,-142.857142857143,4,2,1,65,0,0
143307,-125,4,2,1,65,0,0
143913,-71.4285714285715,4,2,1,65,0,0
144519,-125,4,2,1,65,0,0
145125,-71.4285714285714,4,2,1,65,0,0
145731,-90.9090909090909,4,2,1,70,0,0
146943,-76.9230769230769,4,2,1,70,0,0
147170,-76.9230769230769,4,2,1,5,0,0
147246,-62.5,4,2,1,70,0,0
147322,-62.5,4,2,1,5,0,0
147398,-62.5,4,2,1,70,0,0
147549,-90.9090909090909,4,2,1,70,0,0
148080,-90.9090909090909,4,2,1,5,0,0
148155,-71.4285714285714,4,2,1,70,0,0
148383,-71.4285714285714,4,2,1,5,0,0
148458,-90.9090909090909,4,2,1,70,0,0
149367,-76.9230769230769,4,2,1,70,0,0
149595,-76.9230769230769,4,2,1,5,0,0
149670,-62.5,4,2,1,70,0,0
149746,-62.5,4,2,1,5,0,0
149822,-90.9090909090909,4,2,1,70,0,0
150580,-76.9230769230769,4,2,1,70,0,0
150807,-76.9230769230769,4,2,1,5,0,0
150883,-90.9090909090909,4,2,1,70,0,0
151792,-71.4285714285714,4,2,1,70,0,0
152019,-71.4285714285714,4,2,1,5,0,0
152095,-62.5,4,2,1,70,0,0
152170,-62.5,4,2,1,5,0,0
152246,-62.5,4,2,1,70,0,0
152398,-90.9090909090909,4,2,1,70,0,0
153004,-90.9090909090909,4,2,1,70,0,0
154822,-111.111111111111,4,2,1,70,0,0
155125,-166.666666666667,4,2,1,70,0,0
155428,-90.9090909090908,4,2,1,75,0,0
156640,-76.9230769230769,4,2,1,75,0,0
156867,-76.9230769230769,4,2,1,5,0,0
156943,-62.5,4,2,1,75,0,0
157019,-62.5,4,2,1,5,0,0
157095,-62.5,4,2,1,75,0,0
157246,-90.9090909090909,4,2,1,75,0,0
157776,-90.9090909090909,4,2,1,5,0,0
157852,-71.4285714285714,4,2,1,75,0,0
158080,-71.4285714285714,4,2,1,5,0,0
158155,-71.4285714285714,4,2,1,75,0,0
159064,-76.9230769230769,4,2,1,75,0,0
159292,-76.9230769230769,4,2,1,5,0,0
159367,-62.5,4,2,1,75,0,0
159443,-62.5,4,2,1,5,0,0
159519,-90.9090909090909,4,2,1,75,0,0
160201,-90.9090909090909,4,2,1,5,0,0
160276,-71.4285714285714,4,2,1,75,0,0
160504,-71.4285714285714,4,2,1,5,0,0
160580,-71.4285714285714,4,2,1,75,0,0
161489,-76.9230769230769,4,2,1,75,0,0
161716,-76.9230769230769,4,2,1,5,0,0
161792,-62.5,4,2,1,75,0,0
161867,-62.5,4,2,1,5,0,0
161943,-62.5,4,2,1,75,0,0
162095,-90.9090909090909,4,2,1,75,0,0
165125,-250,4,2,2,50,0,0
166867,-250,4,2,2,5,0,0
166943,-83.3333333333333,4,2,1,50,0,0
167473,-83.3333333333333,4,2,1,5,0,0
167549,-166.666666666667,4,2,1,50,0,0
167852,-166.666666666667,4,2,1,50,0,0
169292,-166.666666666667,4,2,1,5,0,0
169367,-125,4,2,1,50,0,0
169898,-125,4,2,1,5,0,0
169973,-125,4,2,1,50,0,0
170580,-166.666666666667,4,2,1,50,0,0
171716,-166.666666666667,4,2,1,5,0,0
171792,-100,4,2,1,50,0,0
172322,-100,4,2,1,5,0,0
172398,-400,4,2,1,50,0,0
174140,-400,4,2,1,5,0,0
174216,-125,4,2,1,50,0,0
174822,-166.666666666667,4,2,1,50,0,0
175125,303.030303030303,4,2,1,50,1,0
175125,-166.666666666666,4,2,1,50,0,0
176792,-125,4,2,1,50,0,0
176867,-166.666666666666,4,2,1,50,0,0
177549,-83.3333333333333,4,2,1,60,0,0
177776,-83.3333333333333,4,2,1,5,0,0
177852,-166.666666666666,4,2,1,60,0,0
178610,-166.666666666666,4,2,1,60,0,0
179216,-76.9230769230769,4,2,1,60,0,0
179595,-76.9230769230769,4,2,1,5,0,0
179670,-111.111111111111,4,2,1,60,0,0
180276,303.030303030303,4,2,1,60,1,0
180276,-90.9090909090908,4,2,1,60,0,0
180730,-111.111111111111,4,2,1,60,0,0
180882,-111.111111111111,4,2,1,60,0,0
181489,-90.9090909090908,4,2,1,60,0,0
182398,-111.111111111111,4,2,1,60,0,0
184519,303.030303030303,4,2,1,70,1,0
184519,-83.3333333333333,4,2,1,70,0,0
185731,-71.4285714285714,4,2,1,70,0,0
186943,-55.5555555555556,4,2,1,70,0,0
188155,-62.5,4,2,1,70,0,0
188761,-71.4285714285714,4,2,1,70,0,0
189367,-71.4285714285714,4,2,69,50,0,0
191034,-71.4285714285714,4,2,1,50,0,0
191716,-71.4285714285714,4,2,1,5,0,0
191792,-71.4285714285714,4,2,1,50,0,0
197852,-250,4,2,1,60,0,0
198307,-71.4285714285714,4,2,1,60,0,0
198534,-71.4285714285714,4,2,1,5,0,0
198610,-71.4285714285714,4,2,1,60,0,0
198648,-71.4285714285714,4,2,1,5,0,0
198686,-71.4285714285714,4,2,1,60,0,0
198912,-76.9230769230769,4,2,1,75,0,1
199670,-90.9090909090909,4,2,1,75,0,1
200125,-71.4285714285714,4,2,1,75,0,1
200352,-71.4285714285714,4,2,1,5,0,1
200428,-100,4,2,1,75,0,1
200883,-76.9230769230769,4,2,1,75,0,1
201792,-90.9090909090909,4,2,1,75,0,1
202549,-71.4285714285714,4,2,1,75,0,1
202776,-71.4285714285714,4,2,1,5,0,1
202852,-90.9090909090909,4,2,1,75,0,1
203155,-83.3333333333333,4,2,1,75,0,1
203458,-90.9090909090909,4,2,1,75,0,1
203761,-76.9230769230769,4,2,1,75,0,1
204216,-90.9090909090909,4,2,1,75,0,1
205352,-90.9090909090909,4,2,1,5,0,1
205428,-90.9090909090909,4,2,1,75,0,1
205504,-90.9090909090909,4,2,1,5,0,1
205580,-90.9090909090909,4,2,1,75,0,1
206261,-90.9090909090909,4,2,1,5,0,1
206337,-83.3333333333333,4,2,1,75,0,1
206489,-90.9090909090909,4,2,1,75,0,1
207170,-90.9090909090909,4,2,1,5,0,1
207246,-90.9090909090909,4,2,1,75,0,1
208306,-333.333333333333,4,2,1,75,0,0
208534,-333.333333333333,4,2,1,5,0,0
208609,-76.9230769230769,4,2,3,80,0,1
209064,-90.9090909090909,4,2,1,80,0,1
209822,-71.4285714285714,4,2,1,80,0,1
210049,-71.4285714285714,4,2,1,5,0,1
210125,-100,4,2,1,80,0,1
210580,-71.4285714285714,4,2,1,80,0,1
211034,-76.9230769230769,4,2,1,80,0,1
211261,-76.9230769230769,4,2,1,5,0,1
211337,-76.9230769230769,4,2,1,80,0,1
211792,-90.9090909090909,4,2,1,80,0,1
212246,-71.4285714285714,4,2,1,80,0,1
212473,-71.4285714285714,4,2,1,5,0,1
212549,-100,4,2,1,80,0,1
213004,-76.9230769230769,4,2,1,80,0,1
213913,-90.9090909090909,4,2,1,80,0,1
214822,-76.9230769230769,4,2,1,80,0,1
215049,-76.9230769230769,4,2,1,5,0,1
215125,-90.9090909090909,4,2,1,80,0,1
215731,-71.4285714285714,4,2,1,80,0,1
215958,-71.4285714285714,4,2,1,5,0,1
216034,-90.9090909090909,4,2,1,80,0,1
218458,-142.857142857143,4,2,1,50,0,0
220883,-125,4,2,1,50,0,0
221186,-142.857142857143,4,2,1,50,0,0
223307,-125,4,2,1,65,0,0
223913,-71.4285714285714,4,2,1,65,0,0
224519,-76.9230769230769,4,2,1,65,0,0
225731,-71.4285714285714,4,2,1,70,0,0
226943,-500,4,2,1,70,0,0
227473,-500,4,2,1,5,0,0
227549,-68.9655172413793,4,2,1,70,0,0
228155,-76.9230769230769,4,2,1,60,0,0
228383,-76.9230769230769,4,2,1,5,0,0
228458,-90.9090909090909,4,2,1,60,0,0
229973,-76.9230769230769,4,2,1,60,0,0
230201,-76.9230769230769,4,2,1,5,0,0
230276,-90.9090909090909,4,2,1,60,0,0
230580,-76.9230769230769,4,2,1,65,0,0
230883,-90.9090909090909,4,2,1,65,0,0
231489,-111.111111111111,4,2,1,65,0,0
231716,-111.111111111111,4,2,1,5,0,0
231792,-90.9090909090909,4,2,1,65,0,0
233004,-76.9230769230769,4,2,1,70,0,0
233231,-76.9230769230769,4,2,1,5,0,0
233307,-90.9090909090909,4,2,1,70,0,0
234197,303.030303030303,4,2,1,60,1,0
234197,-90.9090909090909,4,2,1,60,0,0
234803,-90.9090909090909,4,2,1,60,0,0
235333,-90.9090909090909,4,2,1,5,0,0
235409,-90.9090909090909,4,2,1,60,0,0
235712,-90.9090909090909,4,2,1,50,0,0
236166,-90.9090909090909,4,2,1,55,0,0
236621,-90.9090909090909,4,2,1,60,0,0
237075,-90.9090909090909,4,2,1,65,0,0
237530,-90.9090909090909,4,2,1,70,0,0
237681,-90.9090909090909,4,2,2,65,0,0

[Colours]
Combo1 : 150,185,220
Combo2 : 240,140,140
Combo3 : 200,180,220
Combo4 : 240,200,155

[HitObjects]
93,149,277,6,0,B|71:168|23:164|-14:98|34:20|137:27|169:100|162:107|157:113|202:206|290:198,1,395.6,2|0,0:0|0:0,0:0:0:0:
296,209,2095,2,0,P|340:179|397:168,1,103.199996850586,2|0,0:0|0:0,0:0:0:0:
388,168,2701,6,0,B|419:149|431:112|431:112|422:146|434:170,1,128.999996063233,2|0,0:0|0:0,0:0:0:0:
418,186,3155,2,0,P|374:122|346:86,1,120.399996325684,2|0,0:0|0:0,0:0:0:0:
347,88,3610,1,2,0:0:0:0:
77,241,5125,6,0,B|61:258|52:278|52:278|-25:214|105:80|201:185|166:263|144:291|135:288|126:285|107:331|125:354,1,395.6,2|0,0:0|0:0,0:0:0:0:
144,362,6943,2,0,B|158:349|178:351|178:351|189:353|204:363|204:363|225:375|251:378,2,103.199996850586,2|0|2,0:0|2:0|0:0,0:0:0:0:
256,192,7625,12,0,9292,0:0:0:0:
361,80,9367,5,0,1:0:0:0:
335,206,9519,2,0,L|342:173,1,34.4,2|2,1:2|1:2,0:0:0:0:
242,187,9670,5,0,1:0:0:0:
335,206,9822,2,0,L|368:213,1,34.4,2|2,1:2|1:2,0:0:0:0:
208,30,9973,6,0,P|141:85|47:78,1,167.699992323304,12|0,1:0|0:0,0:0:0:0:
64,6,10277,2,0,P|114:27|137:66,1,94.600002886963,8|0,0:0|0:0,0:0:0:0:
31,155,10580,1,0,1:0:0:0:
232,193,10731,2,0,P|227:247|197:280,1,94.600002886963,0|8,1:0|0:0,0:0:0:0:
134,384,11034,6,0,B|130:348|130:348|128:344|128:344|128:337|128:337|114:206,1,167.699992323304,0|0,1:0|0:0,0:0:0:0:
33,238,11337,2,0,B|38:286|38:286|38:290|38:290|39:292|39:292|41:310,1,68.8,0|0,1:0|0:0,0:0:0:0:
256,109,11489,2,0,B|257:93|257:93|258:91|258:91|258:87|258:87|263:38,1,70.9500021652222,8|0,0:0|0:0,0:0:0:0:
248,30,11792,5,2,1:2:0:0:
237,274,11943,1,0,1:0:0:0:
333,243,12095,2,0,P|363:197|352:138,1,116.099996456909,8|0,0:0|0:0,0:0:0:0:
256,109,12398,6,0,P|220:217|332:242,1,258.000009841919,2|8,1:2|0:0,0:0:0:0:
288,179,12852,1,2,0:0:0:0:
90,229,13004,1,0,1:0:0:0:
95,7,13155,2,0,P|65:30|26:25,1,64.5000024604798,0|0,1:2|1:2,0:0:0:0:
160,175,13307,1,10,0:2:0:0:
216,76,13458,6,0,P|134:96|161:176,1,189.200005773926,2|2,1:2|1:2,0:0:0:0:
302,88,13913,2,0,P|337:55|387:53,1,94.600002886963,10|0,0:0|0:0,0:0:0:0:
300,243,14216,5,2,1:2:0:0:
271,167,14367,1,0,1:0:0:0:
437,301,14519,2,0,P|389:331|330:321,1,116.099996456909,8|0,0:0|0:0,0:0:0:0:
250,347,14822,6,0,B|171:335|172:382|87:373,1,167.699992323304,4|0,1:0|0:0,0:0:0:0:
59,299,15125,2,0,B|44:283|44:283|30:244|61:207,1,94.600002886963,8|0,0:0|0:0,0:0:0:0:
55,214,15428,1,0,1:0:0:0:
234,264,15580,2,0,B|249:248|249:248|263:209|232:172,1,94.600002886963,0|8,1:0|0:0,0:0:0:0:
0,0,15883,6,0,P|52:67|145:56,1,167.699992323304,0|0,1:2|0:0,0:0:0:0:
167,134,16186,2,0,P|192:113|207:74,1,68.8,0|0,1:0|0:0,0:0:0:0:
420,0,16337,2,0,P|445:21|460:60,1,70.9500021652222,8|0,0:2|0:0,0:0:0:0:
459,55,16640,5,10,1:2:0:0:
337,136,16792,2,0,P|344:107|353:85,1,47.3000014434815,8|8,1:2|1:2,0:0:0:0:
497,266,16943,5,2,1:2:0:0:
501,279,17018,1,2,1:2:0:0:
505,293,17094,1,2,1:2:0:0:
508,306,17170,1,2,1:2:0:0:
512,320,17246,6,0,P|397:300|288:291,1,223.599989764405,4|8,1:0|0:0,0:0:0:0:
470,225,17701,2,0,P|414:216|358:210,1,111.799994882202,4|0,1:2|0:0,0:0:0:0:
0,153,18155,6,0,P|115:133|224:124,1,223.599989764405,4|8,1:0|0:0,0:0:0:0:
42,58,18610,2,0,P|98:49|154:43,1,111.799994882202,4|4,1:2|3:0,0:0:0:0:
283,0,18989,1,8,3:0:0:0:
297,11,19064,6,0,P|289:47|284:80,1,60.1999981628419,8|0,3:2|0:0,0:0:0:0:
159,225,19216,2,0,P|194:213|225:201,1,60.1999981628419,8|0,3:0|0:0,0:0:0:0:
414,238,19367,2,0,P|386:213|360:192,1,60.1999981628419,4|0,3:0|0:0,0:0:0:0:
291,158,19519,5,2,1:0:0:0:
166,145,29367,6,0,P|201:135|231:125,1,64.5000024604798,0|0,1:0|0:0,0:0:0:0:
243,275,29670,2,0,P|233:240|223:210,1,64.5000024604798,0|0,1:0|0:0,0:0:0:0:
296,68,29973,2,0,P|306:103|316:133,1,64.5000024604798,2|2,1:2|0:0,0:0:0:0:
243,275,30276,1,2,1:2:0:0:
373,198,30428,6,0,P|338:208|308:218,1,64.5000024604798,2|0,0:0|1:0,0:0:0:0:
174,333,30731,2,0,P|112:312|50:295,1,129.00000492096,2|0,0:0|0:0,0:0:0:0:
0,238,31186,1,2,1:2:0:0:
47,374,31337,1,2,0:0:0:0:
0,238,31489,1,2,1:2:0:0:
44,175,31640,6,0,P|54:132|62:96,1,64.5000024604798,2|0,0:0|0:0,0:0:0:0:
246,46,31943,2,0,B|184:53|193:103|132:106,1,129.00000492096,2|2,0:0|0:0,0:0:0:0:
126,30,32398,2,0,P|133:61|140:92,1,64.5000024604798,2|0,0:0|0:0,0:0:0:0:
240,255,32701,1,2,1:2:0:0:
240,255,32852,6,0,P|252:174|263:116,1,129.00000492096,2|2,0:0|0:0,0:0:0:0:
397,211,33307,1,2,1:2:0:0:
340,109,33458,1,2,2:0:0:0:
485,235,33610,1,2,1:2:0:0:
346,314,33761,1,2,0:0:0:0:
397,211,33913,1,2,1:2:0:0:
401,229,34064,1,2,0:0:0:0:
460,361,34216,6,0,P|471:290|484:234,1,129.00000492096,2|2,1:2|1:2,0:0:0:0:
345,313,34822,2,0,P|313:306|282:302,1,64.5000024604798,2|2,1:2|0:0,0:0:0:0:
425,368,35125,1,2,1:2:0:0:
282,302,35276,6,0,P|250:308|218:313,1,64.5000024604798,2|0,0:0|1:0,0:0:0:0:
425,368,35580,2,0,P|467:329|455:244,1,129.00000492096,2|0,0:0|0:0,0:0:0:0:
347,113,36034,1,2,1:2:0:0:
305,185,36186,1,2,0:0:0:0:
232,144,36337,1,2,1:2:0:0:
260,7,36489,6,0,P|267:41|273:75,1,64.5000024604798,2|0,0:0|0:0,0:0:0:0:
317,248,36792,2,0,P|310:214|304:180,1,64.5000024604798,2|0,0:0|1:0,0:0:0:0:
168,156,37095,2,0,P|202:149|236:143,1,64.5000024604798,2|0,0:0|1:0,0:0:0:0:
410,100,37398,2,0,P|376:107|342:113,1,64.5000024604798,2|0,0:0|1:0,0:0:0:0:
119,222,37701,6,0,P|74:192|22:199,1,96.7500036907198,2|0,0:0|0:0,0:0:0:0:
33,194,38004,2,0,P|41:208|45:218,1,25.7999992126465,2|0,0:0|0:0,0:0:0:0:
61,352,38155,2,0,P|69:314|77:281,1,55.8999974411012,2|2,1:2|0:0,0:0:0:0:
152,86,38458,5,2,1:2:0:0:
154,93,38534,1,0,3:0:0:0:
156,101,38609,1,2,3:2:0:0:
158,109,38685,1,0,3:0:0:0:
160,117,38761,1,2,1:2:0:0:
162,125,38837,1,0,3:0:0:0:
163,132,38912,1,0,3:0:0:0:
165,140,38988,1,0,3:0:0:0:
167,148,39064,6,0,P|228:158|283:74,1,167.699992323304,4|0,1:0|1:2,0:0:0:0:
157,160,39670,2,0,P|229:171|295:71,1,189.200005773926,8|2,0:0|0:0,0:0:0:0:
395,7,40125,1,0,1:0:0:0:
395,7,40201,1,0,1:0:0:0:
395,7,40276,2,0,P|382:40|378:77,1,68.8,0|0,1:2|1:0,0:0:0:0:
480,127,40580,2,0,P|467:94|463:57,1,68.8,0|0,1:0|1:2,0:0:0:0:
313,254,40883,2,0,P|355:203|439:202,1,137.6,8|0,0:0|0:0,0:0:0:0:
107,384,41489,6,0,P|60:307|91:232,1,167.699992323304,0|0,1:2|1:0,0:0:0:0:
79,384,42095,2,0,P|48:339|46:293,1,94.600002886963,10|2,0:0|0:0,0:0:0:0:
203,154,42398,1,2,0:0:0:0:
145,99,42549,2,0,P|159:166|171:235,2,137.6,2|2|2,1:2|1:2|1:2,0:0:0:0:
83,239,43307,5,10,0:0:0:0:
222,74,43458,1,2,1:2:0:0:
285,128,43610,1,0,0:0:0:0:
448,266,43913,6,0,B|370:244|364:332|304:332,1,167.699992323304,4|0,1:0|1:0,0:0:0:0:
286,342,44443,1,0,1:0:0:0:
285,325,44519,2,0,B|353:324|360:221|453:248,1,189.200005773926,8|2,0:0|0:0,0:0:0:0:
274,242,44973,2,0,B|249:224|249:224|216:177|244:118,1,137.6,0|0,1:0|1:0,0:0:0:0:
342,41,45428,2,0,P|335:74|330:110,1,68.8,0|0,3:2|1:0,0:0:0:0:
133,302,45731,5,8,0:0:0:0:
24,266,45883,1,0,3:0:0:0:
48,379,46034,1,0,1:2:0:0:
274,242,46186,5,0,1:0:0:0:
283,244,46261,1,0,1:0:0:0:
292,247,46337,1,4,1:0:0:0:
344,101,46489,1,2,2:0:0:0:
224,2,46640,1,8,0:0:0:0:
301,249,46792,5,4,1:2:0:0:
419,148,46944,1,2,2:2:0:0:
364,2,47095,1,8,2:0:0:0:
265,133,47246,5,4,1:2:0:0:
265,133,47398,1,2,2:2:0:0:
103,134,47549,5,4,1:0:0:0:
29,267,47701,1,2,2:2:0:0:
124,384,47852,1,8,0:0:0:0:
265,133,48004,5,4,1:0:0:0:
339,266,48156,1,2,2:2:0:0:
244,383,48307,1,8,0:0:0:0:
438,306,48458,5,4,1:2:0:0:
502,356,48761,5,4,1:0:0:0:
373,255,48913,1,2,2:2:0:0:
223,316,49064,1,8,0:0:0:0:
0,192,49216,5,4,1:0:0:0:
129,91,49367,1,2,2:2:0:0:
279,152,49519,1,0,1:2:0:0:
151,257,49670,5,12,0:2:0:0:
151,257,49822,1,2,2:2:0:0:
63,137,49973,5,10,0:0:0:0:
307,103,50125,1,0,1:0:0:0:
341,348,50276,1,8,1:2:0:0:
96,381,50428,1,4,1:0:0:0:
42,324,50731,6,0,L|14:317,2,25.7999992126465,2|2|2,0:0|0:0|0:0,0:0:0:0:
202,193,51186,6,0,P|258:175|334:159,1,120.399996325684,12|2,1:0|0:0,0:0:0:0:
205,110,51489,1,8,0:0:0:0:
327,261,51640,1,0,1:0:0:0:
161,371,51792,6,0,P|167:333|179:266,1,103.199996850586,8|0,0:0|0:0,0:0:0:0:
78,351,52095,2,0,P|81:329|88:290,1,60.1999981628419,8|0,0:0|0:0,0:0:0:0:
41,106,52246,5,4,1:2:0:0:
55,187,52398,1,0,3:2:0:0:
256,308,52549,5,2,1:2:0:0:
256,224,52701,1,0,3:2:0:0:
471,106,52852,5,2,1:2:0:0:
457,187,53004,6,0,P|451:226|446:266,2,68.7999979003907,8|4|2,3:0|3:0|3:0,0:0:0:0:
359,274,53610,6,0,P|367:214|376:154,1,120.399996325684,4|2,1:0|0:0,0:0:0:0:
410,345,53913,1,8,0:0:0:0:
239,210,54064,1,2,1:2:0:0:
374,39,54216,6,0,B|399:28|424:13|424:13|405:37|398:57,1,103.199996850586,8|2,0:0|1:2,0:0:0:0:
284,100,54519,2,0,P|251:89|221:82,1,60.1999981628419,8|0,0:0|0:0,0:0:0:0:
2,51,54670,5,4,1:0:0:0:
17,132,54822,1,0,3:2:0:0:
224,291,54973,5,2,1:2:0:0:
239,210,55125,1,0,3:2:0:0:
82,384,55276,5,2,1:2:0:0:
80,372,55580,6,0,P|59:362|46:351,1,34.4,2|2,0:0|0:0,0:0:0:0:
78,360,55731,2,0,P|91:344|111:329,1,34.4,2|2,0:0|0:0,0:0:0:0:
173,161,55883,6,0,P|221:217|370:216,1,223.599989764405,12|0,1:0|1:0,0:0:0:0:
313,124,56337,1,8,0:0:0:0:
487,342,56489,1,2,0:0:0:0:
487,342,56564,1,2,0:0:0:0:
487,342,56640,6,0,B|482:307|482:307|482:302|482:302|479:295|479:295|467:194,1,141.900004330444,2|0,1:2|0:0,0:0:0:0:
488,97,56943,2,0,L|498:42,1,47.3000014434815,0|0,1:0|0:0,0:0:0:0:
362,220,57095,1,2,0:0:0:0:
300,277,57246,6,0,B|262:273|262:273|241:261|241:261|197:256,1,103.199996850586,2|0,1:2|0:0,0:0:0:0:
39,93,57549,1,8,0:0:0:0:
130,58,57701,2,0,B|139:105|139:105|121:155,1,94.600002886963,2|0,0:0|1:0,0:0:0:0:
58,344,58004,1,2,0:0:0:0:
2,288,58155,2,0,P|-2:259|0:232,1,51.6,0|0,1:0|0:0,0:0:0:0:
12,224,58458,5,2,1:2:0:0:
132,317,58610,2,0,P|182:303|228:293,1,94.600002886963,2|8,0:0|0:0,0:0:0:0:
275,68,58913,2,0,P|325:82|371:92,1,94.600002886963,2|0,0:0|0:0,0:0:0:0:
495,262,59216,1,0,1:0:0:0:
495,262,59292,1,0,1:0:0:0:
495,262,59367,2,0,P|503:314|473:342,1,90.2999972442628,8|0,1:2|0:0,0:0:0:0:
397,384,59670,6,0,P|390:340|386:314,1,55.8999974411012,8|8,0:0|0:0,0:0:0:0:
309,201,59822,1,8,0:0:0:0:
278,247,59897,1,8,0:0:0:0:
233,280,59973,1,8,0:0:0:0:
180,296,60049,1,8,0:0:0:0:
124,291,60125,6,0,B|55:275|41:192|41:192|52:203|52:203|75:251|28:304,1,258,12|0,1:0|0:0,0:0:0:0:
0,384,60428,6,0,P|14:378|32:373,1,32.2500012302399,8|0,1:2|0:0,0:0:0:0:
295,45,60731,6,0,P|401:72|521:97,1,223.599989764405,12|0,1:0|1:0,0:0:0:0:
453,0,61186,1,8,0:0:0:0:
282,171,61337,1,2,0:0:0:0:
453,342,61489,6,0,P|448:305|442:268,1,55.8999974411012,2|0,1:2|2:0,0:0:0:0:
378,119,61640,1,0,1:0:0:0:
379,105,61715,1,0,1:0:0:0:
381,91,61791,1,8,0:0:0:0:
103,264,61943,6,0,B|118:222|160:201|208:215|208:215|225:241|249:248,1,180.599994488526,2|0,1:2|0:0,0:0:0:0:
282,171,62246,2,0,B|293:148|306:130|306:130|285:145|268:150,1,86,2|0,1:2|0:0,0:0:0:0:
29,36,62549,5,2,0:2:0:0:
29,36,62625,1,2,0:0:0:0:
29,36,62701,2,0,P|36:72|41:103,1,60.1999981628419,2|0,1:2|0:0,0:0:0:0:
261,207,62852,2,0,P|266:177|272:148,1,60.1999981628419,2|0,1:2|0:0,0:0:0:0:
47,50,63004,2,0,P|53:80|58:110,1,60.1999981628419,10|0,0:0|0:0,0:0:0:0:
251,353,63155,6,0,P|269:243|291:133,1,223.599989764405,4|0,1:0|1:0,0:0:0:0:
363,300,63610,2,0,B|393:315|412:346|412:346|396:318|396:296,1,111.799994882202,8|2,0:0|2:2,0:0:0:0:
396,305,63837,1,2,2:2:0:0:
396,305,63913,5,2,1:2:0:0:
250,352,64064,1,0,1:0:0:0:
179,128,64216,1,8,0:0:0:0:
341,72,64367,6,0,B|404:61|402:102|461:94,1,120.399996325684,2|0,1:2|0:0,0:0:0:0:
346,204,64670,2,0,P|351:179|363:140,1,47.3000014434815,2|0,1:2|0:0,0:0:0:0:
445,14,64822,1,0,0:0:0:0:
275,129,64973,2,0,P|260:181|250:235,1,103.199996850586,2|0,1:2|0:0,0:0:0:0:
503,344,65276,6,0,P|481:335|459:329,1,47.3000014434815,0|0,1:2|0:0,0:0:0:0:
466,232,65428,2,0,P|444:241|423:252,1,47.3000014434815,8|0,2:2|0:0,0:0:0:0:
213,307,65580,6,0,B|98:292|116:378|-2:357,1,223.599989764405,12|0,1:0|1:0,0:0:0:0:
264,228,66034,1,8,0:0:0:0:
200,139,66186,2,0,P|172:176|169:223,1,94.600002886963,2|0,0:0|0:0,0:0:0:0:
309,310,66489,1,0,1:0:0:0:
169,223,66640,1,8,0:0:0:0:
315,146,66792,1,2,0:0:0:0:
213,384,66943,6,0,P|209:354|207:337,1,47.3000014434815,2|0,1:2|0:0,0:0:0:0:
263,240,67095,1,0,1:0:0:0:
264,228,67170,1,0,1:0:0:0:
266,217,67246,1,8,0:0:0:0:
39,245,67398,2,0,P|68:292|113:307,1,94.600002886963,2|0,0:0|1:0,0:0:0:0:
315,146,67701,5,0,1:0:0:0:
398,199,67852,2,0,B|366:197|366:197|359:194|359:194|352:196|352:196|209:186,1,180.599994488526,8|0,0:0|0:0,0:0:0:0:
137,39,68155,5,4,1:0:0:0:
103,152,68307,1,0,1:2:0:0:
218,186,68459,1,8,0:0:0:0:
250,71,68610,1,0,1:2:0:0:
18,150,68761,5,2,1:2:0:0:
177,111,68913,1,0,1:0:0:0:
335,72,69064,1,8,0:0:0:0:
494,384,69367,5,4,1:0:0:0:
380,198,69519,1,0,1:2:0:0:
434,133,69670,5,8,0:0:0:0:
293,384,69822,1,0,1:0:0:0:
42,243,69973,5,8,0:0:0:0:
39,225,70048,1,8,0:0:0:0:
37,207,70124,1,8,0:0:0:0:
35,190,70200,1,8,0:0:0:0:
54,150,70277,5,0,1:2:0:0:
48,196,70352,1,0,1:2:0:0:
42,243,70428,1,0,1:2:0:0:
37,290,70504,1,0,1:2:0:0:
31,337,70580,6,0,B|61:361|61:361|142:346,1,120.399996325684,4|0,1:0|1:0,0:0:0:0:
219,296,71186,1,0,1:0:0:0:
236,300,71489,1,0,1:0:0:0:
253,304,71792,5,0,1:0:0:0:
130,216,71943,1,8,0:0:0:0:
147,212,72019,1,8,0:0:0:0:
164,208,72095,1,8,0:0:0:0:
42,243,72246,1,4,1:3:0:0:
252,182,72398,5,8,0:0:0:0:
238,310,72600,5,4,1:3:0:0:
356,258,72802,5,8,0:0:0:0:
189,129,73004,6,0,B|166:69|207:22|207:22|247:7,1,154.799995275879,4|0,1:0|1:0,0:0:0:0:
332,65,73610,1,0,1:0:0:0:
349,69,73913,1,0,1:0:0:0:
366,73,74216,5,0,1:0:0:0:
505,4,74367,1,8,0:0:0:0:
488,8,74443,1,8,0:0:0:0:
471,12,74519,1,8,0:0:0:0:
315,61,74670,1,4,1:3:0:0:
159,110,74822,5,8,0:0:0:0:
259,156,75024,5,4,1:3:0:0:
255,191,75125,5,0,1:0:0:0:
252,227,75226,5,8,1:3:0:0:
249,263,75327,5,0,1:0:0:0:
160,329,75428,6,0,B|144:233|144:233|144:260|128:279,1,137.6,4|0,1:0|1:0,0:0:0:0:
61,234,76034,6,0,B|122:206|170:260|170:260|216:309|279:290,1,240.799992651367,4|0,1:0|1:0,0:0:0:0:
333,225,76489,1,2,1:2:0:0:
468,151,76640,6,0,P|395:163|403:277,1,206.4,4|0,1:0|0:0,0:0:0:0:
512,218,77246,6,0,P|381:255|468:151,1,361.199988977051,2|2,1:2|0:0,0:0:0:0:
292,278,77852,6,0,P|233:343|139:340,1,167.699992323304,4|0,1:2|0:0,0:0:0:0:
84,381,78155,1,0,1:2:0:0:
194,251,78307,1,2,2:0:0:0:
177,158,78458,2,0,P|185:204|194:251,1,94.600002886963,2|2,1:2|0:0,0:0:0:0:
10,348,78761,2,0,P|18:301|27:254,1,94.600002886963,0|0,1:2|0:0,0:0:0:0:
240,96,79064,5,0,1:0:0:0:
177,158,79216,1,2,2:0:0:0:
71,59,79367,2,0,P|113:67|155:72,1,86,0|2,1:0|0:0,0:0:0:0:
366,251,79670,6,0,P|441:230|507:216,1,141.900004330444,2|0,1:2|0:0,0:0:0:0:
512,197,79973,2,0,P|483:203|459:209,1,51.6,0|0,1:0|0:0,0:0:0:0:
310,186,80276,6,0,B|291:134|239:108|180:125|180:125|159:157|129:166,1,223.599989764405,4|0,1:2|1:0,0:0:0:0:
87,1,80731,1,2,0:2:0:0:
19,59,80883,2,0,P|58:85|107:90,1,94.600002886963
310,186,81186,2,0,P|263:191|229:223,1,90.2999972442628,2|0,1:2|0:0,0:0:0:0:
266,298,81489,6,0,P|312:292|346:261,1,94.600002886963,0|2,1:0|0:0,0:0:0:0:
150,194,81792,1,2,1:2:0:0:
69,170,81943,1,2,0:0:0:0:
242,379,82095,5,2,1:2:0:0:
266,298,82246,1,2,0:0:0:0:
495,324,82398,1,0,1:0:0:0:
385,182,82549,2,0,P|421:172|457:165,1,60.1999981628419,2|0,1:2|1:2,0:0:0:0:
512,236,82701,6,0,P|432:252|348:273,1,167.699992323304,4|0,1:0|0:0,0:0:0:0:
403,346,83004,2,0,P|455:332|507:322,1,94.600002886963,0|0,1:0|0:0,0:0:0:0:
244,125,83307,1,2,1:2:0:0:
244,125,83458,1,2,0:0:0:0:
273,216,83610,2,0,P|227:203|181:194,1,94.600002886963,0|0,1:0|0:0,0:0:0:0:
27,334,83913,6,0,P|66:316|90:278,1,77.3999976379395,0|0,1:0|0:0,0:0:0:0:
195,183,84216,2,0,P|199:137|177:95,1,86,0|2,1:0|0:0,0:0:0:0:
29,0,84519,6,0,B|32:23|32:23|32:29|32:29|34:34|34:34|46:105,1,94.600002886963,2|10,1:2|1:2,0:0:0:0:
99,149,84746,1,8,0:0:0:0:
95,164,84822,1,2,1:2:0:0:
212,334,84973,5,2,1:2:0:0:
208,319,85049,1,0,1:2:0:0:
204,304,85125,1,4,1:0:0:0:
334,366,85276,1,0,1:0:0:0:
396,236,85428,1,8,0:0:0:0:
225,131,85580,5,6,1:2:0:0:
190,213,85732,1,0,1:2:0:0:
274,246,85883,1,0,1:2:0:0:
176,16,86034,5,4,1:0:0:0:
309,164,86186,1,0,1:2:0:0:
161,297,86337,1,8,0:0:0:0:
39,54,86489,5,6,1:2:0:0:
190,213,86640,1,0,1:2:0:0:
387,106,86792,1,8,0:0:0:0:
373,62,86867,1,8,0:0:0:0:
359,19,86943,5,8,1:2:0:0:
309,164,87095,1,10,3:0:0:0:
512,361,87246,5,8,3:0:0:0:
397,199,87398,1,2,3:0:0:0:
252,276,87549,5,4,1:2:0:0:
114,169,97246,6,0,P|92:144|93:90,1,64.5000024604798,2|0,1:2|0:0,0:0:0:0:
168,105,97549,2,0,P|200:98|246:126,1,64.5000024604798,0|0,1:0|0:0,0:0:0:0:
196,183,97852,2,0,P|185:214|138:240,1,64.5000024604798,2|2,1:2|0:0,0:0:0:0:
80,243,98155,1,2,1:2:0:0:
279,174,98307,6,0,P|310:184|336:231,1,64.5000024604798,2|2,0:0|1:2,0:0:0:0:
252,380,98610,2,0,P|256:295|264:242,1,129.00000492096,2|0,0:0|0:0,0:0:0:0:
402,169,99064,1,2,1:2:0:0:
337,290,99216,1,2,0:0:0:0:
402,169,99367,1,2,1:2:0:0:
483,206,99519,6,0,P|484:238|488:270,1,64.5000024604798,2|0,0:0|0:0,0:0:0:0:
402,169,99822,2,0,P|410:104|412:39,1,129.00000492096,2|2,0:0|0:0,0:0:0:0:
313,124,100276,2,0,P|300:93|270:78,1,64.5000024604798,2|0,0:0|0:0,0:0:0:0:
123,213,100580,1,2,1:2:0:0:
123,213,100731,2,0,P|211:189|258:180,1,129.00000492096,2|2,0:0|0:0,0:0:0:0:
50,175,101186,6,0,P|26:149|21:112,1,64.5000024604798,2|0,1:2|0:0,0:0:0:0:
143,291,101489,2,0,P|153:324|142:360,1,64.5000024604798,2|0,1:2|0:0,0:0:0:0:
50,175,101792,2,0,P|39:141|50:105,1,64.5000024604798,2|0,1:2|0:0,0:0:0:0:
248,181,102095,6,0,P|184:195|123:213,1,129.00000492096,2|0,1:2|1:0,0:0:0:0:
311,96,102701,2,0,P|345:115|374:117,1,64.5000024604798,2|2,1:2|0:0,0:0:0:0:
441,185,103004,1,2,1:2:0:0:
361,271,103155,6,0,P|353:223|348:201,1,64.5000024604798,2|2,0:0|1:2,0:0:0:0:
464,58,103458,2,0,P|450:124|439:192,1,129.00000492096,2|0,0:0|0:0,0:0:0:0:
512,347,103913,1,2,1:2:0:0:
435,312,104064,1,2,0:2:0:0:
382,378,104216,1,2,1:2:0:0:
240,354,104367,6,0,P|228:318|223:288,1,64.5000024604798,2|0,0:0|0:0,0:0:0:0:
167,221,104670,2,0,P|203:209|233:204,1,64.5000024604798,2|0,0:0|1:2,0:0:0:0:
300,148,104973,2,0,P|311:184|317:214,1,64.5000024604798,2|0,0:0|1:0,0:0:0:0:
373,281,105276,2,0,P|337:292|307:298,1,64.5000024604798,2|0,0:0|1:0,0:0:0:0:
153,211,105580,6,0,P|104:200|57:185,1,96.7500036907198,2|0,0:0|0:0,0:0:0:0:
59,186,105883,2,0,P|52:169|54:148,1,25.7999992126465,2|0,0:0|0:0,0:0:0:0:
168,127,106034,2,0,P|197:116|226:102,1,55.8999974411012,2|2,1:2|0:0,0:0:0:0:
346,49,106337,5,2,1:2:0:0:
350,42,106412,1,0,3:2:0:0:
356,36,106488,1,0,3:2:0:0:
362,31,106564,1,0,3:2:0:0:
370,28,106640,1,2,1:2:0:0:
377,25,106715,1,0,3:2:0:0:
385,24,106791,1,0,3:2:0:0:
393,23,106867,1,0,3:2:0:0:
401,24,106943,6,0,P|348:27|326:129,1,167.699992323304,4|0,1:0|1:0,0:0:0:0:
402,15,107549,2,0,P|342:18|318:131,1,189.200005773926,8|2,0:0|0:0,0:0:0:0:
408,207,108004,1,0,1:0:0:0:
418,204,108080,1,0,1:0:0:0:
427,202,108155,1,0,1:0:0:0:
512,180,108307,1,0,1:0:0:0:
451,118,108458,1,0,1:0:0:0:
385,290,108610,1,0,1:0:0:0:
213,224,108761,2,0,B|149:212|148:262|78:250,1,137.6,8|0,0:0|0:0,0:0:0:0:
81,250,109367,6,0,B|56:142|56:142|77:168|103:178,1,167.699992323304,0|0,1:0|1:0,0:0:0:0:
72,265,109973,2,0,L|48:162,1,94.600002886963,10|2,0:0|0:0,0:0:0:0:
165,14,110276,1,2,0:0:0:0:
245,48,110428,2,0,P|178:100|117:90,2,137.6,2|2|2,1:2|1:2|1:2,0:0:0:0:
76,23,111186,5,10,0:0:0:0:
325,82,111337,1,2,1:2:0:0:
400,38,111489,1,0,0:0:0:0:
217,289,111792,6,0,P|295:266|382:247,1,167.699992323304,0|0,1:2|1:0,0:0:0:0:
402,242,112322,1,0,1:0:0:0:
387,225,112398,2,0,P|288:246|190:275,1,189.200005773926,8|2,0:0|0:0,0:0:0:0:
58,323,112852,2,0,P|100:297|113:208,1,137.6,0|0,1:2|1:0,0:0:0:0:
185,154,113307,2,0,P|154:130|120:124,1,68.8,0|0,3:2|1:0,0:0:0:0:
43,164,113610,5,8,0:0:0:0:
204,244,113761,1,0,1:0:0:0:
284,284,113913,2,0,P|319:270|343:263,1,51.6,0|0,1:2|2:2,0:0:0:0:
346,275,114216,5,4,1:0:0:0:
265,117,114367,1,2,2:2:0:0:
423,35,114519,1,8,0:0:0:0:
360,285,114670,5,4,1:0:0:0:
307,115,114821,1,2,2:2:0:0:
477,62,114973,1,8,0:0:0:0:
374,199,115125,5,4,1:0:0:0:
374,199,115276,1,2,2:2:0:0:
55,109,115428,5,4,1:0:0:0:
210,98,115580,1,2,2:2:0:0:
296,227,115731,1,8,0:0:0:0:
7,212,115883,5,4,1:0:0:0:
93,341,116034,1,2,2:2:0:0:
248,330,116186,1,8,2:0:0:0:
371,118,116337,5,4,1:2:0:0:
416,44,116640,5,4,1:0:0:0:
251,180,116792,1,2,2:2:0:0:
44,133,116943,1,8,0:0:0:0:
217,50,117095,5,4,1:0:0:0:
339,198,117247,1,2,2:2:0:0:
297,384,117398,1,8,0:0:0:0:
148,255,117549,5,4,1:2:0:0:
148,255,117701,1,2,2:2:0:0:
308,111,117852,5,10,0:0:0:0:
92,62,118004,1,0,1:0:0:0:
43,278,118155,1,8,1:2:0:0:
259,327,118307,1,4,1:0:0:0:
228,253,118610,6,0,L|234:228,2,25.7999992126465,2|2|2,0:0|0:0|0:0,0:0:0:0:
48,133,119064,6,0,P|114:114|168:102,1,120.399996325684,4|2,1:0|0:0,0:0:0:0:
0,68,119367,1,8,0:0:0:0:
161,214,119519,1,0,1:0:0:0:
343,96,119670,6,0,P|395:103|454:113,1,103.199996850586,8|0,0:0|1:0,0:0:0:0:
379,20,119973,2,0,P|407:23|438:29,1,60.1999981628419,8|0,0:0|0:0,0:0:0:0:
512,227,120125,5,4,1:0:0:0:
432,246,120276,1,0,3:0:0:0:
295,27,120428,5,2,1:2:0:0:
215,8,120579,1,0,3:0:0:0:
53,209,120731,5,2,1:2:0:0:
133,190,120883,6,0,P|169:182|207:175,2,68.7999979003907,8|8|2,3:0|3:0|3:0,0:0:0:0:
91,114,121489,6,0,P|156:99|225:86,1,120.399996325684,4|2,1:0|0:0,0:0:0:0:
293,0,121792,1,8,0:0:0:0:
200,176,121943,1,0,1:0:0:0:
300,245,122095,6,0,P|288:191|277:134,1,103.199996850586,8|0,0:0|1:0,0:0:0:0:
212,234,122398,2,0,P|203:196|196:156,1,60.1999981628419,8|0,0:0|0:0,0:0:0:0:
423,0,122549,5,4,1:0:0:0:
408,86,122701,1,0,3:0:0:0:
199,175,122852,5,2,1:2:0:0:
280,144,123004,1,0,3:0:0:0:
463,282,123155,5,2,1:2:0:0:
450,270,123458,6,0,P|445:249|445:222,1,34.4,2|0,0:0|0:0,0:0:0:0:
439,257,123610,2,0,P|421:271|403:279,1,34.4,2|0,0:0|0:0,0:0:0:0:
234,373,123761,6,0,B|191:369|191:369|187:367|187:367|180:368|180:368|2:355,1,223.599989764405,4|0,1:0|2:2,0:0:0:0:
196,204,124216,1,0,1:2:0:0:
134,138,124367,1,2,0:0:0:0:
134,138,124443,1,2,0:0:0:0:
134,138,124519,2,0,P|105:192|131:268,1,141.900004330444,2|0,1:2|0:0,0:0:0:0:
216,291,124822,2,0,L|270:281,1,47.3000014434815,0|0,1:0|0:0,0:0:0:0:
40,121,124973,1,2,0:0:0:0:
99,46,125125,6,0,B|120:43|120:43|122:42|122:42|126:43|126:43|214:36,1,103.199996850586,2|0,1:2|0:0,0:0:0:0:
430,156,125428,1,0,1:0:0:0:
449,73,125580,2,0,P|456:119|419:163,1,94.600002886963,2|0,0:0|1:0,0:0:0:0:
262,282,125883,1,2,0:0:0:0:
250,237,126034,2,0,P|246:261|265:283,1,51.6,0|0,1:0|0:0,0:0:0:0:
294,353,126337,5,2,1:2:0:0:
415,250,126489,2,0,P|421:201|431:148,1,94.600002886963,2|8,0:0|0:0,0:0:0:0:
134,113,126792,2,0,P|128:64|118:11,1,94.600002886963,2|0,0:2|0:0,0:0:0:0:
43,252,127095,1,0,1:0:0:0:
43,252,127170,1,0,1:0:0:0:
43,252,127246,2,0,P|89:243|136:237,1,90.2999972442628,2|0,1:2|0:0,0:0:0:0:
234,175,127549,6,0,P|258:184|289:192,1,55.8999974411012,8|8,0:0|0:0,0:0:0:0:
422,350,127701,1,8,0:0:0:0:
382,311,127776,1,8,0:0:0:0:
363,259,127852,1,8,0:0:0:0:
370,204,127928,1,8,0:0:0:0:
401,158,128004,6,0,B|456:154|487:105|487:105|434:118|445:204|488:230,1,258,4|0,1:0|0:0,0:0:0:0:
511,313,128307,6,0,P|504:327|501:343,1,32.2500012302399,8|0,0:0|0:0,0:0:0:0:
116,192,128610,6,0,B|84:171|84:171|52:141|55:34|113:0,1,223.599989764405,12|0,1:0|0:0,0:0:0:0:
182,96,129064,1,8,0:0:0:0:
2,248,129216,1,2,0:0:0:0:
203,384,129367,2,0,P|199:351|194:323,1,55.8999974411012,2|0,1:2|0:0,0:0:0:0:
111,219,129519,1,2,1:2:0:0:
113,205,129595,1,0,1:0:0:0:
116,192,129670,1,8,0:0:0:0:
453,177,129822,6,0,P|380:258|307:258,1,180.599994488526,2|0,0:0|0:0,0:0:0:0:
431,322,130125,2,0,B|456:310|476:288|476:288|462:318|456:341,1,86,0|8,1:0|0:0,0:0:0:0:
348,153,130428,5,2,0:0:0:0:
348,153,130504,1,2,0:0:0:0:
348,153,130580,2,0,P|340:120|334:89,1,60.1999981628419,2|0,1:2|0:0,0:0:0:0:
220,324,130731,2,0,P|196:299|175:275,1,60.1999981628419,2|0,1:2|0:0,0:0:0:0:
169,102,130883,2,0,P|152:72|138:43,1,60.1999981628419,10|0,0:0|0:0,0:0:0:0:
0,228,131034,6,0,P|121:202|236:181,1,223.599989764405,4|0,1:0|1:0,0:0:0:0:
69,301,131489,2,0,P|129:288|190:277,1,111.799994882202,8|2,0:0|0:0,0:0:0:0:
178,278,131716,1,2,0:0:0:0:
178,278,131792,1,2,1:2:0:0:
304,122,131943,1,0,1:2:0:0:
342,360,132095,1,8,0:0:0:0:
446,309,132246,6,0,P|364:249|276:264,1,180.599994488526,4|0,1:0|0:0,0:0:0:0:
395,219,132549,2,0,P|425:184|433:139,1,86,2|0,1:2|0:0,0:0:0:0:
296,75,132852,2,0,P|301:107|308:151,1,47.3000014434815,2|0,1:2|0:0,0:0:0:0:
349,367,133004,1,0,1:0:0:0:
349,367,133080,1,0,1:0:0:0:
349,367,133155,2,0,P|355:334|360:315,1,47.3000014434815,0|0,1:2|0:0,0:0:0:0:
475,250,133307,2,0,P|469:272|465:296,1,47.3000014434815,8|0,2:2|0:0,0:0:0:0:
191,182,133458,6,0,P|101:260|-8:260,1,223.599989764405,12|0,1:0|1:0,0:0:0:0:
136,109,133913,1,8,0:0:0:0:
169,274,134064,2,0,P|178:227|190:181,1,94.600002886963,2|0,0:0|0:0,0:0:0:0:
240,342,134367,1,0,1:0:0:0:
240,342,134443,1,0,1:0:0:0:
240,342,134519,1,8,0:0:0:0:
85,384,134670,1,2,0:0:0:0:
302,274,134822,6,0,P|364:238|439:207,1,141.900004330444,2|0,1:2|0:0,0:0:0:0:
450,219,135125,1,8,0:0:0:0:
207,63,135277,2,0,P|161:26|117:23,1,94.600002886963,2|0,0:0|1:0,0:0:0:0:
55,73,135580,5,2,1:2:0:0:
119,288,135731,2,0,P|128:165|137:96,1,180.599994488526,8|0,0:0|0:0,0:0:0:0:
55,73,136034,5,12,1:0:0:0:
215,143,136186,1,0,1:2:0:0:
324,6,136337,1,8,0:0:0:0:
135,108,136489,1,0,1:2:0:0:
169,243,136640,5,0,1:0:0:0:
304,209,136792,1,0,1:0:0:0:
270,74,136943,1,8,0:0:0:0:
507,371,137246,5,12,1:0:0:0:
258,304,137398,1,0,1:2:0:0:
358,294,137549,5,8,0:0:0:0:
504,86,137701,2,0,P|510:52|515:23,1,60.1999981628419,0|0,1:0|0:0,0:0:0:0:
232,154,137852,5,8,0:0:0:0:
216,157,137927,1,8,0:0:0:0:
201,161,138003,1,8,0:0:0:0:
186,165,138079,1,8,0:0:0:0:
138,145,138155,5,8,2:2:0:0:
185,149,138230,1,8,2:2:0:0:
232,154,138306,1,8,2:2:0:0:
279,159,138382,1,8,2:2:0:0:
326,164,138458,6,0,L|465:145,1,120.399996325684,4|0,1:0|1:0,0:0:0:0:
483,237,139064,1,0,1:0:0:0:
480,257,139367,1,0,1:0:0:0:
477,277,139670,5,0,1:0:0:0:
316,384,139822,5,8,0:0:0:0:
313,364,139898,1,8,0:0:0:0:
310,344,139973,1,8,0:0:0:0:
423,374,140125,1,4,1:3:0:0:
197,314,140277,5,8,0:0:0:0:
97,355,140479,5,4,1:3:0:0:
214,303,140681,5,8,0:0:0:0:
37,243,140883,6,0,B|20:209|20:209|37:91,1,154.799995275879,4|0,1:0|1:0,0:0:0:0:
125,43,141489,1,0,1:0:0:0:
145,49,141792,1,0,1:0:0:0:
165,55,142095,5,0,1:0:0:0:
268,133,142246,1,8,0:0:0:0:
288,127,142322,1,8,0:0:0:0:
308,121,142397,1,8,0:0:0:0:
394,94,142549,1,4,1:3:0:0:
182,159,142701,5,8,0:0:0:0:
39,275,142903,5,4,1:3:0:0:
64,249,143004,5,0,1:0:0:0:
99,245,143105,5,8,2:2:0:0:
130,263,143206,5,0,1:0:0:0:
222,288,143307,6,0,B|257:315|303:298|303:298|319:269|348:263,1,137.6,4|0,1:0|1:0,0:0:0:0:
377,335,143913,2,0,B|394:350|399:373|399:373|409:292|425:224|425:224|431:253|447:269,1,240.799992651367,4|0,1:0|1:0,0:0:0:0:
510,215,144367,1,2,1:2:0:0:
392,68,144519,6,0,B|295:57|296:145|203:130,1,206.4,4|0,1:0|0:0,0:0:0:0:
3,94,145125,6,0,B|186:62|173:243|333:240,1,361.199988977051,2|2,1:2|0:0,0:0:0:0:
115,208,145731,6,0,P|80:176|32:169,1,94.600002886963,12|0,1:2|1:0,0:0:0:0:
203,130,146034,1,8,0:2:0:0:
150,333,146186,1,0,1:0:0:0:
353,384,146337,5,8,0:0:0:0:
459,278,146489,1,0,1:0:0:0:
316,239,146640,1,8,0:2:0:0:
374,302,146792,1,0,1:0:0:0:
406,181,146943,6,0,P|425:91|365:22,1,167.699992323304,10|0,0:2|0:0,0:0:0:0:
329,117,147246,2,0,P|295:124|262:133,1,68.8,8|0,0:2|0:0,0:0:0:0:
262,132,147398,1,0,1:0:0:0:
184,69,147549,2,0,P|137:56|90:47,1,94.600002886963,8|0,0:0|1:0,0:0:0:0:
234,224,147852,2,0,B|238:258|266:297|266:297|243:265|210:262,1,141.900004330444,8|0,0:2|0:0,0:0:0:0:
194,343,148155,6,0,B|189:305|189:305|187:301|187:301|188:296|188:296|173:165,1,180.599994488526,4|0,1:0|0:0,0:0:0:0:
109,335,148458,1,8,0:0:0:0:
216,262,148610,1,0,1:0:0:0:
418,384,148761,5,8,0:0:0:0:
415,366,148913,1,0,1:0:0:0:
326,171,149064,5,8,0:0:0:0:
323,189,149216,1,0,1:2:0:0:
512,291,149367,6,0,P|419:278|334:270,1,167.699992323304,14|0,1:2|0:0,0:0:0:0:
247,359,149670,2,0,P|288:362|330:367,1,68.8,8|0,0:0|0:0,0:0:0:0:
315,365,149822,1,0,1:0:0:0:
261,253,149973,2,0,P|235:195|241:158,1,94.600002886963,8|0,0:0|1:0,0:0:0:0:
375,0,150276,2,0,P|370:32|362:104,1,94.600002886963,10|0,0:0|1:0,0:0:0:0:
275,69,150504,1,0,1:0:0:0:
264,75,150580,6,0,B|237:75|214:52|214:52|179:14|143:3|106:22,1,167.699992323304,12|0,1:2|0:0,0:0:0:0:
62,165,150883,5,8,0:0:0:0:
137,102,151034,1,0,1:0:0:0:
45,69,151186,5,8,0:0:0:0:
154,198,151337,1,0,1:0:0:0:
25,307,151489,1,8,0:0:0:0:
93,379,151640,1,0,1:0:0:0:
301,261,151792,6,0,P|215:270|118:285,1,180.599994488526,14|0,1:2|0:0,0:0:0:0:
154,198,152095,2,0,P|198:191|243:186,1,68.8,8|0,0:0|0:0,0:0:0:0:
301,261,152246,1,2,1:2:0:0:
468,166,152398,5,8,0:0:0:0:
376,3,152549,1,0,1:0:0:0:
295,109,152701,1,10,0:2:0:0:
374,182,152852,1,0,1:0:0:0:
406,96,153004,6,0,P|446:75|498:78,1,94.600002886963,14|0,1:2|1:0,0:0:0:0:
301,261,153307,1,8,0:0:0:0:
196,84,153458,1,0,1:0:0:0:
19,189,153610,5,14,1:2:0:0:
70,258,153761,1,0,1:0:0:0:
106,179,153913,1,8,0:0:0:0:
54,109,154064,1,0,1:0:0:0:
210,286,154216,6,0,P|258:270|310:259,1,94.600002886963,10|8,0:0|0:0,0:0:0:0:
300,260,154443,1,8,0:0:0:0:
300,260,154519,1,0,1:0:0:0:
201,302,154670,1,0,1:0:0:0:
427,367,154822,6,0,P|383:353|337:341,1,77.3999976379395,8|4,3:0|3:0,0:0:0:0:
341,350,155049,1,4,3:0:0:0:
329,354,155125,2,0,P|313:358|300:360,1,25.7999992126465,0|0,1:2|1:2,0:0:0:0:
300,260,155276,2,0,P|316:256|329:254,1,25.7999992126465,0|0,1:2|1:2,0:0:0:0:
505,221,155428,6,0,P|490:162|458:133,1,94.600002886963,12|0,1:0|0:0,0:0:0:0:
359,20,155731,1,8,0:0:0:0:
414,217,155883,1,0,1:0:0:0:
216,167,156034,5,8,0:0:0:0:
154,65,156186,1,0,1:0:0:0:
46,214,156337,1,8,0:0:0:0:
138,232,156489,1,0,1:2:0:0:
0,358,156640,6,0,P|91:338|170:327,1,167.699992323304,14|0,1:2|0:0,0:0:0:0:
257,358,156943,2,0,P|292:371|343:385,1,68.8,8|0,0:0|0:0,0:0:0:0:
322,379,157095,1,2,1:2:0:0:
391,310,157246,2,0,P|419:271|404:201,1,94.600002886963,8|0,0:0|1:0,0:0:0:0:
247,97,157549,2,0,B|275:81|290:47|290:47|280:84|294:133,1,141.900004330444,10|0,0:0|0:0,0:0:0:0:
187,169,157852,6,0,B|234:121|294:145|294:145|323:182|366:172,1,180.599994488526,14|0,1:2|0:0,0:0:0:0:
425,138,158155,1,8,0:0:0:0:
206,22,158307,1,0,1:0:0:0:
90,241,158458,5,8,0:0:0:0:
113,235,158610,1,0,1:0:0:0:
290,121,158761,5,8,0:0:0:0:
267,115,158913,1,0,1:0:0:0:
25,48,159064,6,0,P|67:102|193:105,1,167.699992323304,14|0,1:2|0:0,0:0:0:0:
290,121,159367,2,0,P|252:145|239:173,1,68.8,8|0,0:0|0:0,0:0:0:0:
128,18,159519,1,2,1:2:0:0:
241,165,159670,6,0,P|253:116|233:62,1,94.600002886963,10|0,0:0|1:0,0:0:0:0:
439,34,159973,2,0,B|480:30|511:0|511:0|484:30|479:57,1,141.900004330444,10|0,0:0|0:0,0:0:0:0:
402,117,160276,6,0,B|381:159|408:200|408:200|439:243|419:290,1,180.599994488526,14|0,0:0|0:0,0:0:0:0:
342,258,160580,1,8,0:0:0:0:
478,151,160731,1,0,1:0:0:0:
354,345,160883,5,8,0:0:0:0:
276,311,161034,1,0,1:0:0:0:
115,338,161186,1,8,0:0:0:0:
191,371,161337,1,0,1:0:0:0:
89,170,161489,6,0,B|104:55|104:55|111:90|131:109,1,167.699992323304,14|0,0:0|0:0,0:0:0:0:
181,12,161792,2,0,P|188:52|208:78,1,68.8,8|0,0:0|0:0,0:0:0:0:
416,236,161943,1,2,1:2:0:0:
322,270,162095,2,0,P|331:219|342:169,1,94.600002886963,8|0,0:0|1:0,0:0:0:0:
85,273,162398,2,0,P|79:321|103:361,1,94.600002886963,10|0,0:0|1:0,0:0:0:0:
176,384,162625,1,0,1:0:0:0:
181,368,162701,5,14,1:2:0:0:
105,55,162852,1,0,0:0:0:0:
33,116,163004,5,10,0:0:0:0:
243,275,163155,1,0,1:0:0:0:
125,142,163307,5,14,1:2:0:0:
19,332,163458,1,0,0:0:0:0:
101,359,163610,5,10,0:0:0:0:
58,199,163762,1,0,1:0:0:0:
33,116,163913,5,14,0:0:0:0:
33,116,164064,1,0,1:0:0:0:
338,236,164216,5,8,0:0:0:0:
338,236,164367,1,0,1:0:0:0:
266,384,164519,5,10,0:0:0:0:
224,321,164620,5,8,0:0:0:0:
248,251,164721,5,8,0:0:0:0:
274,171,164822,5,10,3:0:0:0:
282,143,164923,5,4,3:0:0:0:
266,119,165024,5,4,3:0:0:0:
222,53,165125,6,0,B|198:70|192:90|192:90|128:31|253:-104|349:1|314:79|292:107|283:104|274:101|255:147|273:170,1,395.6,4|0,1:2|0:0,0:0:0:0:
281,147,166943,6,0,B|290:53|411:38|470:153|370:210|364:212|357:211|308:229|312:305,1,361.199988977051,4|0,1:0|0:0,0:0:0:0:
373,342,167549,6,0,L|412:331,1,25.7999992126465,8|0,0:0|1:0,0:0:0:0:
385,346,167701,2,0,L|424:335,1,25.7999992126465,0|0,1:0|1:0,0:0:0:0:
91,330,167852,6,0,B|69:349|21:345|-16:279|32:201|135:208|167:281|160:288|155:294|200:387|263:382|263:382|213:344|216:289,1,490.199985040284,4|0,1:2|0:0,0:0:0:0:
183,219,169367,6,0,P|113:169|161:238,1,240.8,4|0,1:2|0:0,0:0:0:0:
80,152,169973,6,0,P|59:139|30:131,2,45.8666666666667,2|2|2,0:0|0:0|0:0,0:0:0:0:
173,82,170276,6,0,P|191:94|231:103,2,45.8666666666667,2|2|2,0:0|0:0|0:0,0:0:0:0:
79,45,170580,6,0,B|55:15|10:11|10:11|85:-23|149:47|149:47|210:112|293:87,1,386.999988189698,4|0,1:0|0:0,0:0:0:0:
373,113,171792,2,0,B|422:102|444:52|444:52|399:154|406:250,1,301,4|0,1:0|0:0,0:0:0:0:
424,275,172398,6,0,P|424:180|475:34,1,247.25,4|0,1:2|0:0,0:0:0:0:
407,84,174216,6,0,P|354:115|321:117,1,68.8,4|0,1:0|0:0,0:0:0:0:
281,178,174519,2,0,P|227:147|209:120,1,68.8,2|0,2:0|0:0,0:0:0:0:
120,32,174822,6,0,P|118:45|116:60,1,25.7999992126465,2|0,1:2|1:0,0:0:0:0:
112,18,174973,2,0,P|110:31|108:46,1,25.7999992126465,10|10,0:2|0:2,0:0:0:0:
31,212,175125,6,0,P|44:268|56:324,1,103.199996850586,4|8,1:0|0:0,0:0:0:0:
186,384,175580,2,0,P|191:358|197:333,1,51.599998425293,2|0,0:0|0:0,0:0:0:0:
43,201,175883,2,0,P|48:226|54:251,1,51.599998425293,2|0,0:0|0:0,0:0:0:0:
201,379,176186,2,0,P|211:328|223:278,1,103.199996850586,8|0,0:0|1:0,0:0:0:0:
223,278,176564,1,0,1:0:0:0:
223,278,176640,1,10,0:0:0:0:
378,384,176792,6,0,P|420:336|492:337,1,137.6,0|2,1:0|0:0,0:0:0:0:
393,254,177246,1,8,0:0:0:0:
378,241,177321,1,8,0:0:0:0:
367,225,177397,1,8,0:0:0:0:
361,207,177473,1,8,0:0:0:0:
361,188,177549,6,0,B|364:144|401:112|401:112|371:137|335:143,1,154.799995275879,4|0,1:0|0:0,0:0:0:0:
451,192,177852,5,8,0:0:0:0:
451,192,178004,2,0,P|477:194|507:200,1,51.599998425293,2|0,0:0|0:0,0:0:0:0:
334,59,178307,5,0,1:0:0:0:
256,146,178458,1,8,0:0:0:0:
256,146,178534,1,8,0:0:0:0:
256,146,178610,2,0,P|201:153|138:163,1,103.199996850586,4|0,1:0|0:0,0:0:0:0:
67,132,179064,6,0,P|57:122|47:116,1,25.7999992126465,8|0,0:0|1:0,0:0:0:0:
67,132,179216,2,0,P|209:150|351:172,1,279.499987205506,4|0,1:2|0:0,0:0:0:0:
473,116,179670,5,10,0:0:0:0:
397,113,179771,5,8,0:0:0:0:
343,171,179872,5,8,0:0:0:0:
478,212,179973,5,12,3:0:0:0:
456,190,180074,5,12,3:0:0:0:
427,190,180175,5,8,3:0:0:0:
343,248,180276,5,4,1:0:0:0:
178,143,180427,2,0,P|190:207|198:253,1,94.600002886963,2|0,0:0|2:2,0:0:0:0:
70,364,180730,2,0,L|84:279,1,77.3999976379395,2|0,1:2|0:0,0:0:0:0:
263,331,181033,1,8,0:0:0:0:
187,346,181185,2,0,P|221:338|265:330,1,77.3999976379395,2|0,2:0|1:2,1:0:0:0:
381,366,181489,6,0,B|434:371|498:382|498:382|458:369|442:337,1,189.200005773926,8|2,0:2|0:0,0:0:0:0:
512,300,182095,5,0,1:0:0:0:
332,189,182246,1,8,0:0:0:0:
418,162,182398,2,0,P|412:199|406:243,1,77.3999976379395,2|0,0:0|1:0,0:0:0:0:
201,383,182701,2,0,P|189:301|176:220,1,154.799995275879,8|0,0:0|1:0,0:0:0:0:
177,229,183155,1,8,0:0:0:0:
352,102,183307,5,2,1:2:0:0:
266,129,183458,1,10,0:0:0:0:
332,189,183610,1,2,1:2:0:0:
425,168,183761,5,8,0:0:0:0:
425,168,183837,1,8,0:0:0:0:
425,168,183913,1,8,0:0:0:0:
266,129,184064,1,8,3:0:0:0:
114,96,184216,1,0,1:0:0:0:
76,220,184519,5,14,0:0:0:0:
171,190,184670,1,0,1:0:0:0:
256,336,184822,1,0,1:0:0:0:
436,220,184973,5,8,0:0:0:0:
341,190,185125,1,0,1:0:0:0:
256,336,185276,1,0,1:0:0:0:
256,96,185428,5,8,0:0:0:0:
256,80,185579,1,0,1:0:0:0:
98,123,185731,5,12,0:0:0:0:
98,123,185882,1,0,1:0:0:0:
256,352,186034,1,0,1:0:0:0:
414,123,186185,5,12,0:2:0:0:
414,123,186337,1,0,1:0:0:0:
256,352,186488,1,0,1:0:0:0:
256,64,186640,5,8,0:0:0:0:
3,153,186943,5,12,0:0:0:0:
98,123,187094,1,0,1:0:0:0:
256,368,187245,1,0,1:0:0:0:
509,153,187397,5,8,0:0:0:0:
414,123,187548,1,0,1:0:0:0:
256,368,187699,1,0,1:0:0:0:
256,64,187851,5,8,0:0:0:0:
256,48,188003,1,0,1:0:0:0:
3,153,188154,5,12,0:0:0:0:
256,264,188306,1,0,1:0:0:0:
509,153,188457,1,0,1:0:0:0:
256,248,188609,5,0,1:0:0:0:
98,123,188760,5,8,0:0:0:0:
256,232,188912,1,0,1:0:0:0:
414,123,189063,1,0,1:0:0:0:
256,216,189215,5,0,1:0:0:0:
256,64,189366,5,2,0:0:0:0:
74,223,197852,6,0,P|55:219|37:217,2,34.4,10|10|0,1:2|0:0|0:0,0:0:0:0:
161,281,198307,6,0,P|254:265|347:251,1,180.599994488526,4|0,1:0|0:0,0:0:0:0:
430,301,198610,6,0,P|447:303|463:306,1,30.0999990814209,8|0,1:2|0:0,0:0:0:0:
512,41,198913,6,0,P|440:113|313:93,1,223.599989764405,12|0,1:0|0:0,0:0:0:0:
401,17,199367,1,8,0:0:0:0:
501,214,199519,1,2,0:0:0:0:
304,314,199670,2,0,P|250:290|231:254,1,94.600002886963,2|2,1:2|1:2,0:0:0:0:
313,228,199973,1,8,0:0:0:0:
46,211,200125,6,0,B|95:251|155:224|155:224|180:180|221:178,1,180.599994488526,2|0,0:0|0:0,0:0:0:0:
233,261,200428,2,0,B|235:291|225:313|225:313|221:293|208:279,1,86,2|0,1:2|1:0,0:0:0:0:
433,136,200731,5,2,1:2:0:0:
433,136,200807,1,2,1:2:0:0:
433,136,200883,2,0,P|409:151|387:168,1,55.8999974411012,2|0,1:2|0:0,0:0:0:0:
453,287,201034,2,0,P|451:259|447:231,1,55.8999974411012,2|0,1:2|0:0,0:0:0:0:
313,228,201186,2,0,P|338:240|363:251,1,55.8999974411012,10|0,0:0|0:0,0:0:0:0:
234,23,201337,6,0,P|124:42|1:73,1,223.599989764405,4|0,1:0|1:0,0:0:0:0:
197,117,201792,2,0,B|225:127|248:140|248:140|229:123|219:98,1,94.600002886963,8|2,0:0|0:0,0:0:0:0:
306,73,202095,1,0,1:0:0:0:
211,233,202246,1,0,1:0:0:0:
371,328,202398,1,8,0:0:0:0:
446,272,202549,6,0,B|468:250|468:250|485:198|453:165,1,120.399996325684,2|0,1:2|0:0,0:0:0:0:
306,73,202852,2,0,P|331:88|361:94,1,47.3000014434815,2|0,1:2|2:0,0:0:0:0:
512,41,203003,1,0,1:0:0:0:
384,204,203155,2,0,P|328:211|274:223,1,103.199996850586,2|0,1:2|0:0,0:0:0:0:
48,271,203458,5,0,1:0:0:0:
72,231,203533,1,0,1:2:0:0:
111,205,203609,1,8,0:0:0:0:
158,198,203685,1,8,0:0:0:0:
202,213,203761,6,0,B|243:254|243:254|325:233|411:226,1,223.599989764405,12|0,1:0|1:0,0:0:0:0:
473,160,204216,1,8,0:0:0:0:
392,313,204367,2,0,P|385:261|411:223,1,94.600002886963,2|0,0:0|0:0,0:0:0:0:
383,135,204670,1,0,1:0:0:0:
496,251,204822,1,8,0:0:0:0:
362,384,204973,5,2,0:0:0:0:
278,343,205125,2,0,P|204:329|129:323,1,141.900004330444,2|0,1:2|0:0,0:0:0:0:
171,245,205428,2,0,P|206:248|241:254,1,47.3000014434815,8|0,0:0|0:0,0:0:0:0:
73,384,205580,2,0,P|50:331|58:283,1,94.600002886963,2|0,0:0|2:0,0:0:0:0:
267,177,205883,1,2,1:2:0:0:
199,106,206034,2,0,P|183:171|169:256,1,141.900004330444,8|0,2:0|0:0,0:0:0:0:
93,215,206337,6,0,P|102:156|116:99,1,103.199996850586,12|0,1:0|0:0,0:0:0:0:
170,244,206640,1,8,0:0:0:0:
46,63,206791,1,0,1:0:0:0:
267,177,206943,2,0,B|339:184|330:127|409:141,1,141.900004330444,0|0,1:0|0:0,0:0:0:0:
418,154,207246,5,8,0:0:0:0:
512,94,207398,1,0,1:0:0:0:
298,27,207549,5,2,1:2:0:0:
408,242,207701,5,0,1:2:0:0:
405,265,207776,1,0,1:2:0:0:
402,288,207852,1,8,0:0:0:0:
104,142,208004,5,8,0:0:0:0:
107,119,208079,1,8,0:0:0:0:
110,96,208155,1,10,0:0:0:0:
214,357,208307,6,0,P|234:364|253:373,1,38.6999988189698,14|0,0:2|0:0,0:0:0:0:
230,264,208610,6,0,P|182:337|49:357,1,223.599989764405,12|0,1:0|1:0,0:0:0:0:
214,357,209064,1,8,0:0:0:0:
311,312,209216,1,2,0:0:0:0:
408,267,209367,5,2,1:2:0:0:
318,73,209519,1,0,1:0:0:0:
124,163,209670,1,8,0:0:0:0:
192,215,209822,6,0,B|205:220|217:228|217:228|291:228|278:161|370:170,1,180.599994488526,2|0,1:2|0:0,0:0:0:0:
273,189,210125,2,0,P|318:160|358:156,1,86,2|0,1:2|0:0,0:0:0:0:
480,336,210428,5,2,1:2:0:0:
480,336,210504,1,2,0:0:0:0:
480,336,210580,2,0,P|489:298|495:275,1,60.1999981628419,2|0,0:0|0:0,0:0:0:0:
256,323,210731,2,0,L|256:384,1,60.1999981628419,2|0,1:2|0:0,0:0:0:0:
32,336,210883,2,0,P|23:298|17:275,1,60.1999981628419,10|0,0:2|0:0,0:0:0:0:
256,168,211034,6,0,B|264:112|264:112|248:64|248:64|256:0,1,167.699992323304,4|0,1:0|0:0,0:0:0:0:
255,3,211337,1,0,1:0:0:0:
174,125,211489,1,8,0:0:0:0:
340,53,211640,1,2,0:0:0:0:
169,220,211792,2,0,P|119:211|69:204,1,94.600002886963,0|0,1:0|1:0,0:0:0:0:
75,204,212019,1,0,1:2:0:0:
75,204,212095,1,8,0:0:0:0:
334,366,212246,6,0,P|426:349|518:336,1,180.599994488526,2|0,1:2|0:0,0:0:0:0:
453,262,212549,2,0,P|408:268|363:276,1,86,2|0,1:2|0:0,0:0:0:0:
140,384,212852,1,2,1:2:0:0:
56,347,213004,6,0,P|51:316|46:286,1,55.8999974411012,0|0,1:2|1:2,0:0:0:0:
179,112,213155,2,0,P|183:142|188:172,1,55.8999974411012,0|0,1:2|1:2,0:0:0:0:
0,168,213307,2,0,P|30:163|60:158,1,55.8999974411012,8|8,2:2|2:2,0:0:0:0:
276,23,213458,6,0,P|383:40|501:55,1,223.599989764405,4|0,1:0|0:0,0:0:0:0:
187,167,213913,1,8,0:0:0:0:
256,227,214064,2,0,P|279:184|274:139,1,94.600002886963,2|0,0:0|0:0,0:0:0:0:
169,256,214367,1,0,1:0:0:0:
82,285,214519,1,8,0:0:0:0:
274,139,214670,1,2,0:0:0:0:
426,183,214822,6,0,B|392:194|357:156|357:156|318:121|274:139,1,167.699992323304,2|0,1:2|0:0,0:0:0:0:
417,105,215125,1,8,0:0:0:0:
428,11,215276,2,0,B|425:30|425:30|423:34|423:34|424:38|424:38|414:118,1,94.600002886963,2|0,0:0|1:0,0:0:0:0:
125,325,215580,5,0,1:0:0:0:
217,384,215731,2,0,B|213:352|213:352|209:345|209:345|211:338|211:338|194:195,1,180.599994488526,8|0,0:0|0:0,0:0:0:0:
246,134,216034,5,4,1:0:0:0:
283,0,216186,1,0,1:2:0:0:
159,125,216337,1,8,0:0:0:0:
282,214,216489,1,0,1:2:0:0:
349,262,216640,5,0,1:0:0:0:
137,327,216792,1,0,1:0:0:0:
72,116,216943,1,8,0:0:0:0:
340,344,217246,5,4,1:0:0:0:
406,131,217397,1,0,1:2:0:0:
355,63,217549,5,8,0:0:0:0:
415,310,217701,1,0,1:2:0:0:
168,370,217852,5,8,0:0:0:0:
152,367,217927,1,8,0:0:0:0:
136,365,218003,1,8,0:0:0:0:
121,362,218079,1,8,0:0:0:0:
74,381,218155,5,0,1:2:0:0:
120,375,218230,1,0,1:2:0:0:
168,370,218306,1,0,1:2:0:0:
215,364,218382,1,0,1:2:0:0:
262,359,218458,6,0,P|287:310|254:250,1,120.399996325684,4|0,1:0|1:0,0:0:0:0:
173,200,219064,1,0,1:0:0:0:
152,204,219367,1,0,1:0:0:0:
131,208,219670,5,0,1:0:0:0:
32,81,219822,1,8,0:0:0:0:
53,85,219897,1,8,0:0:0:0:
74,89,219973,1,8,0:0:0:0:
0,198,220125,1,4,1:3:0:0:
205,99,220276,5,8,0:0:0:0:
0,198,220479,5,4,1:3:0:0:
74,89,220681,5,8,0:0:0:0:
263,218,220883,6,0,B|294:225|321:223|321:223|345:240|345:240|372:240|396:244,1,137.6,4|0,1:0|1:0,0:0:0:0:
473,168,221489,1,0,1:0:0:0:
478,148,221792,1,0,1:0:0:0:
474,127,222095,5,0,1:0:0:0:
287,16,222246,1,8,0:0:0:0:
283,37,222322,1,8,0:0:0:0:
288,57,222398,1,8,0:0:0:0:
381,92,222549,1,4,1:3:0:0:
191,202,222701,5,8,0:0:0:0:
346,298,222903,5,4,1:3:0:0:
381,291,223004,5,0,1:2:0:0:
416,284,223105,5,8,2:2:0:0:
451,276,223206,5,0,1:2:0:0:
394,384,223307,6,0,P|319:372|250:363,1,137.6,4|0,1:0|1:0,0:0:0:0:
177,340,223913,6,0,B|181:314|206:294|206:294|250:235|215:169|128:184|132:235|152:259,1,240.799992651367,4|0,1:0|1:2,0:0:0:0:
257,363,224367,1,0,1:2:0:0:
340,251,224519,6,0,B|357:263|357:263|361:264|361:264|362:268|362:268|399:295,1,74.5333299214683,4|0,1:0|0:0,0:0:0:0:
265,89,224721,6,0,B|267:68|267:68|266:64|266:64|268:61|268:61|274:15,1,74.5333299214683,4|0,3:0|0:0,0:0:0:0:
162,235,224923,6,0,B|143:243|143:243|140:246|140:246|136:246|136:246|94:264,1,74.5333299214683,8|0,3:0|0:0,0:0:0:0:
112,88,225125,6,0,B|149:115|149:115|150:119|150:119|154:120|154:120|172:133,1,74.5333299214683,2|0,1:2|0:0,0:0:0:0:
237,368,225327,6,0,B|243:322|243:322|245:319|245:319|244:315|244:315|246:294,1,74.5333299214683,8|0,3:0|0:0,0:0:0:0:
417,119,225529,6,0,B|375:137|375:137|371:137|371:137|368:140|368:140|349:148,1,74.5333299214683,2|0,3:0|0:0,0:0:0:0:
154,239,225731,6,0,B|133:248|133:248|130:251|130:251|125:251|125:251|79:270,1,80.2666642171225,12|0,1:2|0:0,0:0:0:0:
347,256,225933,6,0,B|366:269|366:269|370:271|370:271|372:275|372:275|412:305,1,80.2666642171225,8|0,0:0|0:0,0:0:0:0:
265,80,226135,6,0,B|268:57|268:57|267:53|267:53|269:49|269:49|275:0,1,80.2666642171225,8|0,3:0|0:0,0:0:0:0:
99,78,226337,6,0,B|139:108|139:108|141:112|141:112|145:114|145:114|164:127,1,80.2666642171225,12|0,1:2|0:0,0:0:0:0:
236,383,226539,6,0,B|242:334|242:334|244:330|244:330|243:326|243:326|246:303,1,80.2666642171225,8|0,0:0|0:0,0:0:0:0:
432,113,226741,6,0,B|386:132|386:132|381:132|381:132|378:135|378:135|357:144,1,80.2666642171225,8|0,3:0|0:0,0:0:0:0:
263,201,226943,6,0,P|252:202|268:194,1,60.2,12|0,1:0|0:0,0:0:0:0:
236,383,227549,6,0,P|255:199|280:1,1,374.100011416626,4|0,1:0|0:0,0:0:0:0:
147,70,228155,6,0,P|87:132|106:220,1,167.699992323304,4|0,1:0|0:0,0:0:0:0:
88,298,228458,2,0,P|146:284|172:250,1,94.600002886963,0|0,1:0|0:0,0:0:0:0:
97,208,228761,1,2,1:2:0:0:
11,351,228912,1,2,0:2:0:0:
251,295,229064,2,0,P|255:235|231:200,1,94.600002886963,0|0,1:0|0:0,0:0:0:0:
204,376,229367,5,0,1:0:0:0:
204,376,229519,1,0,2:0:0:0:
298,139,229670,2,0,P|242:116|201:128,1,94.600002886963,0|2,1:0|0:0,0:0:0:0:
338,320,229973,6,0,P|417:298|510:281,1,167.699992323304,2|0,1:2|0:0,0:0:0:0:
485,365,230276,2,0,P|431:374|378:389,1,94.600002886963,0|0,1:0|0:0,0:0:0:0:
298,139,230580,6,0,P|241:128|186:113,1,111.799994882202,4|0,1:0|0:0,0:0:0:0:
115,160,230883,1,8,0:0:0:0:
273,49,231034,1,2,0:0:0:0:
359,228,231186,2,0,P|346:274|337:322,1,94.600002886963,8|0,0:0|0:0,0:0:0:0:
176,384,231489,2,0,P|166:309|155:255,1,116.099996456909,10|0,0:0|0:0,0:0:0:0:
256,256,231792,5,8,0:0:0:0:
115,160,231943,1,0,1:0:0:0:
268,85,232094,1,8,0:0:0:0:
212,168,232246,5,2,1:2:0:0:
162,62,232398,5,2,1:2:0:0:
332,176,232549,1,2,1:2:0:0:
148,268,232701,1,8,0:0:0:0:
212,168,232852,5,0,1:2:0:0:
391,267,233004,6,0,B|450:294|505:248|505:248|487:273|485:292,1,167.699992323304,4|0,1:0|0:0,0:0:0:0:
435,174,233307,2,0,P|429:116|459:66,1,94.600002886963,8|2,0:0|0:0,0:0:0:0:
283,273,233610,1,8,0:0:0:0:
391,267,233761,1,0,1:0:0:0:
332,176,233913,1,8,0:0:0:0:
234,370,234064,1,0,1:0:0:0:
40,272,234197,5,8,1:2:0:0:
10,195,234298,5,8,3:0:0:0:
66,135,234399,5,8,3:0:0:0:
81,123,234500,5,4,3:0:0:0:
96,85,234601,5,2,3:0:0:0:
68,55,234702,5,2,3:0:0:0:
2,15,234803,6,0,B|85:-20|155:63|144:71|137:78|200:152|302:121,1,331.10001010437,4|0,1:0|0:0,0:0:0:0:
306,113,235409,5,4,1:1:0:0:
384,89,235712,5,2,2:0:0:0:
408,167,235863,1,0,0:0:0:0:
330,191,236015,1,2,0:0:0:0:
292,263,236166,5,2,0:0:0:0:
202,265,236318,1,0,0:0:0:0:
198,175,236469,1,2,0:0:0:0:
124,127,236621,5,2,0:0:0:0:
147,30,236772,1,0,0:0:0:0:
243,51,236924,1,2,0:0:0:0:
335,16,237075,5,2,0:0:0:0:
430,67,237227,1,0,0:0:0:0:
381,163,237378,1,2,0:0:0:0:
425,265,237530,5,10,1:2:0:0:
142,332,237681,1,14,1:2:0:0:
