osu file format v14

[General]
AudioFilename: audio.mp3
AudioLeadIn: 0
PreviewTime: 50731
Countdown: 0
SampleSet: Soft
StackLeniency: 0.7
Mode: 0
LetterboxInBreaks: 0
WidescreenStoryboard: 1

[Editor]
Bookmarks: 9973,29367,39064,51186,70580,77852,87549,97246,106943,119064,138458,145731,165125,175428,184518,189366,197851,198911,218457,237700
DistanceSpacing: 1.1
BeatDivisor: 4
GridSize: 16
TimelineZoom: 1.6

[Metadata]
Title:OveR
TitleUnicode:OveR
Artist:Tomita Miyu
ArtistUnicode:富田美憂
Creator:pnky
Version:NormaL
Source:デート・ア・ライブⅣ
Tags:4 時崎狂三 tokisaki kurumi 坂部剛 dal date a live 4th season j rock j pop female vocal vocalist anime op opening kadokawa japanese jpop j-pop pop season full size version rock j-rock jrock l1ght_u light_u -hitomi
BeatmapID:3829898
BeatmapSetID:1862561

[Difficulty]
HPDrainRate:4
CircleSize:3
OverallDifficulty:4
ApproachRate:5.5
SliderMultiplier:1.04
SliderTickRate:1

[Events]
//Background and Video events
0,0,"68455016_p0.jpg",0,0
//Break Periods
2,19719,28155
2,87598,96034
2,189567,196640
//Storyboard Layer 0 (Background)
//Storyboard Layer 1 (Fail)
//Storyboard Layer 2 (Pass)
//Storyboard Layer 3 (Foreground)
//Storyboard Layer 4 (Overlay)
//Storyboard Sound Samples

[TimingPoints]
277,303.030303030303,4,2,69,40,1,0
277,-111.111111111111,4,2,69,40,0,0
2095,-111.111111111111,4,2,68,40,0,0
2701,-111.111111111111,4,2,69,40,0,0
3155,-111.111111111111,4,2,68,40,0,0
3610,-111.111111111111,4,2,69,40,0,0
6943,-111.111111111111,4,2,68,40,0,0
7549,-111.111111111111,4,2,69,40,0,0
9367,-111.111111111111,4,2,1,40,0,0
9973,-100,4,2,3,60,0,0
10277,-100,4,2,1,70,0,0
29367,-105.263157894737,4,2,1,50,0,0
33610,-105.263157894737,4,2,69,50,0,0
34216,-105.263157894737,4,2,68,50,0,0
34822,-105.263157894737,4,2,1,50,0,0
38458,-105.263157894737,4,2,68,50,0,0
38761,-105.263157894737,4,2,1,50,0,0
39064,-100,4,2,1,60,0,0
46337,-100,4,2,1,65,0,0
50731,-100,4,2,1,45,0,0
51186,-95.2380952380952,4,2,1,75,0,1
60731,-95.2380952380952,4,2,1,80,0,1
70580,-105.263157894737,4,2,1,65,0,0
77852,-100,4,2,1,70,0,0
85125,-100,4,2,1,75,0,0
87549,-111.111111111111,4,2,2,50,0,0
97246,-105.263157894737,4,2,69,40,0,0
97398,-105.263157894737,4,2,1,40,0,0
98458,-105.263157894737,4,2,69,40,0,0
98610,-105.263157894737,4,2,1,40,0,0
101489,-105.263157894737,4,2,69,40,0,0
101792,-105.263157894737,4,2,68,40,0,0
102095,-105.263157894737,4,2,69,40,0,0
102398,-105.263157894737,4,2,1,40,0,0
103307,-105.263157894737,4,2,69,40,0,0
103458,-105.263157894737,4,2,1,40,0,0
106337,-105.263157894737,4,2,69,40,0,0
106640,-105.263157894737,4,2,68,50,0,0
106943,-100,4,2,1,55,0,0
118610,-100,4,2,1,45,0,0
119064,-95.2380952380954,4,2,1,75,0,1
128610,-95.2380952380954,4,2,1,80,0,1
138458,-105.263157894737,4,2,1,65,0,0
145731,-100,4,2,1,70,0,0
152095,-100,4,2,1,70,0,0
155428,-100,4,2,1,75,0,0
165125,-100,4,2,2,50,0,0
166943,-100,4,2,1,50,0,0
174216,-100,4,2,1,50,0,0
175125,303.030303030303,4,2,1,50,1,0
175125,-100,4,2,1,50,0,0
177549,-100,4,2,1,60,0,0
180276,303.030303030303,4,2,1,60,1,0
184519,303.030303030303,4,2,1,70,1,0
189367,-100,4,2,69,50,0,0
191034,-100,4,2,1,50,0,0
197852,-100,4,2,1,60,0,0
198912,-95.2380952380952,4,2,1,75,0,1
208609,-95.2380952380952,4,2,3,80,0,1
209064,-95.2380952380952,4,2,1,80,0,1
218458,-105.263157894737,4,2,1,50,0,0
223307,-105.263157894737,4,2,1,65,0,0
225731,-105.263157894737,4,2,1,70,0,0
228155,-100,4,2,1,60,0,0
230580,-100,4,2,1,65,0,0
233004,-100,4,2,1,70,0,0
234197,303.030303030303,4,2,1,60,1,0
235409,-100,4,2,1,60,0,0
235712,-100,4,2,1,50,0,0
236166,-100,4,2,1,55,0,0
236621,-100,4,2,1,60,0,0
237075,-100,4,2,1,65,0,0
237530,-100,4,2,1,70,0,0
237681,-100,4,2,2,65,0,0

[Colours]
Combo1 : 150,185,220
Combo2 : 240,140,140
Combo3 : 200,180,220
Combo4 : 240,200,155

[HitObjects]
256,192,7549,12,0,9367,1:0:0:0:
115,112,9973,6,0,P|165:101|223:93,1,104,12|8,1:0|0:0,0:0:0:0:
319,144,10580,2,0,P|350:153|390:159,1,52,0|0,1:0|1:0,0:0:0:0:
422,190,10883,1,8,0:0:0:0:
422,190,11034,2,0,P|430:252|403:282,1,104,0|0,1:0|1:0,0:0:0:0:
359,315,11489,1,8,0:0:0:0:
254,360,11792,2,0,P|223:353|193:348,1,52,2|0,1:2|1:0,0:0:0:0:
145,347,12095,1,8,0:0:0:0:
65,264,12398,6,0,P|51:209|91:157,1,104,2|8,1:2|0:0,0:0:0:0:
119,136,12852,1,2,0:0:0:0:
119,136,13004,1,0,1:0:0:0:
202,57,13307,1,10,0:2:0:0:
202,57,13458,2,0,L|323:71,1,104,2|2,1:2|1:2,0:0:0:0:
362,75,13913,1,10,0:0:0:0:
455,140,14216,2,0,L|514:125,2,52,2|0|8,1:2|1:0|0:0,0:0:0:0:
359,203,14822,6,0,B|301:194|307:221|251:211,1,104,4|8,1:0|0:0,0:0:0:0:
166,141,15428,2,0,P|148:165|141:193,1,52,0|0,1:0|1:0,0:0:0:0:
93,213,15731,1,8,0:0:0:0:
93,213,15883,2,0,P|114:254|125:315,1,104,0|0,1:2|1:0,0:0:0:0:
95,359,16337,1,8,0:2:0:0:
209,364,16640,2,0,P|264:349|331:339,1,104,10|0,1:2|1:2,0:0:0:0:
414,293,17246,6,0,P|442:242|424:186,1,104,4|8,1:0|0:0,0:0:0:0:
391,160,17701,1,4,1:2:0:0:
237,84,18155,2,0,P|181:95|128:104,1,104,4|8,1:0|0:0,0:0:0:0:
80,83,18610,1,4,1:2:0:0:
205,201,19064,2,0,P|236:204|273:214,2,52,8|8|4,3:2|3:0|3:0,0:0:0:0:
160,237,19519,1,2,1:0:0:0:
160,237,29367,6,0,P|136:166|146:145,1,98.7999973617554,0|0,1:0|1:0,0:0:0:0:
221,71,29973,1,2,1:2:0:0:
321,124,30276,1,2,1:2:0:0:
321,124,30428,2,0,P|376:113|429:103,1,98.7999973617554,2|2,0:0|0:0,0:0:0:0:
503,244,31186,1,2,1:2:0:0:
403,297,31489,1,2,1:2:0:0:
403,297,31641,2,0,P|348:286|295:276,1,98.7999973617554,2|2,0:0|0:0,0:0:0:0:
205,237,32246,6,0,P|158:291|70:303,1,148.199996042633,2|2,0:0|1:2,0:0:0:0:
43,271,32852,1,2,0:0:0:0:
83,172,33155,1,2,0:0:0:0:
83,172,33307,1,2,1:2:0:0:
31,76,33610,2,0,L|15:24,2,49.3999986808777,2|2|2,1:2|0:0|1:2,0:0:0:0:
139,74,34216,6,0,B|189:64|198:98|246:86,1,98.7999973617554,2|2,1:2|1:2,0:0:0:0:
330,36,34822,1,2,1:2:0:0:
417,110,35125,1,2,1:2:0:0:
417,110,35276,2,0,P|404:152|396:224,1,98.7999973617554,2|2,0:0|0:0,0:0:0:0:
256,290,36034,2,0,P|249:264|238:234,2,49.3999986808777,2|2|2,1:2|0:0|1:2,0:0:0:0:
298,324,36489,6,0,B|348:315|352:341|407:331,1,98.7999973617554,2|2,0:0|0:0,0:0:0:0:
495,290,37095,1,2,0:0:0:0:
509,183,37398,1,2,0:0:0:0:
422,117,37701,2,0,P|374:129|314:145,1,98.7999973617554,2|2,0:0|0:0,0:0:0:0:
282,173,38155,1,2,1:2:0:0:
204,97,38458,2,0,P|156:84|108:72,1,98.7999973617554,2|2,1:2|1:2,0:0:0:0:
6,123,39064,6,0,P|21:183|41:281,1,156,4|0,1:0|1:2,0:0:0:0:
53,331,39670,1,8,0:0:0:0:
144,261,39973,1,2,0:0:0:0:
144,261,40125,2,0,P|132:203|118:146,2,104,0|0|0,1:0|1:0|1:2,0:0:0:0:
194,288,40883,1,8,0:0:0:0:
291,347,41186,1,0,3:2:0:0:
350,248,41489,6,0,P|361:163|378:79,1,156,0|0,1:2|1:0,0:0:0:0:
420,58,42095,2,0,P|470:68|500:120,1,104,10|2,0:0|0:0,0:0:0:0:
507,165,42549,1,2,1:2:0:0:
445,261,42852,1,2,1:2:0:0:
490,371,43155,1,2,1:2:0:0:
490,371,43307,2,0,P|440:367|386:362,1,104,10|0,0:0|0:0,0:0:0:0:
299,287,43913,6,0,P|248:348|160:351,1,156,4|0,1:0|1:0,0:0:0:0:
122,333,44519,1,8,0:0:0:0:
55,247,44822,1,2,0:0:0:0:
55,247,44973,2,0,P|45:193|33:143,2,104,0|0|0,1:0|1:0|1:0,0:0:0:0:
101,212,45731,1,8,0:0:0:0:
209,248,46034,1,0,1:2:0:0:
294,172,46337,6,0,B|345:174|348:194|401:195,1,104,4|8,1:0|0:0,0:0:0:0:
441,160,46792,2,0,P|480:119|467:67,1,104,4|8,1:2|2:0,0:0:0:0:
429,39,47246,1,4,1:2:0:0:
315,27,47549,2,0,B|264:25|261:5|208:4,1,104,4|8,1:0|0:0,0:0:0:0:
168,39,48004,2,0,P|129:80|142:132,1,104,4|8,1:2|2:0,0:0:0:0:
180,160,48458,1,4,1:2:0:0:
108,249,48761,6,0,P|124:303|175:318,1,104,4|8,1:0|0:0,0:0:0:0:
214,347,49216,2,0,P|267:331|328:320,1,104,4|0,1:2|1:0,0:0:0:0:
364,350,49670,1,12,0:2:0:0:
445,270,49973,2,0,P|474:278|508:284,2,52,10|0|8,0:0|1:0|1:2,0:0:0:0:
402,231,50428,1,4,1:0:0:0:
187,20,51186,6,0,P|198:85|213:142,1,109.199996667481,12|8,1:0|0:0,0:0:0:0:
185,177,51640,1,0,1:0:0:0:
185,177,51792,1,8,0:0:0:0:
72,201,52095,1,8,0:0:0:0:
72,201,52246,2,0,P|84:148|93:95,2,109.199996667481,4|2|2,1:2|1:2|1:2,0:0:0:0:
328,357,53610,6,0,B|270:352|275:383|214:381,1,109.199996667481,4|8,1:0|0:0,0:0:0:0:
175,354,54064,1,2,1:2:0:0:
175,354,54216,1,8,0:0:0:0:
101,266,54519,1,8,0:0:0:0:
101,266,54670,2,0,P|87:201|73:155,2,109.199996667481,4|2|2,1:0|1:2|1:2,0:0:0:0:
192,43,55883,6,0,B|252:45|243:80|317:83,1,109.199996667481,12|0,1:0|1:0,0:0:0:0:
349,62,56337,2,0,P|384:47|416:44,1,54.5999983337403,8|2,0:0|0:0,0:0:0:0:
456,64,56640,1,2,1:2:0:0:
511,170,56943,2,0,P|505:197|500:223,1,54.5999983337403,0|2,1:2|0:0,0:0:0:0:
468,274,57246,2,0,P|479:326|490:385,1,109.199996667481,2|8,1:2|0:0,0:0:0:0:
429,377,57701,1,2,0:0:0:0:
331,307,58004,2,0,P|279:347|215:351,1,109.199996667481,2|0,0:0|0:0,0:0:0:0:
202,312,58458,5,2,1:2:0:0:
202,312,58610,2,0,P|210:245|220:191,1,109.199996667481,2|2,0:0|0:0,0:0:0:0:
267,171,59064,1,0,1:0:0:0:
202,71,59367,1,8,1:2:0:0:
83,92,59670,2,0,L|98:167,1,54.5999983337403,8|8,0:0|0:0,0:0:0:0:
67,201,59973,1,8,0:0:0:0:
67,201,60125,2,0,L|51:311,1,109.199996667481,12|8,1:0|1:2,0:0:0:0:
162,355,60731,6,0,B|207:349|207:349|237:357|237:357|280:351,1,109.199996667481,12|0,1:0|1:0,0:0:0:0:
314,312,61186,1,8,0:0:0:0:
351,200,61489,1,2,1:2:0:0:
351,200,61640,2,0,P|376:185|409:185,1,54.5999983337403,0|8,1:2|0:0,0:0:0:0:
449,219,61943,1,2,1:2:0:0:
487,105,62246,1,2,1:2:0:0:
412,18,62549,1,2,0:2:0:0:
412,18,62701,2,0,L|350:34,1,54.5999983337403,2|2,1:2|1:2,0:0:0:0:
315,72,63004,1,10,0:0:0:0:
315,72,63155,6,0,L|192:53,1,109.199996667481,4|0,1:0|1:0,0:0:0:0:
149,73,63610,1,8,0:0:0:0:
90,179,63913,1,2,1:2:0:0:
90,179,64064,2,0,P|111:217|141:229,1,54.5999983337403,0|8,1:0|0:0,0:0:0:0:
174,246,64367,1,2,1:2:0:0:
247,340,64670,1,2,1:2:0:0:
297,230,64973,1,2,1:2:0:0:
372,323,65276,2,0,P|403:314|435:310,1,54.5999983337403,0|8,1:0|0:0,0:0:0:0:
469,269,65580,6,0,P|498:229|471:161,1,109.199996667481,12|0,1:0|1:0,0:0:0:0:
443,139,66034,1,8,0:0:0:0:
443,139,66186,2,0,B|390:138|396:175|333:175,1,109.199996667481,2|0,0:0|1:2,0:0:0:0:
289,146,66640,1,8,0:0:0:0:
199,65,66943,2,0,P|154:72|121:136,1,109.199996667481,2|8,1:2|0:0,0:0:0:0:
85,171,67398,2,0,P|99:210|116:282,1,109.199996667481,2|0,0:0|1:0,0:0:0:0:
158,317,67852,1,8,0:0:0:0:
271,279,68155,6,0,P|257:318|240:390,2,109.199996667481,4|8|2,1:0|0:0|1:2,0:0:0:0:
319,242,68913,1,0,1:0:0:0:
319,242,69064,1,8,0:0:0:0:
257,139,69367,2,0,P|248:107|241:77,1,54.5999983337403,4|0,1:0|0:0,0:0:0:0:
274,35,69670,2,0,P|306:26|336:19,1,54.5999983337403,8|0,0:0|1:0,0:0:0:0:
376,55,69973,2,0,B|395:68|417:89|417:89|442:75|480:71,1,109.199996667481,8|0,0:0|1:2,0:0:0:0:
512,121,70428,1,0,1:2:0:0:
512,121,70580,5,4,1:0:0:0:
512,121,71943,6,0,P|506:94|501:72,2,49.3999986808777,8|8|4,0:0|0:0|1:3,0:0:0:0:
479,164,72398,2,0,P|459:263|446:369,1,197.599994723511,8|4,0:0|1:0,0:0:0:0:
447,359,74367,6,0,P|474:353|496:348,2,49.3999986808777,8|8|4,0:0|0:0|1:3,0:0:0:0:
404,326,74822,2,0,P|305:306|199:293,1,197.599994723511,8|4,0:0|1:0,0:0:0:0:
105,325,75731,5,0,1:0:0:0:
25,250,76034,2,0,P|34:189|45:143,1,98.7999973617554,4|0,1:0|1:0,0:0:0:0:
83,116,76489,1,2,1:2:0:0:
83,116,76640,1,4,1:0:0:0:
280,205,77246,1,2,1:2:0:0:
460,64,77852,6,0,B|426:40|426:40|359:50,1,104,4|0,1:2|1:2,0:0:0:0:
259,94,78458,2,0,L|204:82,1,52,2|2,1:2|0:0,0:0:0:0:
153,66,78761,1,0,1:2:0:0:
51,119,79064,2,0,P|29:178|52:223,1,104,0|0,1:0|1:0,0:0:0:0:
102,233,79519,1,2,2:0:0:0:
102,233,79670,2,0,L|206:212,1,104,2|0,1:2|1:0,0:0:0:0:
285,131,80276,6,0,P|335:132|373:166,1,104,4|0,1:2|1:0,0:0:0:0:
429,195,80731,1,2,0:2:0:0:
429,195,80883,1,0,1:0:0:0:
501,283,81186,1,2,1:2:0:0:
418,361,81489,2,0,P|367:352|311:345,1,104,0|2,1:0|1:2,0:0:0:0:
275,313,81943,1,2,0:0:0:0:
275,313,82095,2,0,P|249:319|222:325,1,52,2|2,1:2|0:0,0:0:0:0:
171,347,82398,1,0,1:0:0:0:
67,297,82701,6,0,P|38:239|58:207,1,104,4|0,1:0|1:0,0:0:0:0:
115,112,83307,2,0,L|172:122,1,52,2|2,1:2|0:0,0:0:0:0:
222,132,83610,1,0,1:0:0:0:
309,206,83913,2,0,L|418:177,1,104,0|0,1:0|1:0,0:0:0:0:
467,166,84367,1,2,0:0:0:0:
467,166,84519,2,0,P|485:102|453:69,1,104,2|2,1:2|1:2,0:0:0:0:
420,51,84973,1,2,1:2:0:0:
420,51,85125,6,0,B|373:41|369:65|316:58,1,104,4|8,1:0|0:0,0:0:0:0:
269,25,85580,1,6,1:2:0:0:
168,75,85883,1,0,1:2:0:0:
168,75,86034,2,0,P|181:124|191:176,1,104,4|8,1:0|0:0,0:0:0:0:
154,220,86489,1,6,1:2:0:0:
63,288,86792,1,8,0:0:0:0:
63,288,86943,2,0,P|33:278|9:272,2,52,8|10|8,1:2|3:0|3:0,0:0:0:0:
104,327,87398,1,2,3:0:0:0:
104,327,97246,6,0,P|161:313|223:302,1,98.7999973617554,2|0,1:2|1:0,0:0:0:0:
289,242,97852,1,2,1:2:0:0:
194,200,98155,1,2,1:2:0:0:
194,200,98307,2,0,P|157:165|163:112,1,98.7999973617554,2|2,0:0|0:0,0:0:0:0:
281,13,99064,1,2,1:2:0:0:
389,45,99367,1,2,1:2:0:0:
389,45,99519,2,0,P|426:80|420:133,1,98.7999973617554,2|2,0:0|0:0,0:0:0:0:
479,219,100125,6,0,P|461:274|440:368,1,148.199996042633,2|2,0:0|1:2,0:0:0:0:
388,376,100731,1,2,0:0:0:0:
307,311,101034,1,2,0:0:0:0:
307,311,101186,1,2,1:2:0:0:
198,320,101489,2,0,P|163:357|114:361,1,98.7999973617554,2|2,1:2|1:2,0:0:0:0:
38,286,102095,6,0,P|27:241|14:169,1,98.7999973617554,2|0,1:2|1:0,0:0:0:0:
79,100,102701,1,2,1:2:0:0:
181,150,103004,1,2,1:2:0:0:
181,150,103155,2,0,B|234:147|233:169|281:162,1,98.7999973617554,2|2,0:0|0:0,0:0:0:0:
439,187,103913,2,0,P|452:209|463:236,2,49.3999986808777,2|2|2,1:2|0:2|1:2,0:0:0:0:
469,142,104367,6,0,P|479:95|493:42,1,98.7999973617554,2|2,0:0|0:0,0:0:0:0:
388,11,104973,1,2,0:0:0:0:
318,94,105276,1,2,0:0:0:0:
212,67,105580,2,0,P|156:68|122:107,1,98.7999973617554,2|2,0:0|0:0,0:0:0:0:
73,105,106034,1,2,1:2:0:0:
18,199,106337,2,0,P|67:205|118:218,1,98.7999973617554,2|2,1:2|1:2,0:0:0:0:
219,262,106943,6,0,P|297:244|378:230,1,156,4|0,1:0|1:0,0:0:0:0:
428,224,107549,1,8,0:0:0:0:
373,326,107852,1,2,0:0:0:0:
373,326,108004,2,0,P|318:335|265:347,2,104,0|0|0,1:0|1:0|1:0,0:0:0:0:
428,340,108761,1,8,0:0:0:0:
509,260,109064,1,0,0:0:0:0:
436,171,109367,6,0,P|366:98|371:33,1,156,0|0,1:0|1:0,0:0:0:0:
321,84,109973,2,0,P|274:123|227:124,1,104,10|2,0:0|0:0,0:0:0:0:
186,91,110428,1,2,1:2:0:0:
85,146,110731,1,2,1:2:0:0:
185,211,111034,1,2,1:2:0:0:
185,211,111186,2,0,B|202:238|202:238|187:312,1,104,10|0,0:0|0:0,0:0:0:0:
83,354,111792,6,0,L|61:187,1,156,0|0,1:2|1:0,0:0:0:0:
85,146,112398,1,8,0:0:0:0:
90,35,112701,1,2,0:0:0:0:
90,35,112852,2,0,P|28:35|-4:70,2,104,0|0|0,1:2|1:0|1:0,0:0:0:0:
140,62,113610,1,8,0:0:0:0:
243,111,113913,1,0,1:2:0:0:
342,53,114216,6,0,P|392:41|447:34,1,104,4|8,1:0|0:0,0:0:0:0:
484,73,114670,2,0,P|508:116|472:168,1,104,4|8,1:2|0:0,0:0:0:0:
434,187,115125,1,4,1:0:0:0:
327,229,115428,2,0,P|277:217|222:210,1,104,4|8,1:0|0:0,0:0:0:0:
185,249,115882,2,0,P|161:292|197:344,1,104,4|8,1:2|0:0,0:0:0:0:
235,363,116337,1,4,1:2:0:0:
348,373,116640,6,0,P|398:361|453:354,1,104,4|8,1:0|0:0,0:0:0:0:
490,313,117095,2,0,P|478:263|471:208,1,104,4|8,1:0|0:0,0:0:0:0:
425,177,117549,1,4,1:2:0:0:
341,98,117852,2,0,P|349:64|353:27,2,52,10|0|8,0:0|1:0|1:2,0:0:0:0:
292,128,118307,1,4,1:0:0:0:
41,290,119064,6,0,P|78:255|145:253,1,109.199996667481,4|8,1:0|0:0,0:0:0:0:
182,294,119519,1,0,1:0:0:0:
182,294,119670,1,8,0:0:0:0:
304,276,119973,1,8,0:0:0:0:
304,276,120125,2,0,P|296:336|291:387,2,109.199996667481,4|2|2,1:0|1:2|1:2,0:0:0:0:
448,12,121489,6,0,P|453:67|460:121,1,109.199996667481,4|8,1:0|0:0,0:0:0:0:
512,153,121943,1,0,1:0:0:0:
512,153,122095,1,8,0:0:0:0:
457,254,122398,1,8,0:0:0:0:
457,254,122549,2,0,P|418:217|360:212,2,109.199996667481,4|2|2,1:0|1:2|1:2,0:0:0:0:
248,373,123761,6,0,P|239:320|231:249,1,109.199996667481,4|0,1:0|0:0,0:0:0:0:
259,212,124216,1,0,1:0:0:0:
170,131,124519,2,0,B|117:138|118:104|64:111,1,109.199996667481,2|0,1:2|1:0,0:0:0:0:
27,158,124973,1,2,0:0:0:0:
27,158,125125,2,0,P|-2:187|5:253,1,109.199996667481,2|0,1:2|1:0,0:0:0:0:
42,297,125580,1,2,0:0:0:0:
149,349,125883,2,0,P|136:283|125:221,1,109.199996667481,2|0,0:0|0:0,0:0:0:0:
166,196,126337,5,2,1:2:0:0:
166,196,126489,2,0,P|179:130|190:68,1,109.199996667481,2|2,0:0|0:2,0:0:0:0:
143,46,126943,1,0,1:0:0:0:
256,5,127246,1,2,1:2:0:0:
336,94,127549,2,0,L|395:77,1,54.5999983337403,8|8,0:0|0:0,0:0:0:0:
449,63,127852,1,8,0:0:0:0:
449,63,128004,2,0,L|435:183,1,109.199996667481,4|8,1:0|0:0,0:0:0:0:
317,186,128610,6,0,L|303:306,1,109.199996667481,12|0,1:0|0:0,0:0:0:0:
277,347,129064,1,8,0:0:0:0:
400,359,129367,1,2,1:2:0:0:
400,359,129519,2,0,L|453:370,1,54.5999983337403,2|8,1:2|0:0,0:0:0:0:
498,330,129822,1,2,0:0:0:0:
454,217,130125,1,0,1:0:0:0:
504,110,130428,1,2,0:0:0:0:
504,110,130580,2,0,L|486:53,1,54.5999983337403,2|2,1:2|1:2,0:0:0:0:
448,20,130883,1,10,0:0:0:0:
448,20,131034,6,0,B|401:35|410:71|355:83,1,109.199996667481,4|0,1:0|1:0,0:0:0:0:
305,57,131489,1,8,0:0:0:0:
234,155,131792,1,2,1:2:0:0:
234,155,131943,2,0,P|251:191|257:226,1,54.5999983337403,0|8,1:2|0:0,0:0:0:0:
296,247,132246,1,4,1:0:0:0:
237,352,132549,1,2,1:2:0:0:
117,340,132852,1,2,1:2:0:0:
54,237,133155,2,0,P|45:205|37:169,1,54.5999983337403,0|8,1:0|0:0,0:0:0:0:
0,139,133458,6,0,P|22:73|79:66,1,109.199996667481,12|0,1:0|1:0,0:0:0:0:
104,28,133913,1,8,0:0:0:0:
211,82,134216,2,0,P|269:65|318:55,1,109.199996667481,0|8,1:0|0:0,0:0:0:0:
370,24,134670,1,2,0:0:0:0:
370,24,134822,1,2,1:2:0:0:
470,99,135125,1,8,0:0:0:0:
470,99,135277,2,0,P|459:158|447:229,1,109.199996667481,2|2,0:0|1:2,0:0:0:0:
407,248,135731,1,8,2:0:0:0:
310,319,136034,6,0,P|300:265|290:211,2,109.199996667481,12|8|0,1:0|0:0|1:0,0:0:0:0:
272,366,136792,1,0,1:0:0:0:
272,366,136943,1,8,0:0:0:0:
162,317,137246,2,0,P|135:310|106:306,1,54.5999983337403,12|0,1:0|0:0,0:0:0:0:
59,270,137549,2,0,P|62:242|69:216,1,54.5999983337403,8|0,0:0|1:0,0:0:0:0:
116,178,137852,2,0,P|102:120|93:67,1,109.199996667481,8|8,0:0|0:0,0:0:0:0:
132,26,138307,1,8,0:0:0:0:
132,26,138458,5,4,1:0:0:0:
132,26,139822,6,0,P|108:33|82:42,2,49.3999986808777,8|8|4,0:0|0:0|1:3,0:0:0:0:
181,49,140277,2,0,P|270:69|398:86,1,197.599994723511,8|4,0:0|1:0,0:0:0:0:
375,83,142246,2,0,P|399:90|425:99,2,49.3999986808777,8|8|4,0:0|0:0|1:3,0:0:0:0:
326,106,142701,2,0,P|237:126|109:143,1,197.599994723511,8|4,0:0|1:0,0:0:0:0:
30,181,143610,5,0,1:0:0:0:
116,247,143913,2,0,P|162:253|217:265,1,98.7999973617554,4|0,1:0|1:0,0:0:0:0:
260,300,144367,1,2,1:2:0:0:
260,300,144519,1,4,1:0:0:0:
461,217,145125,1,2,1:2:0:0:
289,85,145731,6,0,B|248:91|248:91|225:109|225:109|185:114,1,104,12|8,1:2|0:2,0:0:0:0:
146,87,146186,1,0,1:0:0:0:
146,87,146337,1,8,0:0:0:0:
39,128,146640,2,0,L|54:186,1,52,8|0,0:2|1:0,0:0:0:0:
91,220,146943,2,0,L|78:329,1,104,10|8,0:2|0:2,0:0:0:0:
125,365,147398,1,0,1:0:0:0:
125,365,147549,1,8,0:0:0:0:
211,290,147852,1,8,0:2:0:0:
313,340,148155,6,0,B|371:327|374:359|421:350,1,104,4|8,1:0|0:0,0:0:0:0:
470,329,148610,1,0,1:0:0:0:
470,329,148761,2,0,P|490:297|491:272,1,52,8|0,0:0|1:0,0:0:0:0:
464,233,149064,1,8,0:0:0:0:
359,186,149367,2,0,P|340:142|357:88,1,104,14|8,1:2|0:0,0:0:0:0:
407,63,149822,1,0,1:0:0:0:
407,63,149973,1,8,0:0:0:0:
501,127,150276,1,10,0:0:0:0:
464,233,150580,6,0,P|452:287|443:346,1,104,12|8,1:2|0:0,0:0:0:0:
396,362,151034,1,0,1:0:0:0:
396,362,151186,1,8,0:0:0:0:
301,297,151489,1,8,0:0:0:0:
189,323,151792,2,0,P|150:365|83:376,1,104,14|8,1:2|0:0,0:0:0:0:
70,341,152246,1,2,1:2:0:0:
70,341,152398,1,8,0:0:0:0:
25,235,152701,2,0,L|37:170,1,52,10|0,0:2|1:0,0:0:0:0:
47,127,153004,5,14,1:2:0:0:
152,83,153307,1,8,0:0:0:0:
244,150,153610,1,14,1:2:0:0:
349,106,153913,1,8,0:0:0:0:
441,173,154216,2,0,P|445:200|428:233,1,52,10|8,0:0|0:0,0:0:0:0:
403,269,154519,1,0,1:0:0:0:
433,379,154822,2,0,P|384:356|325:342,1,104,8|0,3:0|1:2,0:0:0:0:
224,371,155428,6,0,P|243:318|254:258,1,104,12|8,1:0|0:0,0:0:0:0:
301,240,155883,1,0,1:0:0:0:
301,240,156034,1,8,0:0:0:0:
206,175,156337,2,0,P|214:145|226:125,1,52,8|0,0:0|1:2,0:0:0:0:
181,89,156640,2,0,P|130:99|81:117,1,104,14|8,1:2|0:0,0:0:0:0:
28,131,157095,1,2,1:2:0:0:
28,131,157246,1,8,0:0:0:0:
102,218,157549,1,10,0:0:0:0:
91,331,157852,6,0,P|139:313|190:302,1,104,14|8,1:2|0:0,0:0:0:0:
248,287,158307,1,0,1:0:0:0:
248,287,158458,2,0,P|277:296|310:302,1,52,8|0,0:0|1:0,0:0:0:0:
342,336,158761,1,8,0:0:0:0:
416,249,159064,2,0,P|403:192|391:129,1,104,14|8,1:2|0:0,0:0:0:0:
424,100,159519,1,2,1:2:0:0:
424,100,159670,1,10,0:0:0:0:
334,28,159973,1,10,0:0:0:0:
231,79,160276,6,0,P|220:130|209:180,1,104,14|8,0:0|0:0,0:0:0:0:
165,216,160731,1,0,1:0:0:0:
165,216,160883,2,0,L|174:273,1,52,8|0,0:0|1:0,0:0:0:0:
214,307,161186,1,8,0:0:0:0:
126,380,161489,2,0,P|75:369|17:361,1,104,14|8,0:0|0:0,0:0:0:0:
0,313,161943,1,2,1:2:0:0:
0,313,162095,1,8,0:0:0:0:
65,219,162398,1,10,0:0:0:0:
8,119,162701,6,0,P|0:49|36:13,1,104,14|10,1:2|0:0,0:0:0:0:
76,12,163155,1,0,1:0:0:0:
76,12,163307,2,0,L|137:23,1,52,14|0,1:2|0:0,0:0:0:0:
173,55,163610,1,10,0:0:0:0:
276,103,163913,2,0,P|330:89|394:77,1,104,14|8,0:0|0:0,0:0:0:0:
484,119,164519,1,10,0:0:0:0:
395,191,164822,1,10,3:0:0:0:
481,266,165125,5,4,1:2:0:0:
481,266,166943,5,4,1:0:0:0:
272,359,167549,2,0,P|224:349|166:342,1,104,8|4,0:0|1:2,0:0:0:0:
169,342,169367,5,4,1:2:0:0:
17,170,169973,2,0,P|27:83|138:53,1,208,2|4,0:0|1:0,0:0:0:0:
130,50,171792,5,4,1:0:0:0:
346,112,172398,1,4,1:2:0:0:
346,112,174216,5,4,1:0:0:0:
166,253,174822,6,0,L|111:244,1,52,2|10,0:0|0:2,0:0:0:0:
57,236,175125,1,4,1:0:0:0:
10,131,175428,2,0,P|27:87|129:51,1,156,8|2,0:0|0:0,0:0:0:0:
235,33,176185,2,0,P|263:90|350:107,1,156,8|10,0:0|0:0,0:0:0:0:
404,96,176791,1,0,1:2:0:0:
499,240,177246,2,0,P|508:269|513:309,2,52,8|8|4,0:0|2:2|1:0,0:0:0:0:
393,285,177852,6,0,B|322:274|324:336|244:323,1,156,8|0,0:0|1:0,0:0:0:0:
199,302,178458,1,8,0:0:0:0:
199,302,178609,2,0,P|217:215|229:138,1,156,4|8,1:0|0:0,0:0:0:0:
185,109,179215,1,4,1:2:0:0:
325,10,179670,2,0,B|432:-5|420:85|515:86,1,208,10|4,0:0|1:0,0:0:0:0:
410,226,180730,6,0,P|380:228|353:233,1,52,2|0,1:2|1:2,0:0:0:0:
322,276,181033,2,0,P|270:264|212:258,1,104,8|0,2:2|1:2,0:0:0:0:
193,207,181488,2,0,P|205:155|211:97,1,104,8|2,0:2|2:2,0:0:0:0:
96,109,182094,2,0,P|80:76|67:54,2,52,0|8|2,1:0|0:0|0:0,0:0:0:0:
42,210,182700,6,0,P|28:256|17:315,1,104,8|0,0:0|1:0,0:0:0:0:
52,362,183154,1,8,0:0:0:0:
52,362,183306,2,0,P|83:352|109:349,1,52,2|10,1:2|0:0,0:0:0:0:
157,363,183609,1,2,1:2:0:0:
263,320,183912,2,0,P|327:300|385:286,1,104,8|0,0:0|1:0,0:0:0:0:
451,217,184519,6,0,P|433:147|395:132,1,104,14|0,0:0|1:0,0:0:0:0:
352,126,184973,2,0,L|239:157,1,104,8|0,0:0|1:0,0:0:0:0:
196,138,185428,1,8,0:0:0:0:
86,103,185731,2,0,P|104:33|142:18,1,104,12|0,0:0|1:0,0:0:0:0:
185,12,186185,2,0,L|298:43,1,104,12|0,0:2|1:0,0:0:0:0:
341,24,186640,1,8,0:0:0:0:
449,59,186943,6,0,L|435:175,1,104,12|0,0:0|1:0,0:0:0:0:
386,189,187397,2,0,B|335:179|335:179|293:211,1,104,8|0,0:0|1:0,0:0:0:0:
237,221,187852,1,8,0:0:0:0:
141,284,188155,2,0,L|86:274,2,52,12|0|0,0:0|1:0|1:0,0:0:0:0:
170,339,188609,1,0,1:0:0:0:
170,339,188761,2,0,L|225:329,1,52,8|0,0:0|1:0,0:0:0:0:
271,302,189064,2,0,L|326:312,1,52,0|0,1:0|1:0,0:0:0:0:
364,350,189367,5,2,0:0:0:0:
364,350,197852,6,0,P|394:355|423:368,2,52,10|10|0,1:2|0:0|0:0,0:0:0:0:
315,320,198306,2,0,P|269:337|202:351,1,104,4|8,1:0|1:2,0:0:0:0:
98,375,198912,6,0,P|74:322|99:269,1,109.199996667481,12|0,1:0|0:0,0:0:0:0:
138,240,199367,1,8,0:0:0:0:
211,146,199670,1,2,1:2:0:0:
211,146,199822,2,0,L|155:138,1,54.5999983337403,2|8,1:2|2:2,0:0:0:0:
97,147,200125,1,2,0:0:0:0:
52,35,200428,1,2,1:2:0:0:
174,16,200731,1,2,1:2:0:0:
174,16,200882,2,0,L|246:27,1,54.5999983337403,2|2,1:2|1:2,0:0:0:0:
282,61,201185,1,10,0:0:0:0:
282,61,201337,6,0,L|392:45,1,109.199996667481,4|0,1:0|1:0,0:0:0:0:
446,24,201791,1,8,0:0:0:0:
510,131,202094,1,0,1:0:0:0:
510,131,202246,2,0,L|495:192,1,54.5999983337403,0|8,1:0|0:0,0:0:0:0:
483,242,202549,1,2,1:2:0:0:
373,192,202852,1,2,1:2:0:0:
275,262,203155,1,2,1:2:0:0:
287,382,203458,2,0,L|358:368,1,54.5999983337403,0|8,1:0|0:0,0:0:0:0:
383,329,203761,6,0,P|389:273|398:207,1,109.199996667481,12|0,1:0|1:0,0:0:0:0:
437,177,204215,2,0,P|427:149|421:123,1,54.5999983337403,8|2,0:0|0:0,0:0:0:0:
371,90,204519,2,0,B|318:91|318:125|262:126,1,109.199996667481,0|8,1:0|0:0,0:0:0:0:
227,91,204973,1,2,0:0:0:0:
227,91,205125,1,2,1:2:0:0:
134,24,205428,1,8,0:0:0:0:
134,24,205579,2,0,P|85:34|25:47,1,109.199996667481,2|2,0:0|1:2,0:0:0:0:
9,104,206034,1,8,0:0:0:0:
106,174,206337,6,0,P|134:222|118:279,1,109.199996667481,12|8,1:0|0:0,0:0:0:0:
106,332,206791,1,0,1:0:0:0:
106,332,206943,2,0,P|171:310|222:303,1,109.199996667481,0|8,1:0|0:0,0:0:0:0:
313,241,207549,2,0,P|368:257|435:270,1,109.199996667481,2|8,1:2|0:0,0:0:0:0:
460,224,208003,1,8,0:0:0:0:
460,224,208155,2,0,L|444:162,1,54.5999983337403,10|14,0:0|0:2,0:0:0:0:
398,61,208609,6,0,B|337:67|351:105|294:110,1,109.199996667481,12|0,1:0|1:0,0:0:0:0:
248,83,209064,1,8,0:0:0:0:
138,48,209367,1,2,1:2:0:0:
138,48,209519,2,0,P|111:65|84:95,1,54.5999983337403,0|8,1:2|2:0,0:0:0:0:
77,138,209822,1,2,1:2:0:0:
161,223,210125,1,2,1:2:0:0:
120,338,210428,1,2,1:2:0:0:
120,338,210579,2,0,L|56:329,1,54.5999983337403,2|2,0:0|1:2,0:0:0:0:
19,301,210882,1,10,0:2:0:0:
19,301,211034,6,0,L|4:189,1,109.199996667481,4|0,1:0|1:0,0:0:0:0:
40,144,211488,1,8,0:0:0:0:
116,51,211791,2,0,L|179:65,1,54.5999983337403,0|0,1:0|1:0,0:0:0:0:
225,97,212094,1,8,0:0:0:0:
225,97,212246,1,2,1:2:0:0:
332,43,212549,1,2,1:2:0:0:
433,108,212852,1,2,1:2:0:0:
426,228,213155,2,0,L|371:222,1,54.5999983337403,0|8,1:0|0:0,0:0:0:0:
318,193,213458,6,0,P|275:232|282:286,1,109.199996667481,4|0,1:0|0:0,0:0:0:0:
280,339,213912,2,0,L|225:333,1,54.5999983337403,8|2,0:0|0:0,0:0:0:0:
171,306,214215,2,0,B|132:311|132:311|104:331|104:331|57:339,1,109.199996667481,0|8,1:0|0:0,0:0:0:0:
25,303,214670,1,2,0:0:0:0:
25,303,214822,1,2,1:2:0:0:
80,198,215125,1,8,0:0:0:0:
80,198,215276,2,0,L|57:83,1,109.199996667481,2|0,0:0|1:0,0:0:0:0:
99,46,215731,1,8,0:0:0:0:
214,11,216034,6,0,B|277:3|269:42|325:32,2,109.199996667481,4|8|0,1:0|0:0|1:0,0:0:0:0:
188,67,216791,1,0,1:0:0:0:
188,67,216943,1,8,0:0:0:0:
287,134,217246,2,0,L|300:196,1,54.5999983337403,4|0,1:0|0:0,0:0:0:0:
269,240,217549,2,0,L|207:253,1,54.5999983337403,8|0,0:0|0:0,0:0:0:0:
163,220,217852,2,0,L|49:201,1,109.199996667481,8|0,0:0|1:2,0:0:0:0:
14,245,218306,1,0,1:2:0:0:
14,245,218458,5,4,1:0:0:0:
14,245,219822,6,0,P|8:217|1:193,2,49.3999986808777,8|8|4,0:0|0:0|1:3,0:0:0:0:
58,275,220276,2,0,B|159:256|146:324|260:310,1,197.599994723511,8|4,0:0|1:0,0:0:0:0:
247,311,222246,2,0,P|241:339|234:363,2,49.3999986808777,8|8|4,0:0|0:0|1:3,0:0:0:0:
291,281,222700,2,0,B|392:300|379:232|493:246,1,197.599994723511,8|4,0:0|1:0,0:0:0:0:
443,142,223609,5,0,1:0:0:0:
335,160,223912,2,0,P|283:149|225:142,1,98.7999973617554,4|0,1:0|1:2,0:0:0:0:
198,114,224367,1,0,1:2:0:0:
198,114,224519,2,0,P|214:200|231:320,1,197.599994723511,4|2,1:0|1:2,0:0:0:0:
438,369,225731,2,0,P|451:271|469:174,2,197.599994723511,12|12|12,1:2|1:2|1:0,0:0:0:0:
292,207,227549,2,0,P|259:124|287:73,1,148.199996042633,4|0,1:0|0:0,0:0:0:0:
318,30,228155,6,0,L|431:51,1,104,4|0,1:0|1:0,0:0:0:0:
488,141,228761,2,0,L|474:198,1,52,2|2,1:2|0:2,0:0:0:0:
456,245,229064,1,0,1:0:0:0:
354,297,229367,2,0,B|294:287|296:315|243:309,1,104,0|0,1:0|1:0,0:0:0:0:
208,281,229822,1,2,2:0:0:0:
208,281,229973,2,0,P|184:211|215:176,1,104,2|0,1:2|1:0,0:0:0:0:
219,78,230579,6,0,L|108:100,1,104,4|8,1:0|0:0,0:0:0:0:
64,113,231034,1,2,0:0:0:0:
64,113,231185,1,8,0:0:0:0:
15,216,231488,1,10,0:0:0:0:
103,288,231791,2,0,L|213:306,1,104,8|8,0:0|0:0,0:0:0:0:
256,275,232246,1,2,1:2:0:0:
256,275,232397,2,0,L|309:262,1,52,2|2,1:2|1:2,0:0:0:0:
356,290,232700,1,8,0:0:0:0:
443,216,233003,6,0,P|457:176|424:119,1,104,4|8,1:0|0:0,0:0:0:0:
342,50,233609,2,0,L|288:60,1,52,8|0,0:0|0:0,0:0:0:0:
235,73,233912,1,8,0:0:0:0:
205,176,234197,2,0,P|153:167|93:159,2,104,8|4|4,1:2|3:0|1:0,0:0:0:0:
256,192,235409,12,14,237681,1:2:0:0:
