osu file format v14

[General]
AudioFilename: audio.mp3
AudioLeadIn: 0
PreviewTime: 50731
Countdown: 0
SampleSet: Soft
StackLeniency: 0.4
Mode: 0
LetterboxInBreaks: 0
WidescreenStoryboard: 1

[Editor]
Bookmarks: 9973,29367,39064,51186,70580,77852,87549,97246,106943,119064,138458,145731,147852,165125,175428,184518,189366,197851,198911,218457,237700
DistanceSpacing: 1.1
BeatDivisor: 4
GridSize: 16
TimelineZoom: 1.6

[Metadata]
Title:OveR
TitleUnicode:OveR
Artist:Tomita Miyu
ArtistUnicode:富田美憂
Creator:pnky
Version:InsanE
Source:デート・ア・ライブⅣ
Tags:4 時崎狂三 tokisaki kurumi 坂部剛 dal date a live 4th season j rock j pop female vocal vocalist anime op opening kadokawa japanese jpop j-pop pop season full size version rock j-rock jrock l1ght_u light_u -hitomi
BeatmapID:3829897
BeatmapSetID:1862561

[Difficulty]
HPDrainRate:5
CircleSize:4
OverallDifficulty:7.5
ApproachRate:9
SliderMultiplier:1.6
SliderTickRate:1

[Events]
//Background and Video events
0,0,"68455016_p0.jpg",0,0
//Break Periods
2,19719,28761
2,87749,96640
2,189567,197246
//Storyboard Layer 0 (Background)
//Storyboard Layer 1 (Fail)
//Storyboard Layer 2 (Pass)
//Storyboard Layer 3 (Foreground)
//Storyboard Layer 4 (Overlay)
//Storyboard Sound Samples

[TimingPoints]
277,303.030303030303,4,2,69,40,1,0
277,-200,4,2,69,40,0,0
2019,-200,4,2,68,5,0,0
2095,-200,4,2,68,40,0,0
2625,-200,4,2,68,5,0,0
2701,-166.666666666667,4,2,69,40,0,0
3004,-166.666666666667,4,2,69,5,0,0
3155,-166.666666666667,4,2,68,40,0,0
3458,-166.666666666667,4,2,68,5,0,0
3610,-166.666666666667,4,2,69,40,0,0
3913,-200,4,2,69,40,0,0
4973,-200,4,2,69,5,0,0
5125,-200,4,2,69,40,0,0
6867,-200,4,2,69,5,0,0
6943,-200,4,2,68,40,0,0
7473,-200,4,2,68,5,0,0
7549,-200,4,2,69,40,0,0
9367,-200,4,2,1,40,0,0
9519,-166.666666666667,4,2,1,40,0,0
9973,-100,4,2,3,60,0,0
10277,-100,4,2,1,70,0,0
11716,-100,4,2,1,5,0,0
11792,-100,4,2,1,70,0,0
12322,-100,4,2,1,5,0,0
12398,-100,4,2,1,70,0,0
17246,-90.9090909090909,4,2,1,70,0,0
19140,-90.9090909090909,4,2,1,5,0,0
19216,-90.9090909090909,4,2,1,70,0,0
19292,-90.9090909090909,4,2,1,5,0,0
19367,-90.9090909090909,4,2,1,70,0,0
19443,-90.9090909090909,4,2,1,5,0,0
19519,-90.9090909090909,4,2,1,70,0,0
29367,-125,4,2,1,50,0,0
33534,-125,4,2,1,5,0,0
33610,-125,4,2,69,50,0,0
34216,-125,4,2,68,50,0,0
34822,-125,4,2,1,50,0,0
37625,-125,4,2,1,5,0,0
37701,-125,4,2,1,50,0,0
38458,-125,4,2,68,50,0,0
38761,-125,4,2,1,50,0,0
39064,-111.111111111111,4,2,1,60,0,0
46337,-90.9090909090909,4,2,1,65,0,0
50731,-90.9090909090909,4,2,1,45,0,0
51186,-100,4,2,1,75,0,0
53004,-125,4,2,1,75,0,0
53610,-100,4,2,1,75,0,0
55883,-100,4,2,1,75,0,0
57473,-100,4,2,1,5,0,0
57549,-100,4,2,1,75,0,0
59595,-100,4,2,1,5,0,0
59670,-100,4,2,1,75,0,0
60125,-83.3333333333333,4,2,1,75,0,0
60731,-95.2380952380952,4,2,1,80,0,1
68080,-95.2380952380952,4,2,1,5,0,1
68155,-95.2380952380952,4,2,1,80,0,1
70580,-125,4,2,1,65,0,0
75428,-111.111111111111,4,2,1,65,0,0
77246,-99.9999999999999,4,2,1,65,0,0
77852,-99.9999999999999,4,2,1,70,0,0
78080,-99.9999999999999,4,2,1,5,0,0
78155,-99.9999999999999,4,2,1,70,0,0
79292,-99.9999999999999,4,2,1,5,0,0
79367,-99.9999999999999,4,2,1,70,0,0
79898,-99.9999999999999,4,2,1,5,0,0
79973,-99.9999999999999,4,2,1,70,0,0
82928,-99.9999999999999,4,2,1,5,0,0
83004,-99.9999999999999,4,2,1,70,0,0
85125,-90.9090909090909,4,2,1,75,0,0
87549,-90.9090909090909,4,2,2,50,0,0
97246,-125,4,2,69,40,0,0
97398,-125,4,2,1,40,0,0
98458,-125,4,2,69,40,0,0
98610,-125,4,2,1,40,0,0
101413,-125,4,2,1,5,0,0
101489,-125,4,2,69,40,0,0
101792,-125,4,2,68,40,0,0
102095,-125,4,2,69,40,0,0
102398,-125,4,2,1,40,0,0
103307,-125,4,2,69,40,0,0
103458,-125,4,2,1,40,0,0
105504,-125,4,2,1,5,0,0
105580,-125,4,2,1,40,0,0
106337,-125,4,2,69,40,0,0
106640,-125,4,2,68,50,0,0
106943,-111.111111111111,4,2,1,55,0,0
114216,-90.9090909090908,4,2,1,55,0,0
118610,-90.9090909090908,4,2,1,45,0,0
119064,-100,4,2,1,75,0,0
120883,-125,4,2,1,75,0,0
121489,-100,4,2,1,75,0,0
123761,-100,4,2,1,75,0,0
125352,-100,4,2,1,5,0,0
125428,-100,4,2,1,75,0,0
127473,-100,4,2,1,5,0,0
127549,-100,4,2,1,75,0,0
128004,-83.3333333333333,4,2,1,75,0,0
128610,-95.2380952380952,4,2,1,80,0,1
135958,-95.2380952380952,4,2,1,5,0,1
136034,-95.2380952380952,4,2,1,80,0,1
138458,-125,4,2,1,65,0,0
143307,-111.111111111111,4,2,1,65,0,0
145125,-100,4,2,1,65,0,0
145731,-100,4,2,1,70,0,0
154822,-125,4,2,1,70,0,0
155428,-100,4,2,1,75,0,0
164443,-100,4,2,1,5,0,0
164519,-100,4,2,1,75,0,0
165125,-250,4,2,2,50,0,0
166867,-250,4,2,2,5,0,0
166943,-166.666666666667,4,2,1,50,0,0
167549,-166.666666666667,4,2,1,50,0,0
167852,-250,4,2,1,50,0,0
169292,-250,4,2,1,5,0,0
169367,-166.666666666667,4,2,1,50,0,0
170580,-250.000000000001,4,2,1,50,0,0
171716,-250.000000000001,4,2,1,5,0,0
171792,-166.666666666667,4,2,1,50,0,0
172322,-166.666666666667,4,2,1,5,0,0
172398,-250.000000000001,4,2,1,50,0,0
174140,-250.000000000001,4,2,1,5,0,0
174216,-250.000000000001,4,2,1,50,0,0
174822,-166.666666666667,4,2,1,50,0,0
175125,303.030303030303,4,2,1,50,1,0
175125,-142.857142857143,4,2,1,50,0,0
177549,-142.857142857143,4,2,1,60,0,0
178609,-125,4,2,1,60,0,0
179215,-111.111111111111,4,2,1,60,0,0
179670,-142.857142857143,4,2,1,60,0,0
180276,303.030303030303,4,2,1,60,1,0
180730,-125,4,2,1,60,0,0
184442,-125,4,2,1,5,0,0
184519,303.030303030303,4,2,1,70,1,0
184519,-100,4,2,1,70,0,0
188761,-111.111111111111,4,2,1,70,0,0
189367,-100,4,2,69,50,0,0
191034,-100,4,2,1,50,0,0
191716,-100,4,2,1,5,0,0
191792,-100,4,2,1,50,0,0
197852,-166.666666666667,4,2,1,60,0,0
198306,-111.111111111111,4,2,1,60,0,0
198912,-95.2380952380952,4,2,1,75,0,1
206261,-95.2380952380952,4,2,1,5,0,1
206337,-95.2380952380952,4,2,1,75,0,1
208306,-95.2380952380952,4,2,1,75,0,0
208534,-95.2380952380952,4,2,1,5,0,0
208609,-95.2380952380952,4,2,3,80,0,1
209064,-95.2380952380952,4,2,1,80,0,1
215958,-95.2380952380952,4,2,1,5,0,1
216034,-95.2380952380952,4,2,1,80,0,1
218458,-125,4,2,1,50,0,0
223306,-111.111111111111,4,2,1,65,0,0
225731,-111.111111111111,4,2,1,70,0,0
227549,-133.333333333333,4,2,1,70,0,0
228155,-100,4,2,1,60,0,0
229594,-100,4,2,1,5,0,0
229670,-100,4,2,1,60,0,0
230503,-100,4,2,1,5,0,0
230580,-100,4,2,1,65,0,0
231716,-100,4,2,1,5,0,0
231792,-100,4,2,1,65,0,0
233004,-100,4,2,1,70,0,0
233231,-100,4,2,1,5,0,0
233307,-100,4,2,1,70,0,0
234197,303.030303030303,4,2,1,60,1,0
235333,-100,4,2,1,5,0,0
235409,-100,4,2,1,60,0,0
235712,-100,4,2,1,50,0,0
236166,-100,4,2,1,55,0,0
236621,-100,4,2,1,60,0,0
237075,-100,4,2,1,65,0,0
237530,-100,4,2,1,70,0,0
237681,-100,4,2,2,65,0,0

[Colours]
Combo1 : 150,185,220
Combo2 : 240,140,140
Combo3 : 200,180,220
Combo4 : 240,200,155

[HitObjects]
26,55,277,6,0,L|489:24,1,460,2|0,0:0|0:0,0:0:0:0:
468,42,2095,2,0,L|325:51,1,140,2|0,0:0|0:0,0:0:0:0:
299,53,2701,2,0,L|155:62,2,143.999995605469,2|2|2,0:0|0:0|0:0,0:0:0:0:
26,180,5125,6,0,L|489:149,1,460,2|0,0:0|0:0,0:0:0:0:
469,168,6943,2,0,L|303:178,1,160,2|2,0:0|0:0,0:0:0:0:
256,192,7625,12,0,9367,1:0:0:0:
132,234,9519,5,2,1:2:0:0:
118,231,9595,1,2,1:2:0:0:
104,228,9670,1,0,1:0:0:0:
196,288,9822,2,0,L|238:277,1,23.9999992675781,2|2,1:2|1:2,0:0:0:0:
330,191,9973,6,0,B|384:200|384:200|424:237|424:237|485:249,2,160,12|8|0,1:0|0:0|1:0,0:0:0:0:
254,218,10731,1,0,1:0:0:0:
184,80,10883,1,8,0:0:0:0:
46,150,11034,2,0,L|132:137,1,80,0|0,1:0|0:0,0:0:0:0:
254,218,11337,5,0,1:0:0:0:
173,64,11489,2,0,B|221:37|221:37|191:107,1,120,8|0,0:0|0:0,0:0:0:0:
136,217,11792,2,0,L|125:138,1,80,2|0,1:2|1:0,0:0:0:0:
298,384,12095,2,0,L|316:260,1,120,8|0,0:0|0:0,0:0:0:0:
221,321,12398,6,0,B|150:314|158:382|67:374,1,160,2|8,1:2|0:0,0:0:0:0:
11,325,12852,1,2,0:0:0:0:
137,217,13004,1,0,1:0:0:0:
44,151,13155,2,0,P|37:125|31:106,2,40,0|0|10,1:0|1:2|0:2,0:0:0:0:
137,217,13458,6,0,P|148:129|164:51,1,160,2|2,1:2|1:2,0:0:0:0:
241,190,13913,2,0,P|276:215|326:210,1,80,10|0,0:0|0:0,0:0:0:0:
512,82,14216,5,2,1:2:0:0:
419,64,14367,1,0,1:0:0:0:
401,157,14519,1,8,0:0:0:0:
494,175,14670,1,0,1:2:0:0:
409,290,14822,6,0,P|328:300|240:322,2,160,4|8|0,1:0|0:0|1:0,0:0:0:0:
485,256,15580,1,0,1:0:0:0:
311,192,15731,1,8,0:0:0:0:
251,318,15883,2,0,P|244:278|235:239,1,80,0|0,1:0|0:0,0:0:0:0:
114,374,16186,5,0,1:0:0:0:
114,374,16337,2,0,P|99:290|80:207,1,160,8|10,0:2|1:2,0:0:0:0:
168,54,16792,2,0,P|162:73|157:92,1,40,8|8,1:2|1:2,0:0:0:0:
243,154,16943,1,2,1:2:0:0:
238,173,17018,1,2,1:2:0:0:
233,192,17094,1,2,1:2:0:0:
230,212,17170,1,2,1:2:0:0:
227,232,17246,6,0,B|319:209|314:287|411:260,1,176.000005371094,4|8,1:0|0:0,0:0:0:0:
224,244,17701,2,0,B|315:220|310:298|407:271,1,176.000005371094,4|0,1:2|0:0,0:0:0:0:
508,125,18155,6,0,B|416:101|421:179|324:152,1,176.000005371094,4|8,1:0|0:0,0:0:0:0:
511,136,18610,2,0,B|419:112|424:190|327:163,1,176.000005371094,4|4,1:2|3:0,0:0:0:0:
220,37,19064,5,8,3:2:0:0:
91,132,19216,1,8,3:0:0:0:
108,20,19367,1,4,3:0:0:0:
203,149,19519,1,2,1:0:0:0:
203,149,29367,6,0,P|181:120|216:30,2,128,0|0|2,1:0|1:0|1:2,0:0:0:0:
278,183,30125,2,0,P|313:174|342:169,1,64,2|2,0:0|1:2,0:0:0:0:
210,234,30428,2,0,P|198:297|188:372,1,128,2|2,0:0|0:0,0:0:0:0:
189,360,30883,1,0,1:0:0:0:
133,201,31186,2,0,P|121:171|110:134,1,64,2|2,1:2|0:0,0:0:0:0:
111,140,31489,1,2,1:2:0:0:
18,257,31640,6,0,B|84:241|87:290|144:280,1,128,2|2,0:0|0:0,0:0:0:0:
371,280,32246,2,0,B|425:290|428:241|494:257,1,128,2|0,0:0|0:0,0:0:0:0:
377,201,32701,1,2,1:2:0:0:
377,201,32852,2,0,P|362:171|366:132,1,64,2|0,0:0|0:0,0:0:0:0:
463,54,33155,1,2,0:0:0:0:
463,54,33307,2,0,P|454:103|446:155,1,96,2|0,1:2|0:0,0:0:0:0:
454,162,33610,5,2,1:2:0:0:
377,201,33761,1,2,0:0:0:0:
292,171,33913,1,2,1:2:0:0:
226,101,34064,1,2,0:0:0:0:
129,135,34216,6,0,B|135:183|144:189|153:278,2,128,2|2|2,1:2|1:2|1:2,0:0:0:0:
226,101,34973,2,0,B|228:76|233:76|238:27,1,64,2|2,0:0|1:2,0:0:0:0:
129,135,35276,2,0,P|93:173|7:179,1,128,2|2,0:0|0:0,0:0:0:0:
20,183,35731,1,0,0:0:0:0:
248,262,36034,2,0,P|278:267|311:281,1,64,2|2,1:2|0:0,0:0:0:0:
308,279,36337,1,2,1:2:0:0:
157,280,36489,6,0,P|168:214|226:173,2,128,2|2|2,0:0|0:0|0:0,0:0:0:0:
322,91,37398,2,0,P|310:138|301:196,1,96,2|0,0:0|0:0,0:0:0:0:
323,176,37701,2,0,P|328:140|337:105,1,64,2|0,0:0|0:0,0:0:0:0:
224,28,38004,5,2,0:0:0:0:
224,28,38155,2,0,P|231:59|236:90,1,64,2|2,1:2|0:0,0:0:0:0:
394,221,38458,2,0,P|404:157|420:94,1,128,2|2,1:2|1:2,0:0:0:0:
434,89,39064,6,0,P|378:161|253:163,1,215.999993408203,4|0,1:0|1:2,0:0:0:0:
183,230,39670,2,0,P|143:193|147:98,1,143.999995605469,8|2,0:0|0:0,0:0:0:0:
246,8,40125,2,0,P|235:48|227:90,1,71.9999978027344,0|0,1:0|1:2,0:0:0:0:
260,166,40428,2,0,P|274:244|284:319,1,143.999995605469,0|0,1:0|1:2,0:0:0:0:
363,384,40883,2,0,P|371:348|380:314,1,71.9999978027344,8|0,0:0|0:0,0:0:0:0:
441,254,41186,1,0,0:0:0:0:
441,254,41337,1,0,0:0:0:0:
282,308,41489,6,0,B|214:289|213:336|140:322,1,143.999995605469,0|0,1:2|0:0,0:0:0:0:
73,366,41943,1,0,1:0:0:0:
166,246,42095,2,0,P|173:212|187:168,2,71.9999978027344,10|2|2,0:0|0:0|0:0,0:0:0:0:
30,170,42549,2,0,P|15:101|-1:23,2,143.999995605469,2|2|2,1:2|1:2|1:2,0:0:0:0:
166,246,43307,2,0,P|173:212|187:168,1,71.9999978027344,10|2,0:0|1:2,0:0:0:0:
235,114,43610,1,0,0:0:0:0:
512,241,43913,6,0,B|481:195|421:211|421:211|401:233|372:238,1,143.999995605469,4|0,1:0|0:0,0:0:0:0:
354,161,44367,1,0,1:0:0:0:
354,161,44443,1,0,1:0:0:0:
354,161,44519,2,0,B|329:130|329:130|360:143,1,71.9999978027344,8|0,0:0|0:0,0:0:0:0:
308,226,44822,1,2,0:0:0:0:
377,308,44973,6,0,P|383:272|391:237,1,71.9999978027344,0|0,1:0|0:0,0:0:0:0:
377,308,45276,1,0,1:0:0:0:
258,384,45428,2,0,P|251:348|243:313,1,71.9999978027344,0|0,3:2|1:0,0:0:0:0:
329,130,45731,1,8,0:0:0:0:
262,87,45883,1,0,3:0:0:0:
193,126,46034,1,0,1:2:0:0:
164,283,46186,5,0,1:0:0:0:
164,283,46261,1,0,1:0:0:0:
164,283,46337,2,0,B|76:271|88:346|-22:330,1,176.000005371094,4|8,1:0|0:0,0:0:0:0:
169,294,46792,2,0,B|81:282|93:357|-17:341,1,176.000005371094,4|8,1:2|2:0,0:0:0:0:
21,245,47246,2,0,P|14:199|51:152,1,88.000002685547,4|2,1:2|2:0,0:0:0:0:
180,56,47549,6,0,B|268:44|256:119|366:103,1,176.000005371094,4|8,1:0|0:0,0:0:0:0:
175,67,48004,2,0,B|263:55|251:130|361:114,1,176.000005371094,4|8,1:2|2:0,0:0:0:0:
325,16,48458,1,4,1:2:0:0:
506,201,48761,6,0,P|493:281|479:382,1,176.000005371094,4|8,1:0|0:0,0:0:0:0:
495,190,49216,2,0,P|482:270|468:371,1,176.000005371094,4|0,1:2|1:0,0:0:0:0:
486,180,49670,2,0,P|479:219|472:270,1,88.000002685547,12|2,0:2|0:0,0:0:0:0:
326,384,49973,5,10,0:0:0:0:
221,356,50125,1,0,1:0:0:0:
11,300,50276,5,8,1:2:0:0:
116,272,50428,1,4,1:0:0:0:
116,272,51186,6,0,P|152:261|193:249,1,80,12|2,1:0|0:0,0:0:0:0:
401,134,51489,1,8,0:0:0:0:
319,82,51640,1,0,1:0:0:0:
419,240,51792,1,8,0:0:0:0:
506,75,51943,1,0,0:0:0:0:
316,176,52095,1,8,0:0:0:0:
240,31,52246,6,0,P|202:22|158:14,1,80,4|0,1:2|0:0,0:0:0:0:
316,176,52549,2,0,P|354:167|398:159,1,80,2|0,1:2|0:0,0:0:0:0:
222,317,52852,1,2,1:2:0:0:
222,317,53004,6,0,P|184:308|132:297,2,85.3333333333333,8|4|2,3:0|3:0|3:0,0:0:0:0:
323,334,53610,6,0,P|332:287|340:252,1,80,4|2,1:0|0:0,0:0:0:0:
241,103,53913,1,8,0:0:0:0:
218,26,54064,1,2,1:2:0:0:
161,182,54216,1,8,0:0:0:0:
5,125,54367,1,2,1:2:0:0:
138,259,54519,1,8,0:0:0:0:
241,103,54670,6,0,P|282:92|319:84,1,80,4|0,1:0|0:0,0:0:0:0:
82,143,54973,2,0,P|41:132|4:124,1,80,2|0,1:2|0:0,0:0:0:0:
218,26,55276,1,2,1:2:0:0:
218,26,55580,2,0,P|241:19|265:14,3,40,2|2|2|2,0:0|0:0|0:0|0:0,0:0:0:0:
353,63,55883,6,0,B|434:49|431:108|515:98,1,160,12|0,1:0|1:0,0:0:0:0:
418,167,56337,2,0,P|393:202|395:241,1,80,8|2,0:0|0:0,0:0:0:0:
512,377,56640,2,0,P|490:269|481:204,1,160,2|0,1:2|1:0,0:0:0:0:
418,167,57095,1,2,0:0:0:0:
292,283,57246,6,0,P|235:247|175:259,1,120,2|0,1:2|0:0,0:0:0:0:
178,272,57549,1,8,0:0:0:0:
77,384,57701,2,0,P|86:317|91:293,1,80,2|0,0:0|1:0,0:0:0:0:
0,152,58004,1,2,0:0:0:0:
0,152,58155,2,0,P|6:191|11:231,1,80,0|0,1:0|0:0,0:0:0:0:
254,83,58458,5,2,1:2:0:0:
180,28,58610,2,0,P|173:67|168:107,1,80,2|8,0:0|0:0,0:0:0:0:
421,147,58913,2,0,B|380:109|325:130|325:130|305:161|270:163,1,160,2|0,0:0|1:0,0:0:0:0:
189,323,59367,2,0,P|197:251|209:180,1,120,8|0,1:2|0:0,0:0:0:0:
162,96,59670,6,0,P|157:125|154:155,1,40,8|8,0:0|0:0,0:0:0:0:
26,262,59822,1,8,0:0:0:0:
40,236,59897,1,8,0:0:0:0:
64,217,59973,1,8,0:0:0:0:
92,209,60049,1,8,0:0:0:0:
122,212,60125,6,0,B|219:198|214:266|333:250,1,191.999994140625,12|8,1:0|1:2,0:0:0:0:
306,252,60731,6,0,P|355:187|460:196,1,167.999994873047,12|0,1:0|1:0,0:0:0:0:
483,285,61186,2,0,P|442:275|391:268,1,83.9999974365235,8|2,0:0|0:0,0:0:0:0:
322,59,61489,2,0,P|281:69|230:76,1,83.9999974365235,2|0,1:2|1:0,0:0:0:0:
35,140,61792,1,8,0:0:0:0:
180,245,61943,6,0,P|184:203|193:157,1,83.9999974365235,2|0,1:2|0:0,0:0:0:0:
35,140,62246,2,0,P|69:164|104:195,1,83.9999974365235,2|0,1:2|0:0,0:0:0:0:
198,66,62549,1,2,0:2:0:0:
198,66,62625,1,2,0:0:0:0:
198,66,62701,2,0,P|159:83|115:98,1,83.9999974365235,2|2,1:2|1:2,0:0:0:0:
35,140,63004,1,10,0:0:0:0:
201,263,63155,6,0,P|292:246|382:232,1,167.999994873047,4|0,1:0|1:0,0:0:0:0:
439,152,63610,2,0,B|449:131|460:115|460:115|442:125|423:138,1,83.9999974365235,8|2,0:0|2:2,0:0:0:0:
354,343,63913,1,2,1:2:0:0:
454,298,64064,1,0,1:0:0:0:
366,234,64216,1,8,0:0:0:0:
250,384,64367,6,0,P|211:377|165:372,1,83.9999974365235,2|0,1:2|0:0,0:0:0:0:
12,288,64670,2,0,P|51:281|97:276,1,83.9999974365235,2|0,1:2|0:0,0:0:0:0:
250,192,64973,2,0,P|211:185|165:180,1,83.9999974365235,2|0,1:2|0:0,0:0:0:0:
8,100,65276,1,0,1:0:0:0:
227,3,65428,1,8,0:0:0:0:
61,28,65580,6,0,P|140:13|235:3,1,167.999994873047,12|0,1:0|1:0,0:0:0:0:
369,124,66034,2,0,P|330:108|314:69,1,83.9999974365235,8|2,0:0|0:0,0:0:0:0:
481,20,66337,2,0,B|459:126|459:126|456:85|433:63,1,167.999994873047,0|8,1:0|0:0,0:0:0:0:
297,185,66792,1,2,0:0:0:0:
349,254,66943,6,0,P|432:233|523:216,1,167.999994873047,2|8,1:2|0:0,0:0:0:0:
309,331,67398,2,0,P|274:298|270:240,1,83.9999974365235,2|0,0:0|1:0,0:0:0:0:
388,111,67701,1,0,1:0:0:0:
320,61,67852,2,0,P|311:112|295:191,1,125.999996154785,8|0,0:0|0:0,0:0:0:0:
265,264,68155,6,0,P|180:252|85:240,1,167.999994873047,4|8,1:0|0:0,0:0:0:0:
19,280,68610,1,0,1:0:0:0:
217,172,68761,2,0,P|174:166|127:160,1,83.9999974365235,2|0,1:2|1:0,0:0:0:0:
164,334,69064,2,0,P|205:339|247:345,1,83.9999974365235,8|0,2:2|2:0,0:0:0:0:
385,132,69367,5,4,1:0:0:0:
451,192,69519,1,0,1:2:0:0:
331,324,69670,1,8,0:0:0:0:
265,264,69822,1,0,1:0:0:0:
414,277,69973,6,0,L|482:338,1,83.9999974365235,8|8,0:0|0:0,0:0:0:0:
355,219,70201,1,8,0:0:0:0:
355,219,70277,2,0,L|322:189,3,41.9999987182618,0|0|0|0,1:2|1:2|1:2|1:2,0:0:0:0:
265,136,70580,6,0,B|257:71|299:81|294:14,1,128,4|0,1:0|1:0,0:0:0:0:
256,131,71186,2,0,B|248:66|290:76|285:9,1,128,0|0,1:0|1:0,0:0:0:0:
355,219,71792,5,0,1:0:0:0:
254,254,71943,1,8,0:0:0:0:
254,254,72019,1,8,0:0:0:0:
254,254,72095,1,8,0:0:0:0:
390,320,72247,1,4,1:3:0:0:
289,355,72398,6,0,P|249:348|203:343,2,85.3333333333333,8|4|8,0:0|1:3|0:0,0:0:0:0:
156,250,73004,6,0,P|112:294|50:303,1,128,4|0,1:0|1:0,0:0:0:0:
161,259,73610,2,0,P|117:303|55:312,1,128,0|0,1:0|1:0,0:0:0:0:
211,132,74216,5,0,1:0:0:0:
211,132,74367,1,8,0:0:0:0:
134,65,74519,1,8,0:0:0:0:
230,31,74670,1,4,1:3:0:0:
307,98,74822,6,0,P|351:86|400:77,1,85.3333333333333,8|4,0:0|1:3,0:0:0:0:
459,124,75125,1,0,1:0:0:0:
459,124,75226,2,0,P|479:128|500:133,1,42.6666666666667,8|0,0:0|1:0,0:0:0:0:
381,164,75428,6,0,P|346:214|373:290,1,143.999995605469,4|0,1:0|1:2,0:0:0:0:
370,287,75883,1,2,0:0:0:0:
496,347,76034,2,0,B|433:331|423:393|345:381,1,143.999995605469,4|0,1:0|1:0,0:0:0:0:
292,323,76489,1,2,1:2:0:0:
144,384,76640,6,0,P|94:287|147:190,1,215.999993408203,4|0,1:0|0:0,0:0:0:0:
169,15,77246,2,0,B|218:71|207:150|207:150|221:98|269:84,1,240,2|2,1:2|0:0,0:0:0:0:
335,134,77852,6,0,P|408:117|520:99,2,160,4|0|2,1:2|1:2|1:2,0:0:0:0:
463,206,78610,1,2,0:0:0:0:
463,206,78761,2,0,P|423:212|384:221,1,80,0|0,1:2|0:0,0:0:0:0:
207,321,79064,6,0,P|170:274|203:207,1,120,0|0,1:0|0:0,0:0:0:0:
202,210,79367,2,0,P|240:218|280:225,1,80,0|2,1:0|0:0,0:0:0:0:
118,109,79670,2,0,P|68:157|3:151,1,120,2|0,1:2|0:0,0:0:0:0:
44,81,79973,1,0,1:0:0:0:
181,0,80276,6,0,L|353:23,1,160,4|0,1:2|1:0,0:0:0:0:
490,108,80731,1,2,0:2:0:0:
431,164,80883,2,0,P|409:124|414:85,1,80,0|0,1:0|0:0,0:0:0:0:
509,186,81186,1,2,1:2:0:0:
375,222,81337,6,0,P|358:298|343:379,1,160,2|2,2:0|0:0,0:0:0:0:
436,323,81792,2,0,P|443:283|451:244,1,80,2|2,1:2|0:0,0:0:0:0:
271,320,82095,5,2,1:2:0:0:
169,380,82246,1,2,0:0:0:0:
67,322,82398,2,0,P|42:289|53:245,1,80,0|2,1:0|1:2,0:0:0:0:
43,171,82625,1,0,1:2:0:0:
43,171,82701,6,0,B|102:165|94:210|154:204,1,120,4|0,1:0|0:0,0:0:0:0:
151,124,83004,2,0,P|155:85|131:54,1,80,0|0,1:0|0:0,0:0:0:0:
43,171,83307,1,2,1:2:0:0:
43,171,83458,1,2,0:0:0:0:
226,160,83610,2,0,P|265:147|320:136,1,80,0|0,1:0|0:0,0:0:0:0:
440,0,83913,6,0,P|389:51|422:135,1,160,0|0,1:0|1:0,0:0:0:0:
512,105,84367,1,2,0:0:0:0:
417,253,84519,2,0,P|378:240|323:229,1,80,2|10,1:2|1:2,0:0:0:0:
302,138,84822,1,2,1:2:0:0:
271,279,84973,1,2,1:2:0:0:
259,281,85049,1,0,1:2:0:0:
247,283,85125,6,0,P|154:271|61:264,1,176.000005371094,4|8,1:0|0:0,0:0:0:0:
255,296,85580,2,0,P|162:284|69:277,1,176.000005371094,6|0,1:2|1:2,0:0:0:0:
8,120,86034,6,0,P|101:108|194:101,1,176.000005371094,4|8,1:0|0:0,0:0:0:0:
0,133,86489,2,0,P|93:121|186:114,1,176.000005371094,6|8,1:2|0:0,0:0:0:0:
367,29,86943,5,8,1:2:0:0:
278,121,87095,1,10,3:0:0:0:
337,234,87246,1,8,3:0:0:0:
463,211,87398,1,2,3:0:0:0:
498,132,87549,5,4,1:2:0:0:
498,132,97246,6,0,P|429:117|367:107,2,128,2|0|2,1:2|1:0|1:2,0:0:0:0:
482,45,98004,2,0,P|447:37|416:32,1,64,2|2,0:0|1:2,0:0:0:0:
286,107,98307,2,0,P|240:152|171:149,1,128,2|2,0:0|0:0,0:0:0:0:
179,152,98761,1,0,1:0:0:0:
84,0,99064,2,0,P|96:25|111:66,1,64,2|2,1:2|0:0,0:0:0:0:
108,59,99367,1,2,1:2:0:0:
52,175,99519,6,0,P|36:238|25:316,1,128,2|2,0:0|0:0,0:0:0:0:
263,384,100125,2,0,P|272:320|288:258,1,128,2|0,0:0|0:0,0:0:0:0:
371,199,100580,1,2,1:2:0:0:
371,199,100731,2,0,P|373:164|346:136,1,64,2|0,0:0|0:0,0:0:0:0:
169,189,101034,1,2,0:0:0:0:
169,189,101186,2,0,P|217:181|266:166,1,96,2|0,1:2|0:0,0:0:0:0:
275,158,101489,6,0,P|211:147|146:127,1,128,2|2,1:2|1:2,0:0:0:0:
0,318,102095,2,0,P|63:307|128:287,2,128,2|0|2,1:2|1:0|1:2,0:0:0:0:
15,233,102852,2,0,P|46:227|79:217,1,64,2|2,0:0|1:2,0:0:0:0:
239,265,103155,2,0,P|284:222|356:217,1,128,2|2,0:0|0:0,0:0:0:0:
347,214,103610,1,0,1:0:0:0:
440,384,103913,2,0,P|419:344|418:313,1,64,2|2,1:2|0:2,0:0:0:0:
417,325,104216,1,2,1:2:0:0:
347,214,104367,6,0,P|356:146|374:81,2,128,2|2|2,0:0|0:0|0:0,0:0:0:0:
172,239,105276,2,0,P|132:273|91:274,1,96,2|0,0:0|0:0,0:0:0:0:
53,284,105580,6,0,P|22:246|21:222,1,64,2|0,0:0|0:0,0:0:0:0:
117,127,105883,1,2,0:0:0:0:
117,127,106034,2,0,P|110:161|104:201,1,64,2|2,1:2|0:0,0:0:0:0:
268,328,106337,2,0,P|255:269|245:199,1,128,2|2,1:2|1:2,0:0:0:0:
232,192,106943,6,0,B|295:180|338:213|329:234|376:272|440:259,1,215.999993408203,4|0,1:0|1:0,0:0:0:0:
407,168,107549,2,0,B|394:132|364:97|364:97|397:122|432:130,1,143.999995605469,8|2,0:0|0:0,0:0:0:0:
512,122,108004,1,0,1:0:0:0:
512,122,108080,1,0,1:0:0:0:
512,122,108155,2,0,P|501:160|493:200,1,71.9999978027344,0|0,1:0|1:0,0:0:0:0:
445,330,108458,2,0,P|437:294|427:260,1,71.9999978027344,0|0,0:0|1:0,0:0:0:0:
306,181,108761,2,0,P|251:241|184:240,1,143.999995605469,8|0,0:0|0:0,0:0:0:0:
192,242,109367,6,0,P|174:151|161:100,1,143.999995605469,0|0,1:0|0:0,0:0:0:0:
71,2,109822,1,0,1:0:0:0:
18,60,109973,2,0,P|51:81|85:81,2,71.9999978027344,10|2|2,0:0|0:0|0:0,0:0:0:0:
173,113,110428,2,0,P|230:67|314:71,2,143.999995605469,2|2|2,1:2|1:2|1:2,0:0:0:0:
19,231,111186,2,0,P|59:235|91:259,1,71.9999978027344,10|2,0:0|1:2,0:0:0:0:
140,308,111489,1,0,2:0:0:0:
391,374,111792,6,0,B|419:360|419:360|456:299|405:240,1,143.999995605469,0|0,1:2|0:0,0:0:0:0:
318,189,112246,1,0,1:0:0:0:
318,189,112322,1,0,1:0:0:0:
318,189,112398,2,0,B|351:201|351:201|389:174,1,71.9999978027344,8|0,0:0|0:0,0:0:0:0:
336,285,112701,1,2,0:0:0:0:
473,186,112852,6,0,P|481:142|490:102,1,71.9999978027344,0|0,1:2|0:0,0:0:0:0:
473,186,113155,1,0,1:0:0:0:
347,19,113307,2,0,P|354:54|361:89,1,71.9999978027344,0|0,3:2|1:0,0:0:0:0:
256,273,113610,5,8,0:0:0:0:
178,258,113761,1,0,1:0:0:0:
99,243,113913,1,0,1:2:0:0:
99,243,114216,6,0,P|58:166|103:86,1,176.000005371094,4|8,1:0|0:0,0:0:0:0:
97,257,114670,2,0,P|48:184|69:101,1,176.000005371094,4|8,1:2|0:0,0:0:0:0:
185,40,115125,2,0,B|183:69|183:69|182:70|182:70|182:76|182:76|177:131,1,88.000002685547,4|2,1:0|0:0,0:0:0:0:
413,243,115428,6,0,P|454:166|409:86,1,176.000005371094,4|8,1:0|0:0,0:0:0:0:
415,257,115882,2,0,P|464:184|443:101,1,176.000005371094,4|8,1:2|0:0,0:0:0:0:
324,40,116337,1,4,1:2:0:0:
242,289,116640,6,0,P|330:269|419:256,1,176.000005371094,4|8,1:0|0:0,0:0:0:0:
238,304,117095,2,0,P|326:284|415:271,1,176.000005371094,4|8,1:0|0:0,0:0:0:0:
234,318,117549,2,0,P|278:308|321:300,1,88.000002685547,4|2,1:2|0:0,0:0:0:0:
106,384,117852,5,10,0:0:0:0:
47,289,118004,1,0,1:0:0:0:
195,144,118155,5,8,1:2:0:0:
158,284,118307,1,4,1:0:0:0:
158,284,119064,6,0,P|151:243|143:200,1,80,4|2,1:0|0:0,0:0:0:0:
26,43,119367,1,8,0:0:0:0:
1,119,119519,1,0,1:0:0:0:
144,205,119670,1,8,0:0:0:0:
229,62,119822,1,0,1:0:0:0:
167,12,119973,1,8,0:0:0:0:
212,151,120125,6,0,P|255:139|293:131,1,80,4|0,1:0|0:0,0:0:0:0:
432,16,120428,2,0,P|420:59|408:96,1,80,2|0,1:2|0:0,0:0:0:0:
441,277,120731,1,2,1:2:0:0:
441,277,120883,6,0,P|410:247|382:216,2,85.3333333333333,8|8|2,3:0|3:0|3:0,0:0:0:0:
336,310,121489,6,0,P|296:318|258:329,1,80,4|2,1:0|0:0,0:0:0:0:
106,264,121792,1,8,0:0:0:0:
32,228,121943,1,0,1:0:0:0:
93,384,122095,1,8,0:0:0:0:
198,253,122246,1,0,1:0:0:0:
34,310,122398,1,8,0:0:0:0:
188,384,122549,6,0,P|227:372|267:362,1,80,4|0,1:0|0:0,0:0:0:0:
430,240,122852,2,0,P|391:228|351:218,1,80,2|0,1:2|0:0,0:0:0:0:
163,120,123155,1,2,1:2:0:0:
163,120,123458,2,0,P|182:114|202:109,3,40,2|0|2|0,0:0|0:0|0:0|0:0,0:0:0:0:
223,0,123761,6,0,P|273:47|377:44,1,160,4|0,1:0|0:0,0:0:0:0:
512,22,124216,2,0,P|465:48|455:90,1,80,0|2,1:0|0:0,0:0:0:0:
392,207,124519,2,0,P|375:104|359:48,1,160,2|0,1:2|1:0,0:0:0:0:
279,85,124973,1,2,0:0:0:0:
135,196,125125,6,0,P|201:178|267:167,1,120,2|0,1:2|0:0,0:0:0:0:
269,178,125428,1,0,1:0:0:0:
136,111,125580,2,0,P|101:67|100:33,1,80,2|0,0:0|1:0,0:0:0:0:
53,226,125883,1,2,0:0:0:0:
53,226,126034,2,0,P|46:263|40:308,1,80,0|0,1:0|0:0,0:0:0:0:
259,381,126337,5,2,1:2:0:0:
178,380,126489,2,0,P|187:341|215:313,1,80,2|8,0:0|0:0,0:0:0:0:
360,219,126792,2,0,P|351:291|341:384,1,160,2|0,0:2|1:0,0:0:0:0:
257,222,127246,2,0,P|222:177|225:112,1,120,2|0,1:2|0:0,0:0:0:0:
291,63,127549,6,0,L|339:72,1,40,8|8,0:0|0:0,0:0:0:0:
204,120,127701,1,8,0:0:0:0:
184,123,127776,1,8,0:0:0:0:
164,127,127852,1,8,0:0:0:0:
145,131,127928,1,8,0:0:0:0:
125,136,128004,6,0,B|63:130|11:113|11:113|53:142|50:188,1,191.999994140625,4|8,1:0|0:0,0:0:0:0:
50,175,128610,6,0,B|50:207|26:228|26:228|8:288|52:331,1,167.999994873047,12|0,1:0|0:0,0:0:0:0:
166,384,129064,2,0,P|172:329|178:294,1,83.9999974365235,8|2,0:0|0:0,0:0:0:0:
409,227,129367,2,0,P|403:172|397:137,1,83.9999974365235,2|2,1:2|1:2,0:0:0:0:
296,82,129670,1,8,0:0:0:0:
234,144,129822,6,0,P|275:170|314:170,1,83.9999974365235,2|0,0:0|0:0,0:0:0:0:
357,30,130125,2,0,P|313:52|294:86,1,83.9999974365235,0|8,1:0|0:0,0:0:0:0:
394,193,130428,1,2,0:0:0:0:
394,193,130504,1,2,0:0:0:0:
394,193,130580,2,0,P|396:144|376:110,1,83.9999974365235,2|2,1:2|1:2,0:0:0:0:
379,114,130807,1,0,1:2:0:0:
379,114,130883,1,10,0:0:0:0:
219,236,131034,6,0,P|141:251|53:264,1,167.999994873047,4|0,1:0|1:0,0:0:0:0:
111,343,131489,2,0,P|152:336|193:329,1,83.9999974365235,8|2,0:0|0:0,0:0:0:0:
300,167,131792,1,2,1:2:0:0:
219,236,131943,1,0,1:2:0:0:
320,272,132095,1,8,0:0:0:0:
199,131,132246,6,0,P|191:93|183:46,1,83.9999974365235,4|0,1:0|0:0,0:0:0:0:
320,272,132549,2,0,P|328:234|336:187,1,83.9999974365235,2|0,1:2|0:0,0:0:0:0:
151,384,132852,2,0,P|143:346|135:299,1,83.9999974365235,2|0,1:2|1:0,0:0:0:0:
371,380,133155,1,0,1:0:0:0:
371,380,133307,1,8,0:0:0:0:
454,329,133458,6,0,P|470:250|487:152,1,167.999994873047,12|0,1:0|1:0,0:0:0:0:
448,76,133913,2,0,B|414:47|414:47|436:90,1,83.9999974365235,8|2,0:0|0:0,0:0:0:0:
335,189,134216,2,0,B|252:169|258:232|174:211,1,167.999994873047,0|8,0:0|0:0,0:0:0:0:
69,376,134670,1,2,0:0:0:0:
156,375,134822,6,0,P|93:338|89:214,1,167.999994873047,2|8,1:2|0:0,0:0:0:0:
78,65,135277,2,0,P|88:111|97:156,1,83.9999974365235,2|0,0:0|1:0,0:0:0:0:
308,270,135580,1,2,1:2:0:0:
218,297,135731,2,0,P|230:234|244:171,1,125.999996154785,8|0,2:0|0:0,0:0:0:0:
311,128,136034,6,0,P|367:183|461:170,1,167.999994873047,12|8,1:0|0:0,0:0:0:0:
499,99,136489,1,0,1:0:0:0:
398,15,136640,2,0,P|409:56|417:102,1,83.9999974365235,0|0,1:0|1:0,0:0:0:0:
314,245,136943,2,0,P|305:286|298:328,1,83.9999974365235,8|0,2:0|0:0,0:0:0:0:
234,88,137246,5,12,1:0:0:0:
151,71,137398,1,0,1:2:0:0:
37,250,137549,5,8,0:0:0:0:
120,233,137701,1,0,1:0:0:0:
132,235,137777,1,0,1:2:0:0:
144,237,137852,2,0,L|238:221,1,83.9999974365235,8|8,0:0|0:0,0:0:0:0:
65,174,138080,1,8,0:0:0:0:
65,174,138155,2,0,L|51:131,3,41.9999987182618,8|8|8|8,0:0|0:0|0:0|0:0,0:0:0:0:
144,237,138458,6,0,L|126:377,1,128,4|0,1:0|1:0,0:0:0:0:
153,242,139064,2,0,L|135:382,1,128,0|0,1:0|1:0,0:0:0:0:
240,176,139670,5,0,1:0:0:0:
343,206,139822,1,8,0:0:0:0:
343,206,139898,1,8,0:0:0:0:
343,206,139973,1,8,0:0:0:0:
262,81,140125,1,4,1:3:0:0:
357,103,140277,6,0,P|374:59|392:24,2,85.3333333333333,8|4|8,0:0|1:3|0:0,0:0:0:0:
211,51,140883,6,0,P|225:106|243:194,1,128,4|0,1:0|1:0,0:0:0:0:
202,55,141489,2,0,P|216:110|234:198,1,128,0|0,1:0|1:0,0:0:0:0:
363,313,142095,5,0,1:0:0:0:
363,313,142246,1,8,0:0:0:0:
457,338,142398,1,8,0:0:0:0:
482,244,142549,1,4,1:3:0:0:
388,219,142701,6,0,P|374:172|366:131,1,85.3333333333333,8|4,0:0|1:3,0:0:0:0:
281,140,143004,1,0,1:0:0:0:
281,140,143105,2,0,P|286:169|290:182,1,42.6666666666667,8|0,0:0|1:0,0:0:0:0:
263,292,143307,6,0,P|227:339|118:340,1,143.999995605469,4|0,1:0|1:0,0:0:0:0:
146,352,143761,1,2,0:0:0:0:
49,273,143913,2,0,B|20:190|20:190|39:213|70:217,1,143.999995605469,4|0,1:0|1:0,0:0:0:0:
82,136,144367,1,2,1:2:0:0:
237,188,144519,6,0,P|337:170|453:154,1,215.999993408203,4|0,1:0|0:0,0:0:0:0:
208,109,145125,2,0,P|335:86|463:68,1,240,2|2,1:2|0:0,0:0:0:0:
512,124,145731,6,0,P|519:159|500:202,1,80,12|0,1:2|1:0,0:0:0:0:
354,279,146034,2,0,B|351:258|351:258|349:253|349:253|349:248|349:248|342:186,1,80,8|0,0:2|1:0,0:0:0:0:
477,317,146337,1,8,0:0:0:0:
477,317,146489,1,0,1:0:0:0:
323,384,146640,2,0,P|289:365|240:362,1,80,8|0,0:2|1:0,0:0:0:0:
41,341,146943,6,0,P|100:341|177:270,1,160,10|8,0:2|0:2,0:0:0:0:
316,113,147398,1,0,1:0:0:0:
343,199,147549,2,0,P|306:195|264:187,1,80,8|0,0:0|1:0,0:0:0:0:
105,93,147852,2,0,P|142:89|184:81,1,80,8|0,0:2|1:2,0:0:0:0:
385,61,148155,6,0,B|411:54|430:28|430:28|404:144,1,160,4|8,1:0|0:0,0:0:0:0:
262,255,148610,1,0,1:0:0:0:
354,278,148761,2,0,L|342:196,1,80,8|0,0:0|1:0,0:0:0:0:
449,305,149064,1,8,0:0:0:0:
449,305,149216,1,0,1:2:0:0:
262,255,149367,6,0,B|187:247|194:310|99:304,1,160,14|8,1:2|0:0,0:0:0:0:
168,196,149822,1,0,1:0:0:0:
168,196,149973,2,0,P|162:152|184:127,1,80,8|0,0:0|1:0,0:0:0:0:
253,339,150276,2,0,P|296:347|336:361,1,80,10|0,0:0|1:0,0:0:0:0:
493,289,150580,6,0,P|501:246|515:206,1,80,12|0,1:2|1:2,0:0:0:0:
373,90,150883,2,0,P|365:133|351:173,1,80,8|0,0:0|1:0,0:0:0:0:
489,135,151186,1,8,0:0:0:0:
489,135,151337,1,0,1:0:0:0:
385,249,151489,1,8,0:0:0:0:
385,249,151640,1,0,1:0:0:0:
248,179,151792,6,0,P|166:163|85:155,1,160,14|8,1:2|0:0,0:0:0:0:
58,72,152246,1,2,1:2:0:0:
159,0,152398,2,0,P|149:46|141:88,1,80,8|0,0:0|1:0,0:0:0:0:
17,222,152701,2,0,P|9:182|0:143,1,80,10|0,0:2|1:0,0:0:0:0:
155,277,153004,6,0,B|238:263|236:319|320:304,1,160,14|8,1:2|0:0,0:0:0:0:
447,199,153458,1,0,1:0:0:0:
401,126,153610,2,0,P|369:159|360:195,1,80,14|0,1:2|0:0,0:0:0:0:
411,354,153913,2,0,P|400:297|393:262,1,80,8|0,0:0|1:0,0:0:0:0:
203,159,154216,5,10,0:0:0:0:
203,159,154367,1,8,2:2:0:0:
274,210,154519,2,0,P|285:153|292:118,1,80,0|0,1:0|1:0,0:0:0:0:
235,9,154822,2,0,P|225:60|218:92,1,64,8|4,3:0|3:0,0:0:0:0:
135,95,155125,2,0,P|139:72|143:49,3,32,0|0|0|0,1:2|1:2|1:2|1:2,0:0:0:0:
51,128,155428,6,0,P|58:169|69:221,1,80,12|0,1:0|0:0,0:0:0:0:
177,321,155731,2,0,P|183:281|191:242,1,80,8|0,0:0|1:0,0:0:0:0:
88,354,156034,1,8,0:0:0:0:
88,354,156186,1,0,1:0:0:0:
272,295,156337,2,0,B|316:296|311:314|362:316,1,80,8|0,0:0|1:2,0:0:0:0:
431,134,156640,6,0,P|353:170|370:243,1,160,14|8,1:2|0:0,0:0:0:0:
445,363,157095,1,2,1:2:0:0:
445,363,157246,2,0,B|442:342|442:342|440:337|440:337|440:332|440:332|433:270,1,80,8|0,0:0|1:0,0:0:0:0:
261,215,157549,2,0,B|264:236|264:236|266:241|266:241|266:246|266:246|273:308,1,80,10|0,0:0|1:2,0:0:0:0:
123,378,157852,6,0,B|19:356|19:356|52:353|71:326,1,160,14|8,1:2|0:0,0:0:0:0:
155,175,158307,1,0,1:0:0:0:
182,262,158458,2,0,P|139:253|103:247,1,80,8|0,0:0|1:0,0:0:0:0:
24,179,158761,1,8,0:0:0:0:
24,179,158913,1,0,1:0:0:0:
145,73,159064,6,0,P|224:54|321:36,1,160,14|8,1:2|0:0,0:0:0:0:
488,107,159519,1,2,1:2:0:0:
433,44,159670,2,0,P|409:79|408:124,1,80,10|0,0:0|1:0,0:0:0:0:
509,244,159973,2,0,P|490:205|452:182,1,80,10|0,0:0|1:2,0:0:0:0:
320,122,160276,6,0,P|282:135|238:144,1,80,14|0,0:0|1:2,0:0:0:0:
397,269,160580,2,0,P|384:231|375:187,1,80,8|0,0:0|1:0,0:0:0:0:
250,346,160883,1,8,0:0:0:0:
250,346,161034,1,0,1:0:0:0:
173,199,161186,1,8,0:0:0:0:
173,199,161337,1,0,1:0:0:0:
26,276,161489,6,0,B|66:304|66:304|176:280,1,160,14|8,0:0|0:0,0:0:0:0:
90,138,161943,1,2,1:2:0:0:
90,138,162095,2,0,B|69:175|69:175|89:217,1,80,8|0,0:0|1:0,0:0:0:0:
250,346,162398,2,0,B|253:325|253:325|253:320|253:320|255:315|255:315|263:252,1,80,10|0,0:0|1:0,0:0:0:0:
379,91,162701,6,0,P|331:162|265:152,1,160,14|10,1:2|0:0,0:0:0:0:
266,152,163155,1,0,1:0:0:0:
444,165,163307,2,0,P|486:174|517:206,1,80,14|0,1:2|0:0,0:0:0:0:
356,251,163610,1,10,0:0:0:0:
356,251,163761,1,0,1:0:0:0:
512,344,163913,5,14,0:0:0:0:
512,344,164064,1,0,1:0:0:0:
423,384,164216,2,0,P|431:317|441:245,1,120,8|0,0:0|0:0,0:0:0:0:
347,335,164519,6,0,P|323:339|295:345,2,53.3333333333333,10|8|8,0:0|0:0|0:0,0:0:0:0:
233,290,164822,2,0,P|206:284|180:279,2,53.3333333333333,10|4|4,3:0|3:0|3:0,0:0:0:0:
127,336,165125,6,0,P|77:337|169:208,1,368,4|0,1:2|0:0,0:0:0:0:
167,205,166943,2,0,P|216:146|290:156,1,143.999995605469,4|0,1:0|0:0,0:0:0:0:
341,98,167549,6,0,P|343:80|348:69,1,23.9999992675781,8|0,0:0|1:0,0:0:0:0:
333,87,167701,2,0,P|335:69|340:58,1,23.9999992675781,0|0,1:0|1:0,0:0:0:0:
471,6,167852,6,0,P|443:141|409:311,1,304,4|0,1:2|0:0,0:0:0:0:
410,303,169367,2,0,P|386:309|363:322,3,47.9999985351563,4|0|2|2,1:2|0:0|0:0|0:0,0:0:0:0:
285,265,169973,6,0,P|288:243|291:223,2,31.9999990234375,2|2|2,0:0|0:0|0:0,0:0:0:0:
242,293,170276,6,0,P|239:308|237:324,2,31.9999990234375,2|2|2,0:0|0:0|0:0,0:0:0:0:
188,234,170580,6,0,P|217:178|116:205,1,240,4|0,1:0|0:0,0:0:0:0:
115,202,171792,2,0,P|54:225|56:140,1,167.999994873047,4|0,1:0|0:0,0:0:0:0:
45,146,172398,6,0,B|51:102|16:50|16:50|155:17|140:106|275:98,1,368,4|0,1:2|0:0,0:0:0:0:
269,98,174216,2,0,P|303:74|338:69,1,64,4|2,1:0|2:0,0:0:0:0:
436,11,174822,6,0,L|430:39,1,23.9999992675781,2|0,1:2|1:0,0:0:0:0:
451,6,174973,2,0,L|445:34,1,23.9999992675781,10|10,0:2|0:2,0:0:0:0:
333,154,175125,5,4,1:0:0:0:
333,154,175428,1,8,0:0:0:0:
457,214,175579,2,0,P|426:207|394:203,1,55.9999982910157,2|0,2:2|0:0,0:0:0:0:
292,281,175882,2,0,P|323:274|355:270,1,55.9999982910157,2|0,0:0|0:0,0:0:0:0:
232,149,176185,6,0,P|193:175|195:238,1,111.999996582031,8|0,0:0|1:0,0:0:0:0:
33,303,176640,1,10,0:0:0:0:
104,384,176791,2,0,P|112:318|115:267,1,111.999996582031,0|2,1:0|0:0,0:0:0:0:
48,216,177246,2,0,P|42:189|37:159,1,55.9999982910157,8|8,0:0|0:0,0:0:0:0:
37,161,177473,1,8,0:0:0:0:
37,161,177549,5,4,1:0:0:0:
205,28,177852,1,8,0:0:0:0:
139,96,178003,2,0,P|199:107|260:121,1,111.999996582031,2|0,0:0|1:0,0:0:0:0:
324,70,178458,1,8,0:0:0:0:
365,191,178609,6,0,P|344:133|322:64,1,128,4|0,1:0|0:0,0:0:0:0:
406,28,179064,1,8,0:0:0:0:
453,165,179215,2,0,P|430:102|406:26,1,143.999995605469,4|0,1:2|0:0,0:0:0:0:
254,144,179670,6,0,P|259:161|266:179,2,37.3333321940105,10|8|8,0:0|0:0|0:0,0:0:0:0:
191,87,179973,1,12,3:0:0:0:
191,87,180074,2,0,P|196:69|203:51,1,37.3333321940105,12|8,3:0|3:0,0:0:0:0:
173,167,180276,5,4,1:0:0:0:
19,142,180427,2,0,B|102:120|102:183|178:165,1,160,2|2,0:0|1:2,0:0:0:0:
254,144,180882,1,0,0:0:0:0:
149,252,181033,1,8,0:0:0:0:
226,292,181185,2,0,P|233:245|238:211,1,64,2|0,0:0|1:0,0:0:0:0:
25,317,181488,6,0,P|101:328|163:341,1,128,8|2,0:2|0:0,0:0:0:0:
151,338,182094,1,0,1:0:0:0:
312,307,182245,1,8,0:0:0:0:
236,355,182397,2,0,P|229:310|221:274,1,64,2|0,2:0|1:0,0:0:0:0:
403,247,182700,6,0,P|394:304|385:382,1,128,8|0,0:0|1:0,0:0:0:0:
312,307,183154,1,8,0:0:0:0:
473,355,183306,1,2,1:2:0:0:
473,355,183457,2,0,P|476:323|481:291,1,64,10|2,0:0|1:2,0:0:0:0:
332,201,183760,1,8,0:0:0:0:
332,201,183836,1,8,0:0:0:0:
332,201,183912,5,8,0:0:0:0:
407,132,184063,1,8,3:0:0:0:
407,132,184215,2,0,P|415:183|421:236,1,96,0|0,1:0|0:0,0:0:0:0:
353,292,184519,6,0,P|263:276|173:265,1,160,14|0,0:0|1:0,0:0:0:0:
58,375,184973,2,0,P|103:367|148:361,1,80,8|0,0:0|1:0,0:0:0:0:
211,175,185276,1,0,1:0:0:0:
125,200,185428,2,0,P|117:245|111:290,1,80,8|0,0:0|1:0,0:0:0:0:
297,144,185731,6,0,P|307:46|252:9,1,160,12|0,0:0|1:0,0:0:0:0:
68,99,186185,2,0,P|113:107|158:112,1,80,12|0,0:2|1:0,0:0:0:0:
291,237,186488,1,0,1:0:0:0:
202,307,186640,2,0,P|157:315|112:320,1,80,8|0,0:0|1:2,0:0:0:0:
291,237,186943,6,0,P|369:222|465:209,1,160,12|0,0:0|1:0,0:0:0:0:
219,295,187397,2,0,P|202:257|206:207,1,80,8|0,0:0|1:0,0:0:0:0:
304,323,187700,1,0,1:0:0:0:
120,186,187852,2,0,P|144:152|189:130,1,80,8|0,0:0|1:0,0:0:0:0:
435,80,188155,5,12,0:0:0:0:
262,154,188306,1,0,1:0:0:0:
309,31,188458,1,0,1:0:0:0:
309,31,188609,1,0,1:0:0:0:
386,202,188761,5,8,0:0:0:0:
386,202,188912,1,0,1:0:0:0:
304,323,189064,2,0,P|293:275|285:241,1,71.9999978027344,0|0,1:0|1:0,0:0:0:0:
375,377,189367,5,2,0:0:0:0:
345,278,197852,5,10,1:2:0:0:
345,278,198003,2,0,P|328:251|331:222,1,47.9999985351563,10|0,0:0|0:0,0:0:0:0:
432,88,198306,6,0,P|419:155|409:237,1,143.999995605469,4|8,1:0|1:2,0:0:0:0:
409,230,198912,6,0,P|355:160|272:178,1,167.999994873047,12|0,1:0|0:0,0:0:0:0:
183,317,199367,2,0,P|227:301|254:259,1,83.9999974365235,8|2,0:0|0:0,0:0:0:0:
187,107,199670,2,0,P|179:150|172:195,1,83.9999974365235,2|2,1:2|1:2,0:0:0:0:
35,206,199973,1,8,0:0:0:0:
108,357,200125,6,0,P|101:315|93:274,1,83.9999974365235,2|0,0:0|0:0,0:0:0:0:
187,107,200428,2,0,P|179:150|172:195,1,83.9999974365235,2|0,1:2|1:0,0:0:0:0:
266,357,200731,1,2,1:2:0:0:
266,357,200806,1,2,1:2:0:0:
266,357,200882,2,0,P|259:315|251:274,1,83.9999974365235,2|2,1:2|1:2,0:0:0:0:
332,89,201185,1,10,0:0:0:0:
422,124,201337,6,0,P|360:177|278:169,1,167.999994873047,4|0,1:0|1:0,0:0:0:0:
172,189,201791,2,0,P|179:148|187:107,1,83.9999974365235,8|2,0:0|0:0,0:0:0:0:
150,297,202094,1,0,1:0:0:0:
252,274,202246,1,0,1:0:0:0:
172,189,202397,1,8,0:0:0:0:
68,315,202549,6,0,P|116:303|151:296,1,83.9999974365235,2|0,1:2|0:0,0:0:0:0:
187,106,202852,2,0,P|227:116|268:124,1,83.9999974365235,2|0,1:2|0:0,0:0:0:0:
384,224,203155,2,0,P|432:212|467:205,1,83.9999974365235,2|0,1:2|0:0,0:0:0:0:
287,291,203458,1,0,1:0:0:0:
287,291,203533,1,0,1:2:0:0:
287,291,203609,1,8,0:0:0:0:
287,291,203685,1,8,0:0:0:0:
287,291,203761,6,0,P|273:171|267:103,1,167.999994873047,12|0,1:0|1:0,0:0:0:0:
387,43,204215,2,0,P|378:84|370:125,1,83.9999974365235,8|2,0:0|0:0,0:0:0:0:
179,188,204519,2,0,P|111:142|8:158,1,167.999994873047,0|8,1:0|0:0,0:0:0:0:
80,321,204973,1,2,0:0:0:0:
154,273,205125,6,0,P|72:279|4:233,1,167.999994873047,2|8,1:2|0:0,0:0:0:0:
179,188,205579,2,0,P|212:159|263:156,1,83.9999974365235,2|0,0:0|2:0,0:0:0:0:
318,337,205882,1,2,1:2:0:0:
231,365,206034,2,0,P|244:272|250:237,1,125.999996154785,8|0,2:0|0:0,0:0:0:0:
330,194,206337,6,0,B|419:164|417:238|521:213,1,167.999994873047,12|8,1:0|0:0,0:0:0:0:
407,74,206791,1,0,1:0:0:0:
490,54,206943,2,0,P|480:94|472:147,1,83.9999974365235,0|0,1:0|0:0,0:0:0:0:
369,269,207246,2,0,P|379:309|385:351,1,83.9999974365235,8|0,0:0|1:2,0:0:0:0:
385,351,207473,1,0,1:2:0:0:
385,351,207549,5,2,1:2:0:0:
249,240,207700,1,0,1:2:0:0:
129,358,207852,1,8,0:0:0:0:
218,384,208003,1,8,0:0:0:0:
218,384,208079,1,8,0:0:0:0:
218,384,208155,2,0,P|205:330|199:299,1,83.9999974365235,10|14,0:0|0:2,0:0:0:0:
199,302,208609,6,0,P|214:198|224:116,1,167.999994873047,12|0,1:0|1:0,0:0:0:0:
97,244,209064,2,0,P|103:202|108:160,1,83.9999974365235,8|2,0:0|0:0,0:0:0:0:
313,271,209367,2,0,P|320:229|325:187,1,83.9999974365235,2|0,1:2|1:0,0:0:0:0:
490,164,209670,1,8,0:0:0:0:
390,50,209822,6,0,P|396:91|401:133,1,83.9999974365235,2|0,1:2|0:0,0:0:0:0:
489,258,210125,2,0,P|449:242|411:226,1,83.9999974365235,2|0,1:2|0:0,0:0:0:0:
259,239,210428,1,2,1:2:0:0:
259,239,210503,1,2,0:0:0:0:
259,239,210579,2,0,P|291:212|325:187,1,83.9999974365235,2|2,0:0|1:2,0:0:0:0:
401,133,210882,1,10,0:2:0:0:
235,12,211034,6,0,P|189:62|220:161,1,167.999994873047,4|0,1:0|1:0,0:0:0:0:
149,317,211488,2,0,P|160:269|172:231,1,83.9999974365235,8|2,0:0|0:0,0:0:0:0:
0,103,211791,1,0,1:0:0:0:
26,205,211943,1,0,1:0:0:0:
54,307,212094,1,8,0:0:0:0:
244,321,212246,6,0,P|283:306|325:293,1,83.9999974365235,2|0,1:2|0:0,0:0:0:0:
186,153,212549,2,0,P|179:194|169:237,1,83.9999974365235,2|0,1:2|0:0,0:0:0:0:
360,186,212852,2,0,P|327:159|295:129,1,83.9999974365235,2|0,1:2|0:0,0:0:0:0:
474,107,213155,1,0,1:0:0:0:
474,107,213231,1,0,1:2:0:0:
474,107,213306,1,8,0:0:0:0:
474,107,213382,1,8,2:2:0:0:
474,107,213458,6,0,P|459:181|440:292,1,167.999994873047,4|0,1:0|0:0,0:0:0:0:
338,376,213912,2,0,P|330:334|322:293,1,83.9999974365235,8|2,0:0|0:0,0:0:0:0:
195,200,214215,2,0,P|143:267|53:268,1,167.999994873047,0|8,1:0|0:0,0:0:0:0:
137,83,214670,1,2,0:0:0:0:
79,17,214822,6,0,P|91:100|103:183,1,167.999994873047,2|8,1:2|0:0,0:0:0:0:
269,302,215276,2,0,P|275:260|281:218,1,83.9999974365235,2|0,0:0|1:0,0:0:0:0:
462,113,215579,1,0,1:0:0:0:
451,29,215731,2,0,P|399:54|376:117,1,125.999996154785,8|0,0:0|0:0,0:0:0:0:
420,194,216034,6,0,P|429:251|448:380,1,167.999994873047,4|8,1:0|0:0,0:0:0:0:
256,304,216488,1,0,1:0:0:0:
349,331,216640,2,0,P|342:289|336:247,1,83.9999974365235,0|0,1:0|1:0,0:0:0:0:
163,331,216943,2,0,P|170:289|176:247,1,83.9999974365235,8|0,2:0|2:0,0:0:0:0:
336,247,217246,5,4,1:0:0:0:
349,331,217397,1,0,1:2:0:0:
163,331,217549,1,8,0:0:0:0:
176,247,217700,1,0,1:2:0:0:
256,112,217852,6,0,L|256:16,1,83.9999974365235,8|8,0:0|0:0,0:0:0:0:
256,192,218079,1,8,0:0:0:0:
256,192,218155,2,0,L|256:240,3,41.9999987182618,0|0|0|0,1:2|1:2|1:2|1:2,0:0:0:0:
256,308,218458,6,0,B|322:294|324:349|395:340,1,128,4|0,1:0|1:0,0:0:0:0:
252,317,219064,2,0,B|318:303|320:358|391:349,1,128,0|0,1:0|1:0,0:0:0:0:
122,361,219670,5,0,1:0:0:0:
28,346,219822,1,8,0:0:0:0:
28,346,219897,1,8,0:0:0:0:
28,346,219973,1,8,0:0:0:0:
144,260,220125,1,4,1:3:0:0:
43,238,220276,6,0,P|31:194|23:147,2,85.3333333333333,8|4|8,0:0|1:3|0:0,0:0:0:0:
148,126,220882,6,0,B|181:86|225:100|225:100|254:125|284:123,1,128,4|0,1:0|1:0,0:0:0:0:
153,111,221488,2,0,B|188:73|231:90|231:90|258:117|288:117,1,128,0|0,1:0|1:0,0:0:0:0:
480,27,222094,5,0,1:0:0:0:
480,27,222246,1,8,0:0:0:0:
390,13,222397,1,8,0:0:0:0:
377,102,222549,1,4,1:3:0:0:
466,116,222700,6,0,P|481:154|496:203,2,85.3333333333333,8|4|8,0:0|1:3|0:0,0:0:0:0:
404,242,223306,6,0,B|335:231|336:290|249:274,1,143.999995605469,4|0,1:0|1:0,0:0:0:0:
267,276,223761,1,2,0:0:0:0:
178,363,223912,2,0,P|125:293|143:217,1,143.999995605469,4|0,1:0|1:2,0:0:0:0:
195,182,224367,1,0,1:2:0:0:
93,58,224519,6,0,P|103:103|113:153,2,95.9999970703126,4|4|8,1:0|3:0|3:0,0:0:0:0:
205,161,225125,6,0,P|196:114|186:68,2,95.9999970703126,2|8|2,1:2|3:0|3:0,0:0:0:0:
48,256,225731,6,0,P|94:246|142:237,2,95.9999970703126,12|8|8,1:2|0:0|3:0,0:0:0:0:
165,320,226337,6,0,P|117:329|71:339,2,95.9999970703126,12|8|8,1:2|0:0|3:0,0:0:0:0:
309,198,226943,6,0,P|344:253|487:274,1,215.999993408203,12|0,1:0|0:0,0:0:0:0:
387,158,227549,6,0,B|340:152|303:185|316:205|279:241|230:232,1,180.000006866455,4|0,1:0|0:0,0:0:0:0:
147,190,228155,6,0,P|132:112|111:20,2,160,4|0|2,1:0|1:0|1:2,0:0:0:0:
53,331,228912,1,2,0:2:0:0:
53,331,229064,2,0,P|61:285|69:245,1,80,0|0,1:0|0:0,0:0:0:0:
205,306,229367,6,0,B|269:297|266:339|337:329,1,120,0|0,1:0|0:0,0:0:0:0:
335,316,229670,2,0,B|352:300|371:287|371:287|348:291|333:294,1,80,0|2,1:0|0:0,0:0:0:0:
482,384,229973,2,0,P|489:335|495:301,1,80,2|0,1:2|0:0,0:0:0:0:
331,209,230276,2,0,P|319:130|310:76,1,120,0|0,1:0|0:0,0:0:0:0:
226,172,230579,6,0,B|145:161|160:226|74:219,1,160,4|8,1:0|0:0,0:0:0:0:
0,106,231034,1,2,0:0:0:0:
76,50,231185,2,0,P|84:91|90:139,1,80,8|0,0:0|0:0,0:0:0:0:
199,333,231488,2,0,P|204:293|212:254,1,80,10|0,0:0|0:0,0:0:0:0:
9,264,231791,6,0,P|50:256|98:250,1,80,8|0,0:0|0:0,0:0:0:0:
292,141,232094,2,0,P|252:135|213:127,1,80,8|2,0:0|1:2,0:0:0:0:
343,265,232397,5,2,1:2:0:0:
473,166,232549,1,2,1:2:0:0:
395,94,232700,2,0,P|387:133|381:172,1,80,8|0,0:0|1:2,0:0:0:0:
437,249,232928,1,0,1:2:0:0:
437,249,233003,6,0,P|450:308|462:389,1,120,4|0,1:0|0:0,0:0:0:0:
368,357,233306,2,0,B|328:352|327:368|285:368,1,80,8|2,0:0|0:0,0:0:0:0:
209,220,233609,1,8,0:0:0:0:
209,220,233761,1,0,1:0:0:0:
137,295,233912,2,0,B|177:290|178:306|220:306,1,80,8|0,0:0|0:0,0:0:0:0:
157,143,234197,6,0,P|150:109|142:82,2,53.3333333333333,8|8|8,1:2|3:0|3:0,0:0:0:0:
70,139,234500,2,0,P|37:128|9:121,2,53.3333333333333,4|2|2,3:0|3:0|3:0,0:0:0:0:
209,220,234803,6,0,P|352:193|508:175,1,280,4|0,1:0|0:0,0:0:0:0:
504,192,235409,5,4,1:1:0:0:
256,192,235484,12,0,237378,0:0:0:0:
304,96,237530,5,10,1:2:0:0:
208,288,237681,1,14,1:2:0:0:
