osu file format v14

[General]
AudioFilename: audio.mp3
AudioLeadIn: 0
PreviewTime: 50731
Countdown: 0
SampleSet: Soft
StackLeniency: 0.4
Mode: 0
LetterboxInBreaks: 0
WidescreenStoryboard: 1

[Editor]
Bookmarks: 9973,29367,39064,51186,70580,77852,87549,97246,106943,119064,138458,145731,165125,175428,184518,189366,197851,198911,218457,237700
DistanceSpacing: 1.3
BeatDivisor: 4
GridSize: 16
TimelineZoom: 1.6

[Metadata]
Title:OveR
TitleUnicode:OveR
Artist:Tomita Miyu
ArtistUnicode:富田美憂
Creator:pnky
Version:HarD
Source:デート・ア・ライブⅣ
Tags:4 時崎狂三 tokisaki kurumi 坂部剛 dal date a live 4th season j rock j pop female vocal vocalist anime op opening kadokawa japanese jpop j-pop pop season full size version rock j-rock jrock l1ght_u light_u -hitomi
BeatmapID:3829896
BeatmapSetID:1862561

[Difficulty]
HPDrainRate:4.5
CircleSize:4
OverallDifficulty:6
ApproachRate:7.8
SliderMultiplier:1.42
SliderTickRate:1

[Events]
//Background and Video events
0,0,"68455016_p0.jpg",0,0
//Break Periods
2,19719,28155
2,87749,96034
2,189567,196640
//Storyboard Layer 0 (Background)
//Storyboard Layer 1 (Fail)
//Storyboard Layer 2 (Pass)
//Storyboard Layer 3 (Foreground)
//Storyboard Layer 4 (Overlay)
//Storyboard Sound Samples

[TimingPoints]
277,303.030303030303,4,2,69,40,1,0
277,-250.000000000001,4,2,69,40,0,0
2095,-250.000000000001,4,2,68,40,0,0
2701,-250.000000000001,4,2,69,40,0,0
3155,-250.000000000001,4,2,68,40,0,0
3610,-250.000000000001,4,2,69,40,0,0
5125,-250.000000000001,4,2,69,40,0,0
6943,-250.000000000001,4,2,68,40,0,0
7549,-250.000000000001,4,2,69,40,0,0
9367,-250.000000000001,4,2,1,40,0,0
9973,-105.263157894737,4,2,3,60,0,0
10277,-105.263157894737,4,2,1,70,0,0
11716,-105.263157894737,4,2,1,5,0,0
11792,-105.263157894737,4,2,1,70,0,0
19216,-105.263157894737,4,2,1,70,0,0
19367,-105.263157894737,4,2,1,70,0,0
19519,-105.263157894737,4,2,1,70,0,0
29367,-125,4,2,1,50,0,0
33610,-125,4,2,69,50,0,0
34216,-125,4,2,68,50,0,0
34822,-125,4,2,1,50,0,0
38004,-125,4,2,1,50,0,0
38458,-125,4,2,68,50,0,0
38761,-125,4,2,1,50,0,0
39064,-111.111111111111,4,2,1,60,0,0
46337,-105.263157894737,4,2,1,65,0,0
50731,-105.263157894737,4,2,1,45,0,0
51186,-100,4,2,1,75,0,0
52246,-100,4,2,1,75,0,0
54670,-100,4,2,1,75,0,0
55883,-100,4,2,1,75,0,0
56943,-100,4,2,1,75,0,0
57095,-100,4,2,1,75,0,0
57928,-100,4,2,1,5,0,0
58004,-100,4,2,1,75,0,0
58458,-100,4,2,1,75,0,0
59670,-100,4,2,1,75,0,0
60428,-100,4,2,1,75,0,0
60731,-95.2380952380952,4,2,1,80,0,1
62170,-95.2380952380952,4,2,1,5,0,1
62246,-95.2380952380952,4,2,1,80,0,1
64595,-95.2380952380952,4,2,1,5,0,1
64670,-95.2380952380952,4,2,1,80,0,1
67170,-95.2380952380952,4,2,1,5,0,1
67246,-95.2380952380952,4,2,1,80,0,1
68080,-95.2380952380952,4,2,1,5,0,1
68155,-95.2380952380952,4,2,1,80,0,1
70277,-95.2380952380952,4,2,1,80,0,1
70580,-117.647058823529,4,2,1,65,0,0
75428,-111.111111111111,4,2,1,65,0,0
77170,-111.111111111111,4,2,1,5,0,0
77246,-111.111111111111,4,2,1,65,0,0
77852,-105.263157894737,4,2,1,70,0,0
79292,-105.263157894737,4,2,1,5,0,0
79367,-105.263157894737,4,2,1,70,0,0
79973,-105.263157894737,4,2,1,70,0,0
84443,-105.263157894737,4,2,1,5,0,0
84519,-105.263157894737,4,2,1,70,0,0
85125,-105.263157894737,4,2,1,75,0,0
87549,-105.263157894737,4,2,2,50,0,0
97246,-125,4,2,69,40,0,0
97398,-125,4,2,1,40,0,0
98458,-125,4,2,69,40,0,0
98610,-125,4,2,1,40,0,0
101489,-125,4,2,69,40,0,0
101792,-125,4,2,68,40,0,0
102095,-125,4,2,69,40,0,0
102398,-125,4,2,1,40,0,0
103307,-125,4,2,69,40,0,0
103458,-125,4,2,1,40,0,0
106034,-125,4,2,1,40,0,0
106337,-125,4,2,69,40,0,0
106640,-125,4,2,68,50,0,0
106943,-111.111111111111,4,2,1,55,0,0
114216,-105.263157894737,4,2,1,55,0,0
118610,-105.263157894737,4,2,1,45,0,0
119064,-100,4,2,1,75,0,0
123761,-100,4,2,1,75,0,0
125807,-100,4,2,1,5,0,0
125883,-100,4,2,1,75,0,0
126337,-100,4,2,1,75,0,0
128307,-100,4,2,1,75,0,0
128610,-95.2380952380952,4,2,1,80,0,1
130049,-95.2380952380952,4,2,1,5,0,1
130125,-95.2380952380952,4,2,1,80,0,1
132473,-95.2380952380952,4,2,1,5,0,1
132549,-95.2380952380952,4,2,1,80,0,1
135049,-95.2380952380952,4,2,1,5,0,1
135125,-95.2380952380952,4,2,1,80,0,1
135958,-95.2380952380952,4,2,1,5,0,1
136034,-95.2380952380952,4,2,1,80,0,1
138155,-95.2380952380952,4,2,1,80,0,1
138458,-117.647058823529,4,2,1,65,0,0
143307,-111.111111111111,4,2,1,65,0,0
145049,-111.111111111111,4,2,1,5,0,0
145125,-125,4,2,1,65,0,0
145731,-105.263157894737,4,2,1,70,0,0
148080,-105.263157894737,4,2,1,5,0,0
148155,-105.263157894737,4,2,1,70,0,0
150504,-105.263157894737,4,2,1,5,0,0
150580,-105.263157894737,4,2,1,70,0,0
151716,-105.263157894737,4,2,1,5,0,0
151792,-105.263157894737,4,2,1,70,0,0
155428,-105.263157894737,4,2,1,75,0,0
157776,-105.263157894737,4,2,1,5,0,0
157852,-105.263157894737,4,2,1,75,0,0
160201,-105.263157894737,4,2,1,5,0,0
160276,-105.263157894737,4,2,1,75,0,0
160580,-105.263157894737,4,2,1,75,0,0
161716,-105.263157894737,4,2,1,5,0,0
161792,-105.263157894737,4,2,1,75,0,0
161943,-105.263157894737,4,2,1,75,0,0
164443,-105.263157894737,4,2,1,5,0,0
164519,-105.263157894737,4,2,1,75,0,0
165125,-142.857142857143,4,2,2,50,0,0
166943,-142.857142857143,4,2,1,50,0,0
167549,-142.857142857143,4,2,1,50,0,0
169367,-142.857142857143,4,2,1,50,0,0
171792,-142.857142857143,4,2,1,50,0,0
172398,-142.857142857143,4,2,1,50,0,0
174216,-142.857142857143,4,2,1,50,0,0
175125,303.030303030303,4,2,1,50,1,0
175125,-125,4,2,1,50,0,0
177549,-125,4,2,1,60,0,0
180276,303.030303030303,4,2,1,60,1,0
180277,-125,4,2,1,60,0,0
184519,303.030303030303,4,2,1,70,1,0
184519,-100,4,2,1,70,0,0
189368,-100,4,2,69,50,0,0
191035,-100,4,2,1,50,0,0
191717,-100,4,2,1,5,0,0
191793,-100,4,2,1,50,0,0
197852,-125,4,2,1,60,0,0
198306,-100,4,2,1,60,0,0
198912,-95.2380952380952,4,2,1,75,0,1
200352,-95.2380952380952,4,2,1,5,0,1
200428,-95.2380952380952,4,2,1,75,0,1
202776,-95.2380952380952,4,2,1,5,0,1
202852,-95.2380952380952,4,2,1,75,0,1
205352,-95.2380952380952,4,2,1,5,0,1
205428,-95.2380952380952,4,2,1,75,0,1
206261,-95.2380952380952,4,2,1,5,0,1
206337,-95.2380952380952,4,2,1,75,0,1
207247,-95.2380952380952,4,2,1,75,0,1
208306,-95.2380952380952,4,2,1,75,0,0
208609,-95.2380952380952,4,2,3,80,0,1
209065,-95.2380952380952,4,2,1,80,0,1
210049,-95.2380952380952,4,2,1,5,0,1
210125,-95.2380952380952,4,2,1,80,0,1
212473,-95.2380952380952,4,2,1,5,0,1
212549,-95.2380952380952,4,2,1,80,0,1
215049,-95.2380952380952,4,2,1,5,0,1
215125,-95.2380952380952,4,2,1,80,0,1
215958,-95.2380952380952,4,2,1,5,0,1
216034,-95.2380952380952,4,2,1,80,0,1
218155,-95.2380952380952,4,2,1,80,0,1
218458,-117.647058823529,4,2,1,50,0,0
223306,-111.111111111111,4,2,1,65,0,0
225732,-111.111111111111,4,2,1,70,0,0
227474,-111.111111111111,4,2,1,5,0,0
227549,-125,4,2,1,70,0,0
228155,-105.263157894737,4,2,1,60,0,0
229594,-105.263157894737,4,2,1,5,0,0
229670,-105.263157894737,4,2,1,60,0,0
230200,-105.263157894737,4,2,1,5,0,0
230276,-105.263157894737,4,2,1,60,0,0
230581,-105.263157894737,4,2,1,65,0,0
233005,-105.263157894737,4,2,1,70,0,0
233231,-105.263157894737,4,2,1,5,0,0
233306,-105.263157894737,4,2,1,70,0,0
234197,303.030303030303,4,2,1,60,1,0
234197,-105.263157894737,4,2,1,60,0,0
235333,-105.263157894737,4,2,1,5,0,0
235409,-105.263157894737,4,2,1,60,0,0
235712,-105.263157894737,4,2,1,50,0,0
236166,-105.263157894737,4,2,1,55,0,0
236621,-105.263157894737,4,2,1,60,0,0
237075,-105.263157894737,4,2,1,65,0,0
237530,-105.263157894737,4,2,1,70,0,0
237681,-105.263157894737,4,2,2,65,0,0

[Colours]
Combo1 : 150,185,220
Combo2 : 240,140,140
Combo3 : 200,180,220
Combo4 : 240,200,155

[HitObjects]
168,56,277,6,0,P|102:66|213:120,1,340.8,2|2,0:0|0:0,0:0:0:0:
330,60,2701,2,0,P|368:87|411:90,2,85.2,2|2|2,0:0|0:0|0:0,0:0:0:0:
512,253,5125,2,0,P|356:273|172:306,1,340.8,2|2,0:0|0:0,0:0:0:0:
256,192,7549,12,0,9367,1:0:0:0:
115,244,9973,6,0,P|94:189|131:108,2,134.899996397781,12|8|0,1:0|0:0|1:0,0:0:0:0:
192,280,10731,1,0,1:0:0:0:
262,237,10883,1,8,0:0:0:0:
262,237,11034,6,0,P|332:220|395:211,1,134.899996397781,0|0,1:0|1:0,0:0:0:0:
468,256,11489,2,0,P|491:274|498:312,1,67.4499981988907,8|0,0:0|0:0,0:0:0:0:
452,377,11792,2,0,P|422:368|384:362,1,67.4499981988907,2|0,1:2|1:0,0:0:0:0:
315,323,12095,1,8,0:0:0:0:
213,197,12398,6,0,P|196:127|187:64,1,134.899996397781,2|8,1:2|0:0,0:0:0:0:
256,18,12852,1,2,0:0:0:0:
329,53,13004,2,0,P|362:42|401:32,1,67.4499981988907,0|0,1:0|1:0,0:0:0:0:
458,100,13307,1,10,0:2:0:0:
458,100,13458,6,0,P|390:117|325:139,1,134.899996397781,2|2,1:2|1:2,0:0:0:0:
380,209,13913,2,0,P|411:198|444:189,1,67.4499981988907,10|0,0:0|0:0,0:0:0:0:
438,280,14216,1,2,1:2:0:0:
438,280,14367,1,0,1:0:0:0:
386,342,14519,2,0,P|354:331|321:322,1,67.4499981988907,8|0,0:0|0:0,0:0:0:0:
243,281,14822,6,0,P|195:322|110:323,2,134.899996397781,4|8|0,1:0|0:0|1:0,0:0:0:0:
288,213,15580,1,0,1:0:0:0:
232,161,15731,1,8,0:0:0:0:
232,161,15883,6,0,P|208:135|251:46,1,134.899996397781,0|0,1:2|1:0,0:0:0:0:
159,11,16337,2,0,B|118:0|62:-5|62:-5|79:8|94:30,1,134.899996397781,8|10,0:2|1:2,0:0:0:0:
12,66,16792,1,8,1:2:0:0:
86,111,16943,2,0,P|92:131|97:156,3,33.7249990994454,2|2|2|2,1:2|1:2|1:2|1:2,0:0:0:0:
71,180,17246,6,0,P|57:242|46:320,1,134.899996397781,4|8,1:0|0:0,0:0:0:0:
133,329,17701,2,0,P|142:262|157:196,1,134.899996397781,4|0,1:2|0:0,0:0:0:0:
251,192,18155,6,0,P|237:130|226:52,1,134.899996397781,4|8,1:0|0:0,0:0:0:0:
313,43,18610,2,0,P|322:109|337:175,1,134.899996397781,4|4,1:2|3:0,0:0:0:0:
422,215,19064,6,0,P|426:181|434:148,2,67.4499981988907,8|8|4,3:2|3:0|3:0,0:0:0:0:
406,301,19519,1,2,1:0:0:0:
406,301,29367,6,0,P|413:232|422:177,1,113.6,0|0,1:0|1:0,0:0:0:0:
496,62,29973,2,0,P|473:93|437:94,1,56.8,2|2,1:2|0:0,0:0:0:0:
395,55,30276,1,2,1:2:0:0:
395,55,30428,2,0,P|334:37|281:27,1,113.6,2|2,0:0|0:0,0:0:0:0:
210,55,30883,1,0,1:0:0:0:
81,126,31186,6,0,P|49:134|21:142,1,56.8,2|2,1:2|0:0,0:0:0:0:
21,223,31489,1,2,1:2:0:0:
21,223,31640,2,0,P|75:207|130:194,1,113.6,2|2,0:0|0:0,0:0:0:0:
258,119,32246,2,0,P|345:143|433:165,1,170.4,2|2,0:0|1:2,0:0:0:0:
382,231,32852,2,0,P|322:216|262:199,1,113.6,2|2,0:0|0:0,0:0:0:0:
216,258,33307,1,2,1:2:0:0:
330,350,33610,2,0,P|359:341|387:333,2,56.8,2|2|2,1:2|0:0|1:2,0:0:0:0:
260,384,34064,1,2,0:0:0:0:
260,384,34216,6,0,P|201:374|141:367,1,113.6,2|2,1:2|1:2,0:0:0:0:
26,283,34822,2,0,P|8:254|15:223,1,56.8,2|2,1:2|0:0,0:0:0:0:
72,182,35125,1,2,1:2:0:0:
72,182,35276,2,0,P|83:120|92:58,1,113.6,2|2,0:0|0:0,0:0:0:0:
46,3,35731,1,0,1:0:0:0:
187,45,36034,6,0,P|218:36|246:30,1,56.8,2|2,1:2|0:0,0:0:0:0:
322,56,36337,1,2,1:2:0:0:
322,56,36489,2,0,P|334:111|350:165,2,113.6,2|2|2,0:0|0:0|0:0,0:0:0:0:
243,182,37398,1,2,0:0:0:0:
243,182,37701,2,0,P|230:237|214:291,1,113.6,2|2,0:0|0:0,0:0:0:0:
267,357,38155,1,2,1:2:0:0:
267,357,38307,1,2,2:0:0:0:
339,325,38458,2,0,P|351:269|367:215,1,113.6,2|2,1:2|1:2,0:0:0:0:
436,63,39064,6,0,P|377:124|263:120,1,191.69999414978,4|0,1:0|1:2,0:0:0:0:
226,58,39670,1,8,0:0:0:0:
76,126,39973,1,2,0:0:0:0:
76,126,40125,2,0,P|85:157|94:195,1,63.8999980499268,0|0,1:0|1:2,0:0:0:0:
169,219,40428,2,0,P|158:270|144:356,1,127.799996099854,0|0,1:0|1:2,0:0:0:0:
69,372,40883,1,8,0:0:0:0:
69,372,41034,1,0,0:0:0:0:
15,307,41186,2,0,P|21:269|28:237,1,63.8999980499268,0|0,3:2|0:0,0:0:0:0:
92,187,41489,6,0,B|184:167|182:249|285:231,1,191.69999414978,0|0,1:2|1:0,0:0:0:0:
324,168,42095,2,0,P|347:146|378:133,1,63.8999980499268,10|2,0:0|0:0,0:0:0:0:
454,174,42398,1,2,0:0:0:0:
454,174,42549,2,0,P|440:235|429:308,2,127.799996099854,2|2|2,1:2|1:2|1:2,0:0:0:0:
509,111,43307,2,0,P|501:78|490:45,1,63.8999980499268,10|2,0:0|1:2,0:0:0:0:
423,2,43610,1,0,0:0:0:0:
270,66,43913,6,0,B|264:94|235:114|235:114|205:187|265:246,1,191.69999414978,4|0,1:0|1:0,0:0:0:0:
333,265,44519,1,8,0:0:0:0:
199,364,44822,1,2,0:0:0:0:
199,364,44973,2,0,P|164:357|129:352,1,63.8999980499268,0|0,1:0|0:0,0:0:0:0:
65,308,45276,2,0,P|30:266|46:197,1,127.799996099854,0|0,1:0|1:0,0:0:0:0:
41,119,45731,1,8,0:0:0:0:
41,119,45883,1,0,0:0:0:0:
115,155,46034,2,0,B|146:159|146:159|151:161|151:161|180:165,1,63.8999980499268,0|0,1:2|1:0,0:0:0:0:
225,168,46261,1,0,1:0:0:0:
225,168,46337,6,0,P|288:150|370:131,1,134.899996397781,4|8,1:0|0:0,0:0:0:0:
433,187,46792,2,0,B|463:223|463:223|437:312,1,134.899996397781,4|8,1:2|2:0,0:0:0:0:
360,360,47246,2,0,L|346:286,1,67.4499981988907,4|2,1:2|2:0,0:0:0:0:
267,243,47549,6,0,L|254:309,1,67.4499981988907,4|0,1:0|2:0,0:0:0:0:
174,360,47852,1,8,0:0:0:0:
85,325,48004,2,0,B|59:300|59:300|41:242|90:196,1,134.899996397781,4|8,1:2|2:0,0:0:0:0:
99,116,48458,1,4,1:2:0:0:
284,80,48761,6,0,B|303:30|357:27|357:27|336:47|337:71,1,134.899996397781,4|8,1:0|0:0,0:0:0:0:
424,97,49216,2,0,P|468:134|457:230,1,134.899996397781,4|0,1:2|1:0,0:0:0:0:
386,248,49670,2,0,P|353:239|318:232,1,67.4499981988907,12|2,0:2|0:0,0:0:0:0:
274,316,49973,1,10,0:0:0:0:
274,316,50125,1,0,1:0:0:0:
354,364,50276,1,8,1:2:0:0:
441,326,50428,1,4,1:0:0:0:
441,326,51186,6,0,P|368:314|292:303,1,142,12|8,1:0|0:0,0:0:0:0:
235,369,51640,1,0,1:0:0:0:
235,369,51792,2,0,P|200:378|162:385,1,71,8|0,0:0|0:0,0:0:0:0:
97,329,52095,1,8,0:0:0:0:
97,329,52246,5,4,1:2:0:0:
16,211,52549,1,2,1:2:0:0:
158,201,52852,1,2,1:2:0:0:
158,201,53610,6,0,P|197:209|238:215,1,71,4|2,1:0|0:0,0:0:0:0:
310,265,53913,1,8,0:0:0:0:
310,265,54064,1,2,1:2:0:0:
366,192,54216,2,0,P|374:153|380:112,1,71,8|2,0:0|1:2,0:0:0:0:
448,61,54519,1,8,0:0:0:0:
448,61,54670,5,4,1:0:0:0:
307,79,54973,1,2,1:2:0:0:
184,6,55276,1,2,1:2:0:0:
184,6,55580,2,0,P|194:43|202:78,1,71,2|2,0:0|0:0,0:0:0:0:
111,117,55883,6,0,P|72:150|78:242,1,142,12|0,1:0|1:0,0:0:0:0:
161,275,56337,1,8,2:2:0:0:
161,275,56489,2,0,P|230:258|298:238,1,142,2|0,2:2|2:0,0:0:0:0:
268,329,56943,2,0,P|229:340|190:350,1,71,0|2,1:2|0:0,0:0:0:0:
105,382,57246,6,0,P|87:325|99:302,1,71,2|0,1:2|0:0,0:0:0:0:
47,235,57549,1,8,0:0:0:0:
76,147,57701,2,0,P|133:160|196:172,1,106.5,2|0,0:0|0:0,0:0:0:0:
223,152,58004,1,2,0:0:0:0:
290,87,58155,2,0,P|329:75|362:67,1,71,0|0,1:0|0:0,0:0:0:0:
460,87,58458,5,2,1:2:0:0:
460,87,58610,2,0,B|478:120|478:120|471:157,1,71,2|8,0:0|0:0,0:0:0:0:
508,237,58913,2,0,B|473:300|473:300|486:371,1,142,2|0,0:0|1:0,0:0:0:0:
396,349,59367,2,0,P|360:373|328:374,1,71,8|0,1:2|0:0,0:0:0:0:
259,308,59670,6,0,L|249:221,1,71,8|8,0:0|0:0,0:0:0:0:
226,203,59898,1,8,0:0:0:0:
226,203,59973,1,8,0:0:0:0:
308,155,60125,2,0,L|333:11,1,142,12|8,1:0|1:2,0:0:0:0:
214,177,60731,6,0,P|158:236|79:228,1,149.099995449829,12|0,1:0|1:0,0:0:0:0:
28,164,61186,2,0,B|9:149|-16:137|-16:137|-5:149|7:167,1,74.5499977249146,8|2,0:0|0:0,0:0:0:0:
62,238,61489,2,0,P|48:281|41:323,1,74.5499977249146,2|0,1:2|1:0,0:0:0:0:
111,378,61792,1,8,0:0:0:0:
182,302,61943,6,0,P|239:288|297:277,1,111.824996587372,2|0,1:2|0:0,0:0:0:0:
331,250,62246,2,0,P|368:259|404:266,1,74.5499977249146,2|0,1:2|0:0,0:0:0:0:
483,330,62549,1,2,0:2:0:0:
483,330,62701,2,0,P|490:293|498:257,1,74.5499977249146,2|2,1:2|1:2,0:0:0:0:
500,159,63004,1,10,0:0:0:0:
413,101,63155,6,0,B|339:112|358:161|285:170,1,149.099995449829,4|0,1:0|1:0,0:0:0:0:
206,227,63610,2,0,P|188:176|190:148,1,74.5499977249146,8|2,0:0|2:2,0:0:0:0:
101,112,63913,2,0,P|136:70|161:58,1,74.5499977249146,2|0,1:2|1:0,0:0:0:0:
242,20,64216,1,8,0:0:0:0:
242,20,64367,6,0,P|303:35|363:47,1,111.824996587372,2|0,1:2|0:0,0:0:0:0:
395,26,64670,2,0,B|414:18|433:8|433:8|419:23|412:37,1,74.5499977249146,2|0,1:2|0:0,0:0:0:0:
497,82,64973,1,2,1:2:0:0:
409,256,65276,1,0,1:0:0:0:
409,256,65428,1,8,0:0:0:0:
467,333,65580,6,0,P|446:211|438:169,1,149.099995449829,12|0,1:0|1:0,0:0:0:0:
352,161,66034,1,8,0:0:0:0:
352,161,66186,2,0,P|278:184|185:201,1,149.099995449829,2|0,2:0|2:0,0:0:0:0:
111,186,66640,1,8,0:0:0:0:
111,186,66792,1,2,2:0:0:0:
57,275,66943,6,0,P|112:286|166:303,1,111.824996587372,2|0,1:2|1:0,0:0:0:0:
199,336,67246,1,8,0:0:0:0:
296,336,67398,2,0,P|314:303|315:260,1,74.5499977249146,2|0,0:0|1:0,0:0:0:0:
394,208,67701,1,0,1:0:0:0:
394,208,67852,2,0,B|423:182|421:138|421:138|399:121|391:89,1,111.824996587372,8|0,0:0|0:0,0:0:0:0:
356,81,68155,6,0,P|295:123|204:117,2,149.099995449829,4|8|2,1:0|0:0|1:2,0:0:0:0:
267,35,68913,1,0,1:0:0:0:
267,35,69064,1,8,0:0:0:0:
95,151,69367,5,4,1:0:0:0:
95,151,69519,1,0,1:0:0:0:
160,238,69670,1,8,0:0:0:0:
160,238,69822,1,0,1:0:0:0:
102,315,69973,2,0,B|89:344|82:376|82:376|103:364|126:356,1,111.824996587372,8|8,0:0|0:0,0:0:0:0:
173,349,70277,2,0,P|189:353|209:359,3,37.2749988624573,0|0|0|0,1:2|1:2|1:2|1:2,0:0:0:0:
254,375,70580,6,0,P|315:357|372:344,1,120.70000230217,4|0,1:0|1:0,0:0:0:0:
510,272,71186,2,0,P|451:258|393:241,1,120.70000230217,0|0,1:0|1:0,0:0:0:0:
276,136,71792,1,0,1:0:0:0:
322,210,71943,1,8,0:0:0:0:
322,210,72019,1,8,0:0:0:0:
322,210,72095,2,0,P|288:218|258:228,1,60.3500011510849,8|4,0:0|1:3,0:0:0:0:
189,201,72398,2,0,P|182:161|171:110,2,80.4666682014466,8|4|8,0:0|1:3|0:0,0:0:0:0:
140,293,73004,6,0,P|92:356|28:353,1,120.70000230217,4|0,1:0|1:0,0:0:0:0:
41,204,73610,2,0,P|10:153|24:96,1,120.70000230217,0|0,1:0|1:0,0:0:0:0:
149,1,74216,1,0,1:0:0:0:
222,39,74367,1,8,0:0:0:0:
222,39,74519,2,0,L|300:53,1,60.3500011510849,8|4,0:0|1:3,0:0:0:0:
343,97,74822,2,0,L|421:75,2,80.4666682014466,8|4|8,0:0|1:3|0:0,0:0:0:0:
271,181,75428,6,0,P|334:192|407:208,1,127.799996099854,4|0,1:0|1:0,0:0:0:0:
382,370,76034,2,0,P|322:357|253:345,1,127.799996099854,4|0,1:0|1:0,0:0:0:0:
172,342,76489,1,2,1:2:0:0:
104,294,76640,2,0,P|73:203|161:118,1,223.649993174744,4|0,1:0|0:0,0:0:0:0:
180,87,77246,2,0,B|289:62|271:153|389:125,1,191.69999414978,2|2,1:2|0:0,0:0:0:0:
428,186,77852,6,0,P|449:131|401:49,2,134.899996397781,4|0|2,1:2|1:2|1:2,0:0:0:0:
376,248,78610,1,2,0:0:0:0:
376,248,78761,2,0,L|391:323,1,67.4499981988907,0|0,1:2|0:0,0:0:0:0:
316,349,79064,2,0,L|295:246,1,101.174997298336,0|0,1:0|0:0,0:0:0:0:
256,240,79367,2,0,P|220:224|208:198,1,67.4499981988907,0|2,1:0|0:0,0:0:0:0:
153,131,79670,2,0,P|160:92|171:51,1,67.4499981988907,2|0,1:2|0:0,0:0:0:0:
226,9,79973,1,0,1:0:0:0:
368,86,80276,6,0,B|438:73|430:125|498:113,1,134.899996397781,4|0,1:2|1:0,0:0:0:0:
447,188,80731,1,2,0:2:0:0:
447,188,80883,2,0,P|422:226|424:255,1,67.4499981988907,0|0,1:0|0:0,0:0:0:0:
491,296,81186,1,2,1:2:0:0:
407,330,81337,6,0,P|339:313|271:306,1,134.899996397781,2|2,2:2|0:0,0:0:0:0:
212,248,81792,2,0,P|182:278|154:284,1,67.4499981988907,2|2,1:2|0:0,0:0:0:0:
147,207,82095,1,2,1:2:0:0:
147,207,82246,1,2,0:0:0:0:
218,168,82398,2,0,P|226:133|236:100,1,67.4499981988907,0|2,1:0|1:2,0:0:0:0:
311,58,82701,6,0,P|375:77|441:92,2,134.899996397781,4|0|2,1:0|1:0|1:2,0:0:0:0:
248,15,83458,1,2,0:0:0:0:
248,15,83610,2,0,P|215:24|182:32,1,67.4499981988907,0|0,1:0|0:0,0:0:0:0:
107,77,83913,6,0,P|74:67|41:59,1,67.4499981988907,0|0,1:0|0:0,0:0:0:0:
22,138,84216,2,0,P|7:187|37:238,1,101.174997298336,0|0,1:0|0:0,0:0:0:0:
64,252,84519,2,0,B|59:277|59:277|54:289|54:289|51:322,1,67.4499981988907,2|10,1:2|1:2,0:0:0:0:
126,363,84822,2,0,L|162:354,3,33.7249990994454,2|0|2|0,1:2|0:0|1:2|1:2,0:0:0:0:
197,333,85125,6,0,P|270:346|352:354,1,134.899996397781,4|8,1:0|0:0,0:0:0:0:
415,330,85580,2,0,P|448:273|414:209,1,134.899996397781,6|0,1:2|1:2,0:0:0:0:
329,196,86034,6,0,P|256:209|174:217,1,134.899996397781,4|8,1:0|0:0,0:0:0:0:
107,210,86489,2,0,P|74:153|108:89,1,134.899996397781,6|8,1:2|2:2,0:0:0:0:
179,44,86943,6,0,P|215:50|256:54,2,67.4499981988907,8|10|8,1:2|3:0|3:0,0:0:0:0:
99,5,87398,1,2,3:0:0:0:
25,51,87549,1,4,1:2:0:0:
103,6,97246,6,0,P|118:62|131:131,1,113.6,2|0,1:2|1:0,0:0:0:0:
224,229,97852,2,0,P|230:195|239:162,1,56.8,2|2,1:2|0:0,0:0:0:0:
303,129,98155,1,2,1:2:0:0:
303,129,98307,2,0,B|339:124|339:124|375:139|375:139|413:134,1,113.6,2|2,0:0|0:0,0:0:0:0:
478,89,98761,1,0,1:0:0:0:
489,236,99064,2,0,P|499:266|506:298,1,56.8,2|2,1:2|0:0,0:0:0:0:
435,327,99367,1,2,1:2:0:0:
435,327,99519,2,0,P|421:269|402:213,1,113.6,2|2,0:0|0:0,0:0:0:0:
278,295,100125,6,0,P|197:358|122:352,1,170.4,2|2,0:0|1:2,0:0:0:0:
56,376,100731,2,0,B|45:317|82:318|72:258,1,113.6,2|2,0:0|0:0,0:0:0:0:
14,211,101186,1,2,1:2:0:0:
99,90,101489,2,0,P|130:126|197:130,1,113.6,2|2,1:2|1:2,0:0:0:0:
280,250,102095,2,0,P|326:241|363:185,1,113.6,2|0,1:2|1:0,0:0:0:0:
461,79,102701,6,0,P|465:52|480:18,2,56.8,2|2|2,1:2|0:0|1:2,0:0:0:0:
382,72,103155,2,0,P|330:53|261:40,1,113.6,2|2,0:0|0:0,0:0:0:0:
208,88,103610,1,0,1:0:0:0:
79,14,103913,2,0,P|55:29|25:37,1,56.8,2|2,1:2|0:2,0:0:0:0:
22,119,104216,1,2,1:2:0:0:
22,119,104367,6,0,P|21:181|46:236,2,113.6,2|2|2,0:0|0:0|0:0,0:0:0:0:
158,187,105276,1,2,0:0:0:0:
158,187,105580,2,0,B|219:172|217:207|269:196,1,113.6,2|2,0:0|0:0,0:0:0:0:
332,148,106034,1,2,1:2:0:0:
332,148,106186,1,2,0:0:0:0:
395,195,106337,2,0,B|447:205|445:170|506:185,1,113.6,2|2,1:2|1:2,0:0:0:0:
396,310,106943,6,0,B|300:303|317:377|220:369,1,191.69999414978,4|0,1:0|1:0,0:0:0:0:
153,319,107549,1,8,0:0:0:0:
253,187,107852,1,2,0:0:0:0:
253,187,108004,2,0,P|258:151|264:118,1,63.8999980499268,0|0,1:0|1:0,0:0:0:0:
185,93,108307,2,0,P|173:156|163:221,1,127.799996099854,0|0,1:0|1:0,0:0:0:0:
81,225,108761,2,0,P|85:193|91:161,1,63.8999980499268,8|0,0:0|0:0,0:0:0:0:
105,79,109064,2,0,P|101:47|95:15,1,63.8999980499268,0|0,3:2|0:0,0:0:0:0:
183,12,109367,6,0,B|284:6|274:52|379:44,1,191.69999414978,0|0,1:0|1:0,0:0:0:0:
446,11,109973,2,0,B|479:2|479:2|457:28,1,63.8999980499268,10|2,0:0|0:0,0:0:0:0:
435,106,110276,1,2,0:0:0:0:
435,106,110428,2,0,P|422:166|414:238,2,127.799996099854,2|2|2,1:2|1:2|1:2,0:0:0:0:
511,140,111186,2,0,P|504:169|500:205,1,63.8999980499268,10|2,0:0|1:2,0:0:0:0:
486,289,111489,1,0,0:0:0:0:
326,241,111792,6,0,P|227:217|128:198,1,191.69999414978,0|0,1:2|1:0,0:0:0:0:
77,143,112398,1,8,0:0:0:0:
8,296,112701,1,2,0:0:0:0:
8,296,112852,2,0,P|43:287|79:280,1,63.8999980499268,0|0,1:2|0:0,0:0:0:0:
143,321,113155,2,0,P|211:334|279:351,1,127.799996099854,0|0,1:0|1:0,0:0:0:0:
356,381,113610,1,8,0:0:0:0:
356,381,113761,1,0,1:0:0:0:
426,336,113913,2,0,P|429:295|406:268,1,63.8999980499268,0|0,1:2|1:2,0:0:0:0:
342,219,114216,6,0,B|362:131|362:131|370:157|385:172,1,134.899996397781,4|8,1:0|0:0,0:0:0:0:
450,103,114670,2,0,B|430:15|430:15|422:41|407:56,1,134.899996397781,4|8,1:2|0:0,0:0:0:0:
330,0,115125,2,0,P|296:21|265:23,1,67.4499981988907,4|2,1:0|0:0,0:0:0:0:
194,81,115428,6,0,P|156:68|124:63,1,67.4499981988907,4|0,1:0|0:0,0:0:0:0:
38,92,115731,1,8,0:0:0:0:
85,174,115883,2,0,P|152:186|216:209,1,134.899996397781,4|8,1:2|0:0,0:0:0:0:
300,169,116337,1,4,1:2:0:0:
379,340,116640,6,0,P|391:273|413:210,1,134.899996397781,4|8,1:0|0:0,0:0:0:0:
467,132,117095,2,0,B|457:96|439:59|439:59|462:84|488:97,1,134.899996397781,4|8,1:0|0:0,0:0:0:0:
375,127,117549,2,0,P|341:137|302:143,1,67.4499981988907,4|2,1:2|0:0,0:0:0:0:
229,89,117852,5,10,0:0:0:0:
229,89,118004,1,0,1:0:0:0:
150,141,118155,1,8,1:2:0:0:
171,233,118307,1,4,1:0:0:0:
171,233,119064,6,0,P|244:244|325:259,1,142,4|8,1:0|0:0,0:0:0:0:
292,170,119519,1,0,1:0:0:0:
292,170,119670,2,0,P|269:133|270:102,1,71,8|0,0:0|1:0,0:0:0:0:
330,37,119973,1,8,0:0:0:0:
330,37,120125,5,4,1:0:0:0:
466,75,120428,1,2,1:2:0:0:
427,211,120731,1,2,1:2:0:0:
427,211,121489,6,0,P|437:249|445:293,1,71,4|2,1:0|0:0,0:0:0:0:
385,353,121792,1,8,0:0:0:0:
385,353,121943,1,0,1:0:0:0:
298,319,122095,2,0,P|291:284|281:249,1,71,8|0,0:0|1:0,0:0:0:0:
201,214,122398,1,8,0:0:0:0:
201,214,122549,5,4,1:0:0:0:
77,284,122852,1,2,1:2:0:0:
7,160,123155,1,2,1:2:0:0:
7,160,123458,2,0,P|16:122|25:90,1,71,2|2,0:0|0:0,0:0:0:0:
105,32,123761,6,0,B|179:20|169:68|240:58,1,142,4|0,1:0|0:0,0:0:0:0:
314,121,124216,1,0,1:0:0:0:
314,121,124367,2,0,P|377:88|445:68,1,142,2|0,2:2|2:0,0:0:0:0:
440,160,124822,2,0,P|406:170|374:186,1,71,0|2,1:2|2:0,0:0:0:0:
286,233,125125,6,0,P|251:215|215:205,1,71,2|0,1:2|0:0,0:0:0:0:
151,144,125428,1,0,1:0:0:0:
62,172,125580,2,0,P|40:219|58:273,1,106.5,2|0,0:0|0:0,0:0:0:0:
81,307,125883,1,2,0:0:0:0:
148,369,126034,2,0,P|183:358|217:351,1,71,0|0,1:0|0:0,0:0:0:0:
313,320,126337,5,2,1:2:0:0:
313,320,126489,2,0,P|348:331|382:338,1,71,2|8,0:0|0:0,0:0:0:0:
463,380,126792,2,0,P|486:329|457:251,1,142,2|0,0:2|1:0,0:0:0:0:
380,202,127246,2,0,B|382:160|402:170|396:123,1,71,2|0,1:2|0:0,0:0:0:0:
376,36,127549,6,0,P|337:68|313:73,1,71,8|8,0:0|0:0,0:0:0:0:
276,63,127776,1,8,0:0:0:0:
276,63,127852,1,8,0:0:0:0:
253,160,128004,2,0,P|175:143|91:128,1,142,4|8,1:0|0:0,0:0:0:0:
32,22,128610,6,0,P|-9:50|9:143,1,149.099995449829,12|0,1:0|0:0,0:0:0:0:
65,213,129064,2,0,P|103:202|140:193,1,74.5499977249146,8|2,0:0|0:0,0:0:0:0:
227,156,129367,2,0,P|265:167|302:176,1,74.5499977249146,2|2,1:2|1:2,0:0:0:0:
396,169,129670,1,8,0:0:0:0:
479,232,129822,6,0,B|478:268|459:286|459:286|431:303|392:289,1,111.824996587372,2|0,0:0|0:0,0:0:0:0:
394,340,130125,2,0,P|352:310|317:311,1,74.5499977249146,0|8,1:0|0:0,0:0:0:0:
236,311,130428,1,2,0:0:0:0:
236,311,130580,2,0,P|194:341|159:340,2,74.5499977249146,2|2|10,1:2|1:2|0:0,0:0:0:0:
282,218,131034,6,0,P|294:132|306:67,1,149.099995449829,4|0,1:0|1:0,0:0:0:0:
391,116,131489,2,0,P|384:152|379:189,1,74.5499977249146,8|2,0:0|0:0,0:0:0:0:
452,253,131792,2,0,B|466:264|484:275|484:275|465:271|449:270,1,74.5499977249146,2|0,1:2|1:2,0:0:0:0:
366,333,132095,1,8,0:0:0:0:
366,333,132246,6,0,B|308:324|309:362|235:352,1,111.824996587372,4|0,1:0|0:0,0:0:0:0:
218,325,132549,2,0,P|195:291|206:247,1,74.5499977249146,2|0,1:2|0:0,0:0:0:0:
276,200,132852,1,2,1:2:0:0:
141,67,133155,1,0,1:0:0:0:
141,67,133307,1,8,0:0:0:0:
69,132,133458,6,0,P|139:114|214:99,1,149.099995449829,12|0,1:0|1:0,0:0:0:0:
314,87,133913,1,8,0:0:0:0:
314,87,134064,2,0,P|278:159|294:240,1,149.099995449829,2|0,2:0|2:0,0:0:0:0:
236,309,134519,1,8,2:2:0:0:
236,309,134670,1,2,0:0:0:0:
324,366,134822,6,0,B|372:362|372:362|391:366|391:366|453:362,1,111.824996587372,2|0,1:2|0:0,0:0:0:0:
480,379,135125,1,8,0:0:0:0:
455,284,135277,2,0,P|449:247|465:201,1,74.5499977249146,2|0,0:0|1:0,0:0:0:0:
510,129,135580,1,2,1:2:0:0:
424,67,135731,2,0,P|381:119|316:127,1,111.824996587372,8|0,0:0|0:0,0:0:0:0:
295,157,136034,6,0,P|211:141|135:132,2,149.099995449829,12|8|0,1:0|0:0|1:0,0:0:0:0:
362,243,136792,1,0,1:0:0:0:
362,243,136944,1,8,0:0:0:0:
188,355,137246,5,12,1:0:0:0:
188,355,137398,1,0,1:0:0:0:
97,315,137549,1,8,0:0:0:0:
97,315,137701,1,0,1:0:0:0:
136,225,137852,2,0,P|137:161|106:124,1,111.824996587372,8|8,0:0|0:0,0:0:0:0:
70,104,138155,2,0,P|52:109|32:115,3,37.2749988624573,8|8|8|8,0:0|0:0|0:0|0:0,0:0:0:0:
36,72,138458,6,0,P|97:54|158:36,3,120.70000230217,4|0|0|0,1:0|1:0|1:0|1:0,0:0:0:0:
285,120,139670,1,0,1:0:0:0:
365,83,139822,1,8,0:0:0:0:
365,83,139898,1,8,0:0:0:0:
365,83,139973,2,0,P|395:89|427:98,1,60.3500011510849,8|4,0:0|1:3,0:0:0:0:
470,160,140277,2,0,P|497:131|499:77,2,80.4666682014466,8|4|8,0:0|1:3|0:0,0:0:0:0:
388,225,140883,6,0,L|407:355,3,120.70000230217,4|0|0|0,1:0|1:0|1:0|1:0,0:0:0:0:
246,384,142095,1,0,1:0:0:0:
186,341,142246,1,8,0:0:0:0:
186,341,142398,2,0,P|192:307|200:272,1,60.3500011510849,8|4,0:0|1:3,0:0:0:0:
135,233,142701,2,0,P|104:262|55:260,2,80.4666682014466,8|4|8,0:0|1:3|0:0,0:0:0:0:
205,147,143307,6,0,P|191:70|183:9,1,127.799996099854,4|0,1:0|1:0,0:0:0:0:
311,128,143913,2,0,P|297:205|289:266,1,127.799996099854,4|0,1:0|1:0,0:0:0:0:
237,309,144367,1,2,1:2:0:0:
287,375,144519,2,0,B|388:386|378:287|490:298,1,223.649993174744,4|0,1:0|0:0,0:0:0:0:
509,327,145125,6,0,P|444:254|471:180,1,170.4,2|2,1:2|0:0,0:0:0:0:
484,91,145731,6,0,P|443:114|399:116,1,67.4499981988907,12|0,1:2|1:0,0:0:0:0:
340,145,146034,2,0,P|273:128|206:115,1,134.899996397781,8|8,0:2|0:0,0:0:0:0:
134,67,146489,1,0,1:0:0:0:
62,117,146640,2,0,P|60:155|80:189,1,67.4499981988907,8|0,0:2|1:0,0:0:0:0:
143,243,146943,6,0,L|126:378,1,134.899996397781,10|8,0:2|0:2,0:0:0:0:
215,360,147398,1,0,1:0:0:0:
215,360,147549,2,0,L|223:293,1,67.4499981988907,8|0,0:0|1:0,0:0:0:0:
285,231,147852,2,0,L|268:123,1,101.174997298336,8|0,0:2|0:0,0:0:0:0:
269,87,148155,6,0,B|341:78|336:121|400:114,1,134.899996397781,4|8,1:0|0:0,0:0:0:0:
487,98,148610,1,0,1:0:0:0:
487,98,148761,2,0,P|487:138|454:164,1,67.4499981988907,8|0,0:0|1:0,0:0:0:0:
392,199,149064,2,0,P|402:233|411:267,1,67.4499981988907,8|0,0:0|1:2,0:0:0:0:
481,326,149367,6,0,P|415:314|340:305,1,134.899996397781,14|8,1:2|0:0,0:0:0:0:
267,336,149822,1,0,1:0:0:0:
267,336,149973,2,0,P|233:340|200:346,1,67.4499981988907,8|0,0:0|1:0,0:0:0:0:
120,309,150276,2,0,P|88:259|104:214,1,101.174997298336,10|0,0:0|2:0,0:0:0:0:
108,174,150580,6,0,B|183:173|170:220|251:216,1,134.899996397781,12|8,1:2|0:0,0:0:0:0:
296,155,151034,1,0,1:0:0:0:
355,220,151186,2,0,P|388:206|423:197,1,67.4499981988907,8|0,0:0|1:0,0:0:0:0:
497,235,151489,2,0,P|499:198|507:154,1,67.4499981988907,8|0,0:0|1:2,0:0:0:0:
495,73,151792,6,0,P|431:53|354:38,1,134.899996397781,14|8,1:2|0:0,0:0:0:0:
290,83,152246,1,2,1:2:0:0:
290,83,152398,2,0,P|255:95|223:104,1,67.4499981988907,8|0,0:0|1:0,0:0:0:0:
150,55,152701,1,10,0:2:0:0:
150,55,153004,6,0,P|99:105|110:187,1,134.899996397781,14|8,1:2|0:0,0:0:0:0:
154,238,153458,1,0,1:0:0:0:
154,238,153610,2,0,L|220:224,1,67.4499981988907,14|0,1:2|0:0,0:0:0:0:
274,156,153913,1,8,0:0:0:0:
274,156,154064,1,0,1:0:0:0:
353,193,154216,6,0,L|367:259,1,67.4499981988907,10|8,0:0|0:0,0:0:0:0:
401,289,154443,1,8,0:0:0:0:
401,289,154519,1,0,1:0:0:0:
439,359,154670,1,0,1:0:0:0:
356,370,154822,2,0,L|290:384,1,67.4499981988907,8|4,3:0|3:0,0:0:0:0:
257,363,155049,1,4,3:0:0:0:
257,363,155125,2,0,L|221:356,3,33.7249990994454,0|0|0|0,1:2|1:0|1:0|1:2,0:0:0:0:
181,334,155428,6,0,P|150:362|110:366,1,67.4499981988907,12|0,1:0|0:0,0:0:0:0:
38,375,155731,2,0,P|53:297|62:242,1,134.899996397781,8|8,0:0|0:0,0:0:0:0:
19,170,156186,1,0,1:0:0:0:
19,170,156337,2,0,B|2:134|2:134|27:149,1,67.4499981988907,8|0,0:0|1:2,0:0:0:0:
109,104,156640,6,0,P|168:92|253:78,1,134.899996397781,14|8,1:2|0:0,0:0:0:0:
313,29,157095,1,2,1:2:0:0:
387,74,157246,2,0,P|376:109|367:168,1,67.4499981988907,8|0,0:0|1:0,0:0:0:0:
297,188,157549,2,0,P|311:237|323:286,1,101.174997298336,10|0,0:0|0:0,0:0:0:0:
358,317,157852,6,0,B|389:285|435:298|435:298|460:324|493:320,1,134.899996397781,14|8,1:2|0:0,0:0:0:0:
499,237,158307,1,0,1:0:0:0:
499,237,158458,2,0,P|505:195|514:164,1,67.4499981988907,8|0,0:0|1:0,0:0:0:0:
459,100,158761,2,0,P|454:66|446:33,1,67.4499981988907,8|0,0:0|1:0,0:0:0:0:
382,141,159064,6,0,P|336:190|253:194,1,134.899996397781,14|8,1:2|0:0,0:0:0:0:
205,141,159519,1,2,1:2:0:0:
205,141,159670,2,0,L|217:64,1,67.4499981988907,10|0,0:0|1:0,0:0:0:0:
133,188,159973,2,0,P|84:220|83:276,1,101.174997298336,10|0,0:0|0:0,0:0:0:0:
60,301,160276,6,0,L|37:159,1,134.899996397781,14|8,0:0|0:0,0:0:0:0:
11,89,160731,1,0,1:0:0:0:
11,89,160883,2,0,P|43:65|72:63,1,67.4499981988907,8|0,0:0|1:0,0:0:0:0:
135,4,161186,1,8,0:0:0:0:
135,4,161337,1,0,1:0:0:0:
203,68,161489,6,0,P|255:107|333:92,1,134.899996397781,14|8,0:0|0:0,0:0:0:0:
401,154,161943,1,2,1:2:0:0:
401,154,162095,2,0,P|391:192|390:224,1,67.4499981988907,8|0,0:0|1:0,0:0:0:0:
458,275,162398,1,10,0:0:0:0:
298,375,162701,6,0,P|228:359|160:349,1,134.899996397781,14|10,1:2|0:0,0:0:0:0:
109,289,163155,1,0,1:0:0:0:
109,289,163307,2,0,P|85:324|83:352,1,67.4499981988907,14|0,1:2|0:0,0:0:0:0:
189,267,163610,2,0,P|180:228|175:192,1,67.4499981988907,10|0,0:0|1:0,0:0:0:0:
108,142,163913,5,14,0:0:0:0:
108,142,164064,1,0,1:2:0:0:
165,75,164216,2,0,P|215:86|279:100,1,101.174997298336,8|0,0:0|0:0,0:0:0:0:
305,118,164519,6,0,P|351:106|415:95,1,89.9333309318543,10|8,0:0|0:0,0:0:0:0:
439,132,164822,2,0,P|447:176|458:219,1,89.9333309318543,10|4,3:0|3:3,0:0:0:0:
439,261,165125,5,4,1:2:0:0:
431,153,166943,6,0,B|360:136|371:210|276:193,1,149.099995449829,4|0,1:0|0:0,0:0:0:0:
229,148,167549,2,0,L|223:115,3,24.8499992416382,8|0|0|0,0:0|1:0|1:0|1:0,0:0:0:0:
218,84,167852,1,4,1:2:0:0:
218,84,169367,6,0,P|183:124|189:177,1,99.3999969665528,4|2,1:2|0:0,0:0:0:0:
298,247,169973,2,0,P|372:230|452:217,1,149.099995449829,2|0,0:0|0:0,0:0:0:0:
504,270,170580,1,4,1:0:0:0:
504,270,171792,6,0,P|446:245|433:211,1,99.3999969665528,4|2,1:0|0:0,0:0:0:0:
505,100,172398,1,4,1:2:0:0:
505,100,174216,6,0,P|456:89|397:81,1,99.3999969665528,4|2,1:0|2:0,0:0:0:0:
275,37,174822,2,0,P|262:42|243:46,3,24.8499992416382,2|0|10|10,0:0|0:0|0:2|0:2,0:0:0:0:
214,60,175125,1,4,1:0:0:0:
65,17,175428,5,8,0:0:0:0:
65,17,175579,2,0,P|45:43|44:76,1,56.8,2|0,0:0|0:0,0:0:0:0:
108,110,175882,2,0,P|117:136|125:163,1,56.8,2|0,2:0|2:0,0:0:0:0:
197,198,176185,2,0,P|177:251|162:306,1,113.6,8|0,0:0|0:0,0:0:0:0:
204,379,176640,1,10,0:0:0:0:
204,379,176791,2,0,P|230:369|258:361,1,56.8,0|0,1:2|0:0,0:0:0:0:
311,301,177094,1,2,2:0:0:0:
378,258,177246,2,0,P|393:262|407:264,3,28.4,8|8|8|8,0:0|0:0|0:0|0:0,0:0:0:0:
443,276,177549,1,4,1:0:0:0:
492,127,177852,5,8,0:0:0:0:
492,127,178003,2,0,P|492:90|470:62,1,56.8,2|0,0:0|0:0,0:0:0:0:
410,38,178306,2,0,L|351:57,1,56.8,0|8,1:0|0:0,0:0:0:0:
288,98,178609,2,0,P|230:87|166:78,1,113.6,4|0,1:0|0:0,0:0:0:0:
105,116,179064,1,8,0:0:0:0:
159,173,179215,2,0,P|215:181|270:191,1,113.6,4|0,1:2|0:0,0:0:0:0:
339,232,179670,6,0,P|377:219|418:208,1,75.7333333333333,10|8,0:0|0:0,0:0:0:0:
454,240,179973,2,0,P|445:287|435:338,1,75.7333333333333,12|8,3:0|3:0,0:0:0:0:
430,364,180276,5,4,1:0:0:0:
352,382,180427,2,0,P|296:371|224:358,1,113.6,2|2,0:0|1:2,0:0:0:0:
178,308,180882,2,0,P|163:280|164:248,1,56.8,0|8,0:0|0:0,0:0:0:0:
210,192,181185,1,2,2:0:0:0:
210,192,181336,1,0,1:0:0:0:
146,134,181488,2,0,P|88:149|30:160,1,113.6,8|2,0:2|0:0,0:0:0:0:
174,60,182094,6,0,P|199:37|230:29,1,56.8,0|8,1:0|0:0,0:0:0:0:
299,6,182397,1,2,2:0:0:0:
299,6,182548,1,0,1:0:0:0:
367,57,182700,2,0,P|419:68|486:79,1,113.6,8|0,0:0|1:0,0:0:0:0:
498,154,183154,1,8,0:0:0:0:
440,208,183306,2,0,P|422:179|419:150,2,56.8,2|10|2,1:2|0:0|1:2,0:0:0:0:
490,281,183760,1,8,0:0:0:0:
490,281,183836,1,8,0:0:0:0:
490,281,183912,2,0,P|483:311|480:336,1,56.8,8|8,0:0|3:0,0:0:0:0:
411,377,184215,1,0,1:0:0:0:
260,269,184519,6,0,P|197:217|128:226,1,142,14|0,0:0|1:0,0:0:0:0:
72,158,184973,2,0,P|135:106|204:115,1,142,8|0,0:0|1:0,0:0:0:0:
271,62,185428,2,0,P|285:100|280:136,1,71,8|0,0:0|1:0,0:0:0:0:
326,211,185731,6,0,P|395:204|440:152,1,142,12|0,0:0|1:0,0:0:0:0:
397,70,186185,2,0,P|327:76|282:128,1,142,12|0,0:2|1:0,0:0:0:0:
234,207,186640,1,8,0:0:0:0:
127,357,186943,6,0,P|205:341|272:332,1,142,12|0,0:0|1:0,0:0:0:0:
354,358,187397,2,0,P|432:374|499:383,1,142,8|0,0:0|1:0,0:0:0:0:
468,293,187852,2,0,P|432:288|398:280,1,71,8|0,0:0|1:0,0:0:0:0:
331,214,188155,5,12,0:0:0:0:
331,214,188306,1,0,1:0:0:0:
393,146,188458,1,0,1:0:0:0:
393,146,188609,1,0,1:0:0:0:
328,80,188761,2,0,P|293:88|255:96,2,71,8|0|0,0:0|1:0|1:0,0:0:0:0:
402,24,189215,1,0,1:0:0:0:
402,24,189367,5,2,0:0:0:0:
380,62,197852,5,10,1:2:0:0:
380,62,198003,2,0,P|373:93|367:127,1,56.8,10|0,2:2|0:0,0:0:0:0:
310,187,198307,2,0,P|256:196|193:126,1,142,4|8,1:0|1:2,0:0:0:0:
34,211,198912,6,0,P|-10:277|4:351,1,149.099995449829,12|0,1:0|0:0,0:0:0:0:
95,358,199367,2,0,P|134:345|172:335,1,74.5499977249146,8|2,0:0|0:0,0:0:0:0:
263,343,199670,2,0,P|250:304|240:266,1,74.5499977249146,2|2,1:2|1:2,0:0:0:0:
265,172,199973,1,8,0:0:0:0:
265,172,200125,6,0,P|210:190|158:203,1,111.824996587372,2|0,0:0|0:0,0:0:0:0:
138,158,200428,2,0,P|111:123|117:86,1,74.5499977249146,2|0,1:2|1:0,0:0:0:0:
53,24,200731,1,2,1:2:0:0:
53,24,200882,2,0,P|23:56|25:93,1,74.5499977249146,2|2,1:2|1:2,0:0:0:0:
39,192,201185,1,10,0:0:0:0:
39,192,201337,6,0,P|64:262|82:340,1,149.099995449829,4|0,1:0|1:0,0:0:0:0:
172,364,201791,2,0,P|183:313|195:284,1,74.5499977249146,8|2,0:0|0:0,0:0:0:0:
278,312,202094,2,0,P|265:347|258:383,1,74.5499977249146,0|0,1:0|1:0,0:0:0:0:
366,382,202397,1,8,0:0:0:0:
366,382,202549,6,0,P|428:359|431:305,1,111.824996587372,2|0,1:2|0:0,0:0:0:0:
463,279,202852,2,0,P|450:243|443:207,1,74.5499977249146,2|0,1:2|0:0,0:0:0:0:
388,127,203155,2,0,P|399:76|411:47,1,74.5499977249146,2|0,1:2|0:0,0:0:0:0:
350,214,203458,2,0,P|327:220|306:228,3,37.2749988624573,0|0|8|8,1:0|1:2|0:0|0:0,0:0:0:0:
272,249,203761,6,0,P|195:236|117:227,1,149.099995449829,12|0,1:0|1:0,0:0:0:0:
62,164,204215,1,8,0:0:0:0:
102,83,204367,2,0,B|179:68|177:126|258:106,1,149.099995449829,2|0,2:2|0:0,0:0:0:0:
299,37,204822,2,0,P|331:15|374:16,1,74.5499977249146,8|2,2:2|0:0,0:0:0:0:
426,89,205125,6,0,P|413:146|406:212,1,111.824996587372,2|0,1:2|0:0,0:0:0:0:
396,242,205428,1,8,0:0:0:0:
472,289,205579,2,0,P|479:323|487:364,1,74.5499977249146,2|0,0:0|2:0,0:0:0:0:
400,361,205882,1,2,1:2:0:0:
400,361,206034,2,0,P|348:371|286:383,1,111.824996587372,8|0,2:0|0:0,0:0:0:0:
250,354,206337,6,0,P|258:268|267:198,1,149.099995449829,12|8,1:0|0:0,0:0:0:0:
220,134,206791,1,0,1:0:0:0:
220,134,206943,2,0,P|189:171|153:176,1,74.5499977249146,0|0,1:0|0:0,0:0:0:0:
111,104,207246,2,0,P|142:67|178:62,1,74.5499977249146,8|0,0:0|0:0,0:0:0:0:
79,184,207549,6,0,P|70:218|64:261,1,74.5499977249146,2|0,1:2|1:2,0:0:0:0:
4,323,207852,1,8,0:0:0:0:
98,372,208003,1,8,0:0:0:0:
98,372,208079,1,8,0:0:0:0:
98,372,208155,2,0,P|136:361|179:352,1,74.5499977249146,10|14,0:0|0:2,0:0:0:0:
223,199,208609,6,0,P|297:214|369:225,1,149.099995449829,12|0,1:0|1:0,0:0:0:0:
455,270,209064,2,0,P|476:235|469:200,1,74.5499977249146,8|2,0:0|0:0,0:0:0:0:
506,112,209367,2,0,P|486:76|452:64,1,74.5499977249146,2|0,1:2|1:0,0:0:0:0:
389,134,209670,1,8,0:0:0:0:
291,96,209822,6,0,P|240:84|181:72,1,111.824996587372,2|0,1:2|0:0,0:0:0:0:
138,94,210125,2,0,P|121:136|131:164,1,74.5499977249146,2|0,1:2|0:0,0:0:0:0:
119,261,210428,1,2,1:2:0:0:
119,261,210579,2,0,P|158:250|192:244,1,74.5499977249146,2|2,0:0|1:2,0:0:0:0:
279,203,210882,1,10,0:2:0:0:
345,285,211034,6,0,P|416:305|490:318,1,149.099995449829,4|0,1:0|1:0,0:0:0:0:
470,224,211488,2,0,P|433:217|397:207,1,74.5499977249146,8|2,0:0|0:0,0:0:0:0:
372,113,211791,2,0,B|363:73|363:73|387:103,1,74.5499977249146,0|0,1:0|1:0,0:0:0:0:
305,186,212094,1,8,0:0:0:0:
305,186,212246,6,0,P|264:222|190:230,1,111.824996587372,2|0,1:2|0:0,0:0:0:0:
165,254,212549,2,0,P|130:235|90:225,1,74.5499977249146,2|0,1:2|0:0,0:0:0:0:
18,167,212852,1,2,1:2:0:0:
63,85,213003,1,0,1:2:0:0:
63,85,213079,1,0,1:2:0:0:
63,85,213155,2,0,P|82:78|104:73,3,37.2749988624573,0|0|8|8,1:0|1:2|0:0|2:2,0:0:0:0:
140,43,213458,6,0,P|208:58|298:76,1,149.099995449829,4|0,1:0|0:0,0:0:0:0:
372,31,213912,1,8,0:0:0:0:
445,94,214064,2,0,P|428:167|412:260,1,149.099995449829,2|0,2:2|0:0,0:0:0:0:
480,318,214519,1,8,2:2:0:0:
480,318,214670,1,2,0:0:0:0:
388,372,214822,6,0,P|332:320|282:324,1,111.824996587372,2|0,1:2|0:0,0:0:0:0:
256,340,215125,1,8,0:0:0:0:
174,288,215276,2,0,B|158:255|158:255|181:212,1,74.5499977249146,2|0,0:0|1:0,0:0:0:0:
257,168,215579,1,0,1:0:0:0:
208,83,215731,2,0,B|169:120|169:120|105:114,1,111.824996587372,8|0,0:0|0:0,0:0:0:0:
65,139,216034,6,0,B|26:78|26:78|46:-1,2,149.099995449829,4|8|0,1:0|0:0|1:0,0:0:0:0:
7,226,216791,1,0,1:0:0:0:
7,226,216943,1,8,0:0:0:0:
189,337,217246,5,4,1:0:0:0:
189,337,217397,1,0,1:0:0:0:
275,276,217549,1,8,0:0:0:0:
275,276,217700,1,0,1:0:0:0:
353,333,217852,2,0,L|472:351,1,111.824996587372,8|8,0:0|0:0,0:0:0:0:
500,317,218155,2,0,L|489:267,3,37.2749988624573,0|0|0|0,1:2|1:2|1:2|1:2,0:0:0:0:
461,246,218458,6,0,L|477:124,3,120.70000230217,4|0|0|0,1:0|1:0|1:0|1:0,0:0:0:0:
361,19,219670,1,0,1:0:0:0:
297,73,219822,1,8,0:0:0:0:
297,73,219897,1,8,0:0:0:0:
297,73,219973,2,0,L|231:62,1,60.3500011510849,8|4,0:0|1:3,0:0:0:0:
167,27,220276,2,0,L|84:47,2,80.4666682014466,8|4|8,0:0|1:3|0:0,0:0:0:0:
194,127,220882,6,0,P|205:181|148:230,3,120.70000230217,4|0|0|0,1:0|1:0|1:0|1:0,0:0:0:0:
59,343,222094,1,0,1:0:0:0:
134,378,222246,1,8,0:0:0:0:
134,378,222397,2,0,L|215:362,1,60.3500011510849,8|4,0:0|1:3,0:0:0:0:
264,333,222700,2,0,P|297:361|354:363,2,80.4666682014466,8|4|8,0:0|1:3|0:0,0:0:0:0:
356,272,223306,6,0,P|373:203|402:148,1,127.799996099854,4|0,1:0|1:0,0:0:0:0:
242,97,223912,2,0,P|225:166|196:221,1,127.799996099854,4|0,1:0|1:2,0:0:0:0:
199,293,224367,1,0,1:2:0:0:
133,343,224519,6,0,P|93:332|42:325,2,85.1999973999024,4|4|8,1:0|3:0|3:0,0:0:0:0:
234,298,225125,2,0,P|326:284|417:259,1,170.399994799805,2|2,1:2|3:0,0:0:0:0:
429,158,225731,6,0,P|469:147|520:140,2,85.1999973999024,12|8|8,1:2|0:0|3:0,0:0:0:0:
328,113,226337,2,0,P|235:99|144:74,1,170.399994799805,12|8,1:2|3:0,0:0:0:0:
66,22,226943,6,0,B|40:13|17:0|17:0|-24:87|50:135,1,191.69999414978,12|0,1:0|0:0,0:0:0:0:
100,178,227549,2,0,B|114:265|51:255|75:356,1,170.4,4|0,1:0|0:0,0:0:0:0:
169,374,228155,6,0,P|239:359|316:348,2,134.899996397781,4|0|2,1:0|1:0|1:2,0:0:0:0:
181,290,228912,1,2,0:2:0:0:
181,290,229064,2,0,P|213:282|247:277,1,67.4499981988907,0|0,1:0|0:0,0:0:0:0:
303,210,229367,6,0,P|359:248|409:246,1,101.174997298336,0|0,1:0|0:0,0:0:0:0:
422,218,229670,2,0,P|411:176|406:141,1,67.4499981988907,0|2,1:0|0:0,0:0:0:0:
335,90,229973,2,0,P|279:128|229:126,1,101.174997298336,2|0,1:2|0:0,0:0:0:0:
216,98,230276,2,0,P|227:56|232:21,1,67.4499981988907,0|0,1:0|0:0,0:0:0:0:
140,3,230579,6,0,P|128:71|109:137,1,134.899996397781,4|8,1:0|0:0,0:0:0:0:
33,171,231034,1,2,0:0:0:0:
32,171,231185,2,0,P|44:205|51:245,1,67.4499981988907,8|0,0:0|0:0,0:0:0:0:
12,317,231488,1,10,0:0:0:0:
12,317,231640,1,0,2:0:0:0:
99,350,231791,6,0,P|158:313|242:325,1,134.899996397781,8|8,0:0|0:0,0:0:0:0:
289,370,232246,1,2,1:2:0:0:
371,335,232397,1,2,1:2:0:0:
371,335,232549,1,2,1:2:0:0:
372,247,232700,2,0,P|366:194|357:159,1,67.4499981988907,8|0,0:0|1:2,0:0:0:0:
285,125,233003,6,0,P|254:170|187:179,1,101.174997298336,4|0,1:0|0:0,0:0:0:0:
170,198,233306,2,0,P|131:177|88:167,1,67.4499981988907,8|2,0:0|0:0,0:0:0:0:
27,138,233609,2,0,P|48:99|58:56,1,67.4499981988907,8|0,0:0|1:0,0:0:0:0:
110,10,233912,1,8,0:0:0:0:
110,10,234064,1,0,1:0:0:0:
187,40,234197,6,0,L|277:27,1,89.9333309318543,8|8,1:2|3:0,0:0:0:0:
326,56,234500,2,0,L|436:79,1,89.9333309318543,4|2,3:0|3:0,0:0:0:0:
468,52,234803,1,4,1:0:0:0:
256,192,235409,12,14,237681,1:2:0:0:
