osu file format v14

[General]
AudioFilename: audio.mp3
AudioLeadIn: 0
PreviewTime: 50731
Countdown: 0
SampleSet: Soft
StackLeniency: 0.1
Mode: 0
LetterboxInBreaks: 0
WidescreenStoryboard: 1

[Editor]
Bookmarks: 9973,29367,39064,51186,70580,77852,87549,97246,106943,119064,138458,145731,165125,175428,184519,189367,197852,198913,218458,237701
DistanceSpacing: 0.7
BeatDivisor: 4
GridSize: 8
TimelineZoom: 1.6

[Metadata]
Title:OveR
TitleUnicode:OveR
Artist:Tomita Miyu
ArtistUnicode:富田美憂
Creator:pnky
Version:ExperT
Source:デート・ア・ライブⅣ
Tags:4 時崎狂三 tokisaki kurumi 坂部剛 dal date a live 4th season j rock j pop female vocal vocalist anime op opening kadokawa japanese jpop j-pop pop season full size version rock j-rock jrock l1ght_u light_u -hitomi
BeatmapID:3830718
BeatmapSetID:1862561

[Difficulty]
HPDrainRate:5.5
CircleSize:6.5
OverallDifficulty:8.5
ApproachRate:9
SliderMultiplier:1.62
SliderTickRate:1

[Events]
//Background and Video events
0,0,"68455016_p0.jpg",0,0
//Break Periods
2,19719,28761
2,87749,96640
2,148355,154216
2,189567,197246
//Storyboard Layer 0 (Background)
//Storyboard Layer 1 (Fail)
//Storyboard Layer 2 (Pass)
//Storyboard Layer 3 (Foreground)
//Storyboard Layer 4 (Overlay)
//Storyboard Sound Samples

[TimingPoints]
277,303.030303030303,4,2,69,40,1,0
277,-500,4,2,69,40,0,0
1943,-500,4,2,68,5,0,0
2095,-250,4,2,68,40,0,0
2549,-250,4,2,68,5,0,0
2701,-250,4,2,69,40,0,0
3004,-250,4,2,69,5,0,0
3155,-250,4,2,68,40,0,0
3458,-250,4,2,68,5,0,0
3610,-250,4,2,69,40,0,0
4973,-250,4,2,69,5,0,0
5125,-500,4,2,69,40,0,0
6792,-500,4,2,69,5,0,0
6943,-250,4,2,68,40,0,0
7398,-250,4,2,68,5,0,0
7549,-250,4,2,69,40,0,0
9292,-250,4,2,69,5,0,0
9367,-166.666666666667,4,2,1,40,0,0
9973,-111.111111111111,4,2,3,60,0,0
10277,-111.111111111111,4,2,1,70,0,0
11716,-111.111111111111,4,2,1,5,0,0
11792,-111.111111111111,4,2,1,70,0,0
17246,-105.263157894737,4,2,1,70,0,0
17701,-200,4,2,1,70,0,0
18080,-200,4,2,1,5,0,0
18155,-105.263157894737,4,2,1,70,0,0
18610,-200,4,2,1,70,0,0
19064,-111.111111111111,4,2,1,70,0,0
19140,-111.111111111111,4,2,1,5,0,0
19216,-111.111111111111,4,2,1,70,0,0
19292,-111.111111111111,4,2,1,5,0,0
19367,-111.111111111111,4,2,1,70,0,0
19443,-111.111111111111,4,2,1,5,0,0
19519,-111.111111111111,4,2,1,70,0,0
19670,-200,4,2,1,70,0,0
29367,-200,4,2,1,50,0,0
33610,-200,4,2,69,50,0,0
34216,-200,4,2,68,50,0,0
34822,-200,4,2,1,50,0,0
37928,-200,4,2,1,5,0,0
38004,-200,4,2,1,50,0,0
38458,-200,4,2,68,50,0,0
38761,-200,4,2,1,50,0,0
39064,-166.666666666667,4,2,1,60,0,0
46337,-111.111111111111,4,2,1,65,0,0
50731,-249.999999999999,4,2,1,45,0,0
51186,-117.647058823529,4,2,1,75,0,0
52170,-117.647058823529,4,2,1,5,0,0
52246,-117.647058823529,4,2,1,75,0,0
54595,-117.647058823529,4,2,1,5,0,0
54670,-117.647058823529,4,2,1,75,0,0
56867,-117.647058823529,4,2,1,5,0,0
56943,-117.647058823529,4,2,1,75,0,0
57019,-117.647058823529,4,2,1,5,0,0
57095,-117.647058823529,4,2,1,75,0,0
58383,-117.647058823529,4,2,1,5,0,0
58458,-117.647058823529,4,2,1,75,0,0
59595,-117.647058823529,4,2,1,5,0,0
59670,-117.647058823529,4,2,1,75,0,0
60125,-105.263157894737,4,2,1,75,0,0
60352,-105.263157894737,4,2,1,5,0,0
60428,-117.647058823529,4,2,1,75,0,0
60466,-117.647058823529,4,2,1,5,0,0
60731,-100,4,2,1,80,0,1
62170,-100,4,2,1,5,0,1
62246,-100,4,2,1,80,0,1
68080,-100,4,2,1,5,0,1
68155,-100,4,2,1,80,0,1
68383,-100,4,2,1,5,0,1
68458,-100,4,2,1,80,0,1
70580,-166.666666666667,4,2,1,65,0,0
72398,-142.857142857143,4,2,1,65,0,0
73004,-166.666666666667,4,2,1,65,0,0
75428,-142.857142857143,4,2,1,65,0,0
76034,-125,4,2,1,65,0,0
76640,-142.857142857143,4,2,1,65,0,0
77852,-111.111111111111,4,2,1,70,0,0
78080,-111.111111111111,4,2,1,5,0,0
78155,-111.111111111111,4,2,1,70,0,0
79898,-111.111111111111,4,2,1,5,0,0
79973,-111.111111111111,4,2,1,70,0,0
80201,-111.111111111111,4,2,1,5,0,0
80276,-111.111111111111,4,2,1,70,0,0
82928,-111.111111111111,4,2,1,5,0,0
83004,-111.111111111111,4,2,1,70,0,0
85125,-105.263157894737,4,2,1,75,0,0
85580,-200,4,2,1,75,0,0
86034,-105.263157894737,4,2,1,75,0,0
86489,-200,4,2,1,75,0,0
86943,-111.111111111111,4,2,1,75,0,0
87549,-111.111111111111,4,2,2,50,0,0
97246,-200,4,2,69,40,0,0
97398,-200,4,2,1,40,0,0
98458,-200,4,2,69,40,0,0
98610,-200,4,2,1,40,0,0
101489,-200,4,2,69,40,0,0
101792,-200,4,2,68,40,0,0
102095,-200,4,2,69,40,0,0
102398,-200,4,2,1,40,0,0
103307,-200,4,2,69,40,0,0
103458,-200,4,2,1,40,0,0
105807,-200,4,2,1,5,0,0
105883,-200,4,2,1,40,0,0
105958,-200,4,2,1,5,0,0
106034,-200,4,2,1,40,0,0
106337,-200,4,2,69,40,0,0
106564,-200,4,2,69,5,0,0
106640,-200,4,2,68,50,0,0
106943,-166.666666666667,4,2,1,55,0,0
114216,-111.111111111111,4,2,1,55,0,0
118610,-250.000000000001,4,2,1,45,0,0
119064,-117.647058823529,4,2,1,75,0,0
120049,-117.647058823529,4,2,1,5,0,0
120125,-117.647058823529,4,2,1,75,0,0
122473,-117.647058823529,4,2,1,5,0,0
122549,-117.647058823529,4,2,1,75,0,0
124746,-117.647058823529,4,2,1,5,0,0
124822,-117.647058823529,4,2,1,75,0,0
124898,-117.647058823529,4,2,1,5,0,0
124973,-117.647058823529,4,2,1,75,0,0
126261,-117.647058823529,4,2,1,5,0,0
126337,-117.647058823529,4,2,1,75,0,0
127473,-117.647058823529,4,2,1,5,0,0
127549,-117.647058823529,4,2,1,75,0,0
128004,-105.263157894737,4,2,1,75,0,0
128231,-105.263157894737,4,2,1,5,0,0
128307,-105.263157894737,4,2,1,75,0,0
128345,-105.263157894737,4,2,1,5,0,0
128383,-105.263157894737,4,2,1,75,0,0
128610,-100,4,2,1,80,0,1
130049,-100,4,2,1,5,0,1
130125,-100,4,2,1,80,0,1
132473,-100,4,2,1,5,0,1
132549,-100,4,2,1,80,0,1
135049,-100,4,2,1,5,0,1
135125,-100,4,2,1,80,0,1
135958,-100,4,2,1,5,0,1
136034,-100,4,2,1,80,0,1
136261,-100,4,2,1,5,0,1
136337,-100,4,2,1,80,0,1
138458,-166.666666666667,4,2,1,65,0,0
140277,-125,4,2,1,65,0,0
140883,-166.666666666667,4,2,1,65,0,0
142701,-125,4,2,1,65,0,0
143307,-142.857142857143,4,2,1,65,0,0
143913,-125,4,2,1,65,0,0
144519,-142.857142857143,4,2,1,65,0,0
145731,-111.111111111111,4,2,1,70,0,0
147170,-111.111111111111,4,2,1,5,0,0
147246,-111.111111111111,4,2,1,70,0,0
147322,-111.111111111111,4,2,1,5,0,0
147398,-111.111111111111,4,2,1,70,0,0
148080,-111.111111111111,4,2,1,5,0,0
148155,-111.111111111111,4,2,1,70,0,0
148383,-111.111111111111,4,2,1,5,0,0
148458,-111.111111111111,4,2,1,70,0,0
149595,-111.111111111111,4,2,1,5,0,0
149670,-111.111111111111,4,2,1,70,0,0
149746,-111.111111111111,4,2,1,5,0,0
149822,-111.111111111111,4,2,1,70,0,0
150807,-111.111111111111,4,2,1,5,0,0
150883,-111.111111111111,4,2,1,70,0,0
152019,-111.111111111111,4,2,1,5,0,0
152095,-111.111111111111,4,2,1,70,0,0
152170,-111.111111111111,4,2,1,5,0,0
152246,-111.111111111111,4,2,1,70,0,0
155352,-111.111111111111,4,2,1,5,0,0
155428,-100,4,2,1,75,0,0
156867,-100,4,2,1,5,0,0
156943,-100,4,2,1,75,0,0
157019,-100,4,2,1,5,0,0
157095,-100,4,2,1,75,0,0
157852,-100,4,2,1,75,0,0
158080,-100,4,2,1,5,0,0
158155,-100,4,2,1,75,0,0
159292,-100,4,2,1,5,0,0
159367,-100,4,2,1,75,0,0
159443,-100,4,2,1,5,0,0
159519,-100,4,2,1,75,0,0
160201,-100,4,2,1,5,0,0
160276,-100,4,2,1,75,0,0
160504,-100,4,2,1,5,0,0
160580,-100,4,2,1,75,0,0
161716,-100,4,2,1,5,0,0
161792,-100,4,2,1,75,0,0
161867,-100,4,2,1,5,0,0
161943,-100,4,2,1,75,0,0
164443,-100,4,2,1,5,0,0
164519,-100,4,2,1,75,0,0
165125,-500.000000000003,4,2,2,50,0,0
166867,-500.000000000003,4,2,2,5,0,0
166943,-500.000000000003,4,2,1,50,0,0
167473,-500.000000000003,4,2,1,5,0,0
167549,-250.000000000001,4,2,1,50,0,0
167852,-500.000000000003,4,2,1,50,0,0
169292,-500.000000000003,4,2,1,5,0,0
169367,-500.000000000003,4,2,1,50,0,0
169973,-250.000000000001,4,2,1,50,0,0
170580,-500.000000000003,4,2,1,50,0,0
171716,-500.000000000003,4,2,1,5,0,0
171792,-500.000000000003,4,2,1,50,0,0
172322,-500.000000000003,4,2,1,5,0,0
172398,-666.666666666667,4,2,1,50,0,0
174140,-666.666666666667,4,2,1,5,0,0
174216,-666.666666666667,4,2,1,50,0,0
174822,-250,4,2,1,50,0,0
175125,303.030303030303,4,2,1,50,1,0
175125,-142.857142857143,4,2,1,50,0,0
175352,-142.857142857143,4,2,1,5,0,0
175428,-142.857142857143,4,2,1,50,0,0
177549,-142.857142857143,4,2,1,60,0,0
177776,-142.857142857143,4,2,1,5,0,0
177852,-142.857142857143,4,2,1,60,0,0
179595,-142.857142857143,4,2,1,5,0,0
179670,-142.857142857143,4,2,1,60,0,0
180276,303.030303030303,4,2,1,60,1,0
180276,-142.857142857143,4,2,1,60,0,0
184519,303.030303030303,4,2,1,70,1,0
189367,-100,4,2,69,50,0,0
191034,-100,4,2,1,50,0,0
191716,-100,4,2,1,5,0,0
191792,-100,4,2,1,50,0,0
197852,-250,4,2,1,60,0,0
198306,-105.263157894737,4,2,1,60,0,0
198534,-105.263157894737,4,2,1,5,0,0
198610,-105.263157894737,4,2,1,60,0,0
198648,-105.263157894737,4,2,1,5,0,0
198686,-105.263157894737,4,2,1,60,0,0
198912,-100,4,2,1,75,0,1
200352,-100,4,2,1,5,0,1
200428,-100,4,2,1,75,0,1
202776,-100,4,2,1,5,0,1
202852,-100,4,2,1,75,0,1
205352,-100,4,2,1,5,0,1
205428,-100,4,2,1,75,0,1
205504,-100,4,2,1,5,0,1
205580,-100,4,2,1,75,0,1
206261,-100,4,2,1,5,0,1
206337,-100,4,2,1,75,0,1
206564,-100,4,2,1,5,0,1
206640,-100,4,2,1,75,0,1
207170,-100,4,2,1,5,0,1
207246,-100,4,2,1,75,0,1
208155,-90.9090909090909,4,2,1,75,0,1
208306,-90.9090909090909,4,2,1,75,0,0
208534,-90.9090909090909,4,2,1,5,0,0
208609,-100,4,2,3,80,0,1
209064,-100,4,2,1,80,0,1
210049,-100,4,2,1,5,0,1
210125,-100,4,2,1,80,0,1
211261,-100,4,2,1,5,0,1
211337,-100,4,2,1,80,0,1
212473,-100,4,2,1,5,0,1
212549,-100,4,2,1,80,0,1
215049,-100,4,2,1,5,0,1
215125,-100,4,2,1,80,0,1
215958,-100,4,2,1,5,0,1
216034,-100,4,2,1,80,0,1
216261,-100,4,2,1,5,0,1
216337,-100,4,2,1,80,0,1
218458,-166.666666666667,4,2,1,50,0,0
220276,-125,4,2,1,50,0,0
220882,-166.666666666667,4,2,1,50,0,0
222700,-125,4,2,1,50,0,0
223306,-142.857142857143,4,2,1,65,0,0
223912,-125,4,2,1,65,0,0
224519,-125,4,2,1,65,0,0
225731,-125,4,2,1,70,0,0
226943,-200,4,2,1,70,0,0
227473,-125,4,2,1,5,0,0
227549,-125,4,2,1,70,0,0
228155,-111.111111111111,4,2,1,60,0,0
228383,-111.111111111111,4,2,1,5,0,0
228458,-111.111111111111,4,2,1,60,0,0
230201,-111.111111111111,4,2,1,5,0,0
230276,-111.111111111111,4,2,1,60,0,0
230580,-111.111111111111,4,2,1,65,0,0
231716,-111.111111111111,4,2,1,5,0,0
231792,-111.111111111111,4,2,1,65,0,0
233004,-111.111111111111,4,2,1,70,0,0
233231,-111.111111111111,4,2,1,5,0,0
233307,-111.111111111111,4,2,1,70,0,0
234197,303.030303030303,4,2,1,60,1,0
234197,-125,4,2,1,60,0,0
235333,-125,4,2,1,5,0,0
235409,-166.666666666667,4,2,1,60,0,0
235712,-166.666666666667,4,2,1,50,0,0
236166,-166.666666666667,4,2,1,55,0,0
236621,-166.666666666667,4,2,1,60,0,0
237075,-166.666666666667,4,2,1,65,0,0
237530,-166.666666666667,4,2,1,70,0,0
237681,-166.666666666667,4,2,2,65,0,0

[Colours]
Combo1 : 150,185,220
Combo2 : 240,140,140
Combo3 : 200,180,220
Combo4 : 240,200,155

[HitObjects]
164,31,277,6,0,P|181:122|198:218,1,186.3,2|0,0:0|0:0,0:0:0:0:
251,226,2095,2,0,P|267:220|247:234,1,97.2,2|0,0:0|0:0,0:0:0:0:
142,200,2701,5,2,0:0:0:0:
279,126,3155,1,2,0:0:0:0:
195,78,3610,1,2,0:0:0:0:
195,78,5125,6,0,B|101:66|113:136|18:123,1,186.3,2|0,0:0|0:0,0:0:0:0:
15,118,6943,2,0,B|-23:144|-6:190|-6:190|28:205|45:173,1,129.6,2|2,0:0|0:0,0:0:0:0:
256,192,7625,12,0,9292,0:0:0:0:
320,146,9367,5,0,1:0:0:0:
252,110,9519,2,0,L|246:78,2,24.2999992584229,2|2|0,1:2|1:2|1:0,0:0:0:0:
284,214,9822,1,2,1:2:0:0:
284,214,9898,1,2,1:2:0:0:
284,214,9973,6,0,L|265:367,2,145.799995550537,12|8|0,1:0|0:0|1:0,0:0:0:0:
182,148,10731,1,0,1:0:0:0:
131,190,10883,1,8,0:0:0:0:
182,148,11034,6,0,L|164:3,1,145.799995550537,0|0,1:0|1:0,0:0:0:0:
75,152,11489,2,0,P|42:195|60:256,1,109.349996662903,8|0,0:0|0:0,0:0:0:0:
68,256,11792,1,2,1:2:0:0:
132,248,11943,1,0,1:0:0:0:
197,240,12095,1,8,0:0:0:0:
421,318,12398,6,0,B|352:307|356:368|285:356,1,145.799995550537,2|8,1:2|0:0,0:0:0:0:
239,310,12852,1,2,0:0:0:0:
335,202,13004,1,0,1:0:0:0:
283,162,13155,2,0,P|279:142|275:125,2,36.4499988876343,0|0|10,1:0|1:2|0:2,0:0:0:0:
390,239,13458,6,0,P|399:165|412:88,1,145.799995550537,2|2,1:2|1:2,0:0:0:0:
464,56,13913,1,10,0:0:0:0:
464,56,14064,1,0,1:0:0:0:
341,8,14216,1,2,1:2:0:0:
276,18,14367,1,0,1:0:0:0:
286,83,14519,1,8,0:0:0:0:
351,73,14670,1,0,1:0:0:0:
231,158,14822,6,0,B|168:153|168:153|155:156|155:156|85:151,2,145.799995550537,4|8|0,1:0|0:0|1:0,0:0:0:0:
178,288,15580,1,0,1:0:0:0:
116,310,15731,1,8,0:0:0:0:
178,288,15883,6,0,B|248:283|248:283|261:286|261:286|324:281,1,145.799995550537,0|0,1:2|1:0,0:0:0:0:
459,215,16337,2,0,P|465:179|427:164,1,72.8999977752686,8|0,0:2|0:0,0:0:0:0:
353,112,16640,2,0,L|345:186,1,72.8999977752686,10|8,1:2|1:2,0:0:0:0:
315,236,16867,1,8,1:2:0:0:
317,245,16943,2,0,L|323:284,1,36.4499988876343,2|2,1:2|1:2,0:0:0:0:
402,314,17095,2,0,L|407:277,1,36.4499988876343,2|2,1:2|1:2,0:0:0:0:
257,356,17246,6,0,B|182:341|187:394|103:384,1,153.899995890427,4|8,1:0|0:0,0:0:0:0:
41,330,17701,2,0,P|30:284|53:256,1,81,4|0,1:2|2:2,0:0:0:0:
132,142,18155,6,0,B|207:127|202:180|286:170,1,153.899995890427,4|8,1:0|0:0,0:0:0:0:
348,116,18610,2,0,P|355:66|334:39,1,81,4|4,1:2|3:0,0:0:0:0:
339,43,19064,5,8,3:2:0:0:
512,182,19216,1,8,3:0:0:0:
356,198,19367,1,4,3:0:0:0:
495,26,19519,1,2,1:0:0:0:
437,74,29367,5,0,1:0:0:0:
437,74,29670,1,0,1:0:0:0:
437,74,29973,1,2,1:2:0:0:
384,51,30125,1,2,0:0:0:0:
325,68,30276,1,2,1:2:0:0:
302,121,30428,2,0,P|309:152|318:209,1,81,2|2,0:0|0:0,0:0:0:0:
360,236,30883,1,0,1:0:0:0:
360,236,31186,6,0,P|355:259|351:282,1,40.5,2|2,1:2|0:0,0:0:0:0:
304,307,31489,1,2,1:2:0:0:
414,384,31640,2,0,P|405:327|400:295,1,81,2|2,0:0|0:0,0:0:0:0:
473,384,32246,2,0,P|460:303|453:258,1,121.5,2|2,0:0|1:2,0:0:0:0:
487,218,32852,1,2,0:0:0:0:
487,218,33155,1,2,0:0:0:0:
365,231,33307,2,0,P|387:236|407:240,1,40.5,2|2,1:2|0:0,0:0:0:0:
301,165,33610,5,2,1:2:0:0:
245,174,33761,1,2,0:0:0:0:
188,183,33913,1,2,1:2:0:0:
132,193,34064,1,2,0:0:0:0:
20,213,34216,5,2,1:2:0:0:
20,213,34519,1,2,1:2:0:0:
20,213,34822,5,2,1:2:0:0:
76,219,34973,1,2,0:0:0:0:
99,270,35125,1,2,1:2:0:0:
65,315,35276,2,0,P|39:346|52:384,1,81,2|2,0:0|0:0,0:0:0:0:
103,362,35731,1,0,1:0:0:0:
103,362,36034,2,0,P|123:357|152:353,1,40.5,2|2,1:2|0:0,0:0:0:0:
184,315,36337,1,2,1:2:0:0:
262,333,36489,6,0,P|222:325|183:314,1,81,2|2,0:0|0:0,0:0:0:0:
335,222,37095,1,2,0:0:0:0:
335,222,37398,1,2,0:0:0:0:
335,222,37701,2,0,P|324:261|316:300,1,81,2|2,0:0|0:0,0:0:0:0:
358,338,38155,1,2,1:2:0:0:
409,314,38307,1,2,0:0:0:0:
453,348,38458,6,0,P|448:360|444:370,3,20.25,2|0|2|0,1:2|3:0|3:2|3:0,0:0:0:0:
409,314,38761,2,0,P|414:302|418:292,3,20.25,2|0|0|0,1:2|3:0|3:0|3:0,0:0:0:0:
459,232,39064,6,0,P|442:150|429:82,1,145.799995550537,4|0,1:0|1:2,0:0:0:0:
396,225,39670,2,0,P|385:172|376:128,1,97.1999970336915,8|2,0:0|0:0,0:0:0:0:
459,232,40125,1,0,1:0:0:0:
396,225,40428,1,0,1:0:0:0:
333,218,40731,1,0,1:2:0:0:
270,211,40883,6,0,P|247:226|221:221,1,48.5999985168458,8|0,0:0|0:0,0:0:0:0:
210,157,41186,2,0,P|233:142|259:147,1,48.5999985168458,0|0,3:2|0:0,0:0:0:0:
180,267,41489,6,0,P|131:254|104:163,1,145.799995550537,0|0,1:2|1:0,0:0:0:0:
37,91,42095,2,0,P|17:70|-4:59,2,48.5999985168458,10|2|2,0:0|0:0|0:0,0:0:0:0:
109,98,42549,2,0,P|154:83|214:74,2,97.1999970336915,2|2|2,1:2|1:2|1:2,0:0:0:0:
31,166,43307,2,0,P|21:191|16:215,1,48.5999985168458,10|2,0:0|1:2,0:0:0:0:
16,212,43610,1,0,0:0:0:0:
115,318,43913,6,0,P|192:300|267:288,1,145.799995550537,4|0,1:0|1:0,0:0:0:0:
299,254,44443,1,0,1:0:0:0:
299,254,44519,2,0,B|313:206|313:206|273:241,1,97.1999970336915,8|2,0:0|0:0,0:0:0:0:
257,289,44973,1,0,1:0:0:0:
365,241,45276,1,0,1:0:0:0:
270,171,45580,1,0,1:0:0:0:
222,139,45731,6,0,L|229:86,1,48.5999985168458,8|0,0:0|0:0,0:0:0:0:
388,13,46034,2,0,L|394:61,1,48.5999985168458,0|0,1:2|1:0,0:0:0:0:
380,123,46261,1,0,1:0:0:0:
380,123,46337,6,0,L|368:272,1,145.799995550537,4|8,1:0|0:0,0:0:0:0:
449,87,46792,2,0,L|437:236,1,145.799995550537,4|8,1:2|2:0,0:0:0:0:
299,304,47246,2,0,L|304:231,1,72.8999977752686,4|2,1:2|2:0,0:0:0:0:
132,123,47549,6,0,L|144:272,1,145.799995550537,4|8,1:0|0:0,0:0:0:0:
63,87,48004,2,0,L|75:236,1,145.799995550537,4|8,1:2|2:0,0:0:0:0:
213,304,48458,2,0,L|207:231,1,72.8999977752686,4|0,1:2|0:0,0:0:0:0:
193,0,48761,6,0,B|232:0|256:31|256:31|279:0|318:0,1,145.799995550537,4|8,1:0|0:0,0:0:0:0:
196,67,49216,2,0,P|170:111|221:183,1,145.799995550537,4|0,1:2|1:0,0:0:0:0:
324,132,49670,2,0,P|333:98|316:67,1,72.8999977752686,12|2,0:2|0:0,0:0:0:0:
256,0,49973,5,10,0:0:0:0:
138,81,50125,1,0,1:0:0:0:
256,162,50276,1,8,1:2:0:0:
374,81,50428,1,4,1:0:0:0:
374,81,50731,6,0,P|377:61|381:45,2,32.4,2|2|2,0:0|0:0|0:0,0:0:0:0:
324,132,51186,6,0,P|332:163|340:203,1,68.8500013132096,12|2,1:0|0:0,0:0:0:0:
479,269,51489,1,8,0:0:0:0:
404,351,51640,1,0,1:0:0:0:
404,351,51792,2,0,P|410:317|419:283,1,68.8500013132096,8|0,0:0|0:0,0:0:0:0:
290,298,52095,1,8,0:0:0:0:
290,298,52246,6,0,B|222:285|224:343|151:328,2,137.700002626419,4|2|2,1:2|1:2|1:2,0:0:0:0:
271,358,53004,1,8,3:0:0:0:
177,269,53206,1,4,3:0:0:0:
52,305,53408,1,2,3:0:0:0:
102,357,53610,6,0,P|106:318|111:289,1,68.8500013132096,4|2,1:0|0:0,0:0:0:0:
0,178,53913,1,8,0:0:0:0:
55,136,54064,1,2,1:2:0:0:
55,136,54216,2,0,P|60:169|64:204,1,68.8500013132096,8|2,0:0|1:2,0:0:0:0:
247,292,54519,1,8,0:0:0:0:
291,232,54670,6,0,P|225:223|177:269,2,137.700002626419,4|2|2,1:0|1:2|1:2,0:0:0:0:
449,362,55580,2,0,P|452:343|456:328,3,34.4250006566048,2|2|2|2,0:0|0:0|0:0|0:0,0:0:0:0:
500,267,55883,6,0,P|481:198|467:133,1,137.700002626419,12|0,1:0|1:0,0:0:0:0:
315,75,56337,1,8,0:0:0:0:
255,138,56489,2,0,B|328:121|325:175|396:159,1,137.700002626419,2|0,2:2|2:0,0:0:0:0:
285,200,56943,1,0,1:2:0:0:
285,200,57095,1,2,0:0:0:0:
319,266,57246,6,0,B|306:289|274:280|274:280|250:229|294:192,1,137.700002626419,2|8,1:2|0:0,0:0:0:0:
211,264,57701,2,0,P|181:296|152:296,1,68.8500013132096,2|0,0:0|1:0,0:0:0:0:
15,212,58004,1,2,0:0:0:0:
64,166,58155,2,0,P|71:202|81:271,1,103.275001969814,0|0,1:2|0:0,0:0:0:0:
43,315,58458,5,2,1:2:0:0:
43,315,58610,2,0,P|21:323|42:309,1,68.8500013132096,2|8,0:0|0:0,0:0:0:0:
140,379,58913,2,0,P|149:310|162:243,1,137.700002626419,2|0,0:0|1:0,0:0:0:0:
202,369,59367,2,0,P|209:318|219:268,1,103.275001969814,8|0,1:2|0:0,0:0:0:0:
265,218,59670,6,0,P|262:202|259:184,1,34.4250006566048,8|8,0:0|0:0,0:0:0:0:
332,276,59822,1,8,0:0:0:0:
332,276,59898,1,8,0:0:0:0:
332,276,59973,2,0,P|329:291|326:310,1,34.4250006566048,8|8,0:0|0:0,0:0:0:0:
417,227,60125,2,0,P|461:182|439:93,1,153.899995890427,12|8,1:0|1:2,0:0:0:0:
454,29,60731,6,0,B|410:19|373:50|386:68|347:102|299:85,1,162,12|0,1:0|1:0,0:0:0:0:
136,119,61186,2,0,P|176:125|215:134,1,81,8|2,0:0|0:0,0:0:0:0:
377,221,61489,1,2,1:2:0:0:
332,272,61640,2,0,P|317:234|305:196,1,81,0|8,1:0|0:0,0:0:0:0:
159,245,61943,6,0,P|103:299|54:294,1,121.5,2|0,1:2|0:0,0:0:0:0:
17,260,62246,2,0,L|27:172,1,81,2|0,1:2|0:0,0:0:0:0:
128,39,62549,1,2,0:2:0:0:
128,39,62625,1,2,0:0:0:0:
128,39,62701,2,0,L|135:82,1,40.5,2|0,1:2|0:0,0:0:0:0:
78,108,62852,2,0,L|71:68,1,40.5,2|0,1:2|0:0,0:0:0:0:
184,9,63004,2,0,L|191:52,1,40.5,10|0,0:0|0:0,0:0:0:0:
335,66,63155,6,0,P|253:75|229:156,1,162,4|0,1:0|1:0,0:0:0:0:
165,205,63610,2,0,P|201:238|251:238,1,81,8|2,0:0|2:2,0:0:0:0:
381,167,63913,1,2,1:2:0:0:
381,167,64064,1,0,1:0:0:0:
315,187,64216,1,8,0:0:0:0:
352,314,64367,6,0,P|359:263|366:220,1,81,2|0,1:2|0:0,0:0:0:0:
303,107,64670,2,0,P|309:147|315:187,1,81,2|0,1:2|0:0,0:0:0:0:
418,334,64973,2,0,P|423:293|430:253,1,81,2|0,1:2|0:0,0:0:0:0:
237,127,65276,1,0,1:0:0:0:
237,127,65428,1,8,0:0:0:0:
155,212,65580,6,0,P|237:199|319:187,1,162,12|0,1:0|1:0,0:0:0:0:
82,223,66034,1,8,2:0:0:0:
82,223,66186,1,2,2:0:0:0:
209,270,66337,2,0,P|249:263|290:259,1,81,0|0,1:2|0:0,0:0:0:0:
108,155,66640,2,0,P|81:184|82:223,1,81,8|2,0:0|0:0,0:0:0:0:
137,373,66943,6,0,P|148:262|155:213,1,162,2|8,1:2|0:0,0:0:0:0:
23,325,67398,2,0,P|19:285|14:245,1,81,2|0,0:0|1:0,0:0:0:0:
108,155,67701,1,0,1:0:0:0:
108,155,67852,2,0,P|111:114|117:74,1,81,8|0,0:0|0:0,0:0:0:0:
280,135,68155,6,0,P|344:181|388:164,1,121.5,4|0,1:0|0:0,0:0:0:0:
429,221,68458,2,0,P|448:167|431:133,1,81,8|0,0:0|0:0,0:0:0:0:
269,68,68761,1,2,1:2:0:0:
269,68,68913,1,0,1:0:0:0:
326,35,69064,2,0,P|332:73|341:119,1,81,8|0,0:0|0:0,0:0:0:0:
168,278,69367,6,0,P|175:238|182:198,1,81,4|0,1:0|1:0,0:0:0:0:
231,262,69670,1,8,0:0:0:0:
76,345,69822,1,0,1:0:0:0:
138,374,69973,6,0,P|133:347|130:325,1,40.5,8|8,0:0|0:0,0:0:0:0:
374,374,70125,2,0,P|377:354|380:334,1,40.5,8|8,2:2|2:2,0:0:0:0:
192,323,70277,2,0,P|195:343|198:362,1,40.5,0|0,1:2|1:2,0:0:0:0:
319,323,70428,2,0,P|315:343|312:362,1,40.5,0|0,1:2|1:2,0:0:0:0:
256,384,70580,6,0,L|256:268,1,97.1999970336915,4|0,1:0|1:0,0:0:0:0:
256,224,71186,1,0,1:0:0:0:
256,224,71489,1,0,1:0:0:0:
256,80,71792,5,0,1:0:0:0:
256,144,71943,1,8,0:0:0:0:
256,152,72019,1,8,0:0:0:0:
256,160,72095,1,8,0:0:0:0:
256,224,72246,1,4,1:3:0:0:
256,80,72398,6,0,L|256:0,2,75.5999976928712,8|4|8,0:0|1:3|0:0,0:0:0:0:
163,96,73004,6,0,P|122:136|127:175,1,97.1999970336915,4|0,1:0|1:0,0:0:0:0:
172,213,73610,1,0,1:0:0:0:
172,213,73913,1,0,1:0:0:0:
35,290,74216,5,0,1:0:0:0:
98,305,74367,1,8,0:0:0:0:
98,305,74519,2,0,P|93:277|91:253,1,48.5999985168458,8|4,0:0|1:3,0:0:0:0:
17,376,74822,6,0,P|51:369|81:367,1,64.799998022461,8|4,0:0|1:3,0:0:0:0:
143,352,75125,5,0,1:0:0:0:
143,352,75226,2,0,P|161:359|185:364,1,32.3999990112305,8|0,0:0|1:0,0:0:0:0:
262,384,75428,6,0,P|301:351|375:363,1,113.399996539307,4|0,1:0|1:0,0:0:0:0:
512,220,76034,2,0,P|444:210|372:196,1,129.6,4|0,1:0|1:0,0:0:0:0:
295,78,76640,6,0,P|313:157|332:245,1,170.09999480896,4|0,1:0|0:0,0:0:0:0:
284,294,77246,2,0,P|266:210|247:127,1,170.09999480896,2|2,1:2|0:0,0:0:0:0:
163,57,77852,6,0,P|111:120|44:114,1,145.799995550537,4|0,1:2|1:2,0:0:0:0:
0,227,78307,1,2,0:0:0:0:
53,264,78458,2,0,P|58:227|66:193,1,72.8999977752686,2|2,1:2|0:0,0:0:0:0:
163,57,78761,2,0,P|168:94|176:128,1,72.8999977752686,0|0,1:2|0:0,0:0:0:0:
282,261,79064,6,0,P|221:215|145:233,1,145.799995550537,0|0,1:0|1:0,0:0:0:0:
443,384,79670,2,0,P|453:324|464:274,1,109.349996662903,2|0,1:2|0:0,0:0:0:0:
403,285,79973,2,0,P|394:326|387:367,1,72.8999977752686,0|0,1:0|0:0,0:0:0:0:
282,261,80276,6,0,P|269:183|254:118,1,145.799995550537,4|0,1:2|1:0,0:0:0:0:
411,75,80731,1,2,0:2:0:0:
377,18,80883,2,0,P|349:47|344:84,1,72.8999977752686,0|0,1:0|0:0,0:0:0:0:
210,235,81186,1,2,1:2:0:0:
210,235,81489,5,0,1:0:0:0:
145,223,81640,1,2,0:0:0:0:
133,288,81792,1,2,1:2:0:0:
198,300,81943,1,2,0:0:0:0:
82,246,82095,6,0,P|75:203|70:165,1,72.8999977752686,2|2,1:2|0:0,0:0:0:0:
198,100,82398,2,0,P|192:135|187:172,1,72.8999977752686,0|2,1:0|1:2,0:0:0:0:
14,61,82701,6,0,P|44:95|114:82,1,109.349996662903,4|0,1:0|0:0,0:0:0:0:
137,45,83004,2,0,P|172:39|209:34,1,72.8999977752686,0|0,1:0|0:0,0:0:0:0:
306,137,83307,1,2,1:2:0:0:
306,137,83458,1,2,0:0:0:0:
349,87,83610,2,0,P|314:81|277:76,1,72.8999977752686,0|0,1:0|0:0,0:0:0:0:
476,0,83913,6,0,P|415:40|419:115,1,145.799995550537,0|0,1:0|1:0,0:0:0:0:
512,200,84367,1,2,0:0:0:0:
450,224,84519,2,0,P|457:178|461:147,1,72.8999977752686,2|10,1:2|1:2,0:0:0:0:
414,107,84746,1,8,0:0:0:0:
414,107,84822,1,2,1:2:0:0:
260,183,84973,1,2,1:2:0:0:
260,183,85049,1,0,1:2:0:0:
260,183,85125,6,0,P|175:173|104:167,1,153.899995890427,4|8,1:0|0:0,0:0:0:0:
213,248,85580,2,0,P|172:243|132:239,1,81,6|0,1:2|1:2,0:0:0:0:
307,118,86034,6,0,P|383:111|460:102,1,153.899995890427,4|8,1:0|0:0,0:0:0:0:
332,45,86489,2,0,P|372:41|412:36,1,81,6|8,1:2|0:0,0:0:0:0:
464,0,86867,1,8,0:0:0:0:
475,7,86943,6,0,P|471:27|468:47,1,36.4499988876343,8|0,1:2|0:0,0:0:0:0:
406,130,87094,2,0,P|409:150|413:170,1,36.4499988876343,10|0,3:0|0:0,0:0:0:0:
486,15,87246,2,0,P|483:33|480:51,1,36.4499988876343,8|0,3:0|0:0,0:0:0:0:
395,122,87398,2,0,P|397:141|401:158,1,36.4499988876343,2|0,3:0|0:0,0:0:0:0:
447,215,87549,5,4,1:2:0:0:
447,215,97246,5,2,1:2:0:0:
447,215,97549,1,0,1:0:0:0:
447,215,97852,5,2,1:2:0:0:
390,225,98004,1,2,0:0:0:0:
343,191,98155,1,2,1:2:0:0:
333,134,98307,2,0,P|343:99|353:53,1,81,2|2,0:0|0:0,0:0:0:0:
308,20,98761,1,0,1:0:0:0:
308,20,99064,2,0,P|290:28|268:35,1,40.5,2|2,1:2|0:0,0:0:0:0:
229,74,99367,1,2,1:2:0:0:
149,58,99519,2,0,P|189:64|229:74,1,81,2|2,0:0|0:0,0:0:0:0:
116,117,100125,6,0,P|178:126|240:141,1,121.5,2|2,0:0|1:2,0:0:0:0:
276,179,100731,1,2,0:0:0:0:
276,179,101034,1,2,0:0:0:0:
203,274,101186,2,0,P|206:246|209:226,1,40.5,2|0,1:2|0:0,0:0:0:0:
162,324,101489,1,2,1:2:0:0:
162,324,101792,1,2,1:2:0:0:
337,272,102095,5,2,1:2:0:0:
337,272,102398,1,0,1:0:0:0:
337,272,102701,5,2,1:2:0:0:
392,280,102852,1,2,0:0:0:0:
448,289,103004,1,2,1:2:0:0:
503,299,103155,2,0,P|519:268|488:220,1,81,2|2,0:0|0:0,0:0:0:0:
469,181,103610,1,0,1:0:0:0:
469,181,103913,2,0,P|451:187|426:191,1,40.5,2|2,1:2|0:2,0:0:0:0:
391,148,104216,1,2,1:2:0:0:
392,280,104367,6,0,P|385:240|373:201,1,81,2|2,0:0|0:0,0:0:0:0:
473,94,104973,1,2,0:0:0:0:
473,94,105276,1,2,0:0:0:0:
473,94,105580,6,0,P|433:87|394:75,1,81,2|2,0:0|0:0,0:0:0:0:
338,87,106034,1,2,1:2:0:0:
304,41,106186,1,2,0:0:0:0:
251,61,106337,2,0,P|256:86|264:129,1,60.75,2|0,1:2|0:0,0:0:0:0:
233,168,106640,2,0,P|225:158|213:146,3,20.25,2|0|0|0,1:2|0:0|0:0|0:0,0:0:0:0:
208,235,106943,6,0,P|139:178|75:199,1,145.799995550537,4|0,1:0|1:0,0:0:0:0:
181,323,107549,2,0,P|207:282|207:234,1,97.1999970336915,8|2,0:0|0:0,0:0:0:0:
237,350,108004,2,0,P|234:363|233:378,2,24.2999992584229,0|0|0,1:0|1:0|1:0,0:0:0:0:
292,322,108307,1,0,1:0:0:0:
408,373,108610,5,0,1:0:0:0:
408,373,108761,2,0,P|411:344|421:326,1,48.5999985168458,8|0,0:0|0:0,0:0:0:0:
353,311,109064,2,0,P|342:283|328:268,1,48.5999985168458,0|0,3:2|0:0,0:0:0:0:
410,196,109367,6,0,B|424:168|461:180|461:180|473:229|433:257,1,145.799995550537,0|0,1:0|1:0,0:0:0:0:
339,198,109973,2,0,P|319:172|305:161,2,48.5999985168458,10|2|2,0:0|0:0|0:0,0:0:0:0:
374,134,110428,2,0,P|382:83|402:31,2,97.1999970336915,2|2|2,1:2|1:2|1:2,0:0:0:0:
274,220,111186,2,0,P|245:226|221:239,1,48.5999985168458,10|2,0:0|1:2,0:0:0:0:
228,234,111489,1,0,0:0:0:0:
61,277,111792,6,0,P|116:283|218:304,1,145.799995550537,0|0,1:2|1:0,0:0:0:0:
249,339,112322,1,0,1:0:0:0:
249,339,112398,2,0,P|279:332|249:344,1,97.1999970336915,8|2,0:0|0:0,0:0:0:0:
191,361,112852,1,0,1:2:0:0:
252,257,113155,1,0,1:0:0:0:
192,152,113458,1,0,1:0:0:0:
256,131,113610,6,0,P|249:160|245:189,1,48.5999985168458,8|0,0:0|1:0,0:0:0:0:
107,244,113913,2,0,P|110:220|116:196,1,48.5999985168458,0|0,1:2|1:2,0:0:0:0:
115,125,114140,1,0,1:2:0:0:
115,125,114216,6,0,P|66:116|21:27,1,145.799995550537,4|8,1:0|0:0,0:0:0:0:
166,37,114670,2,0,B|191:31|207:8|207:8|186:117,1,145.799995550537,4|8,1:2|0:0,0:0:0:0:
170,223,115125,2,0,P|183:194|221:174,1,72.8999977752686,4|2,1:0|0:0,0:0:0:0:
380,261,115428,6,0,P|303:245|232:236,1,145.799995550537,4|8,1:0|0:0,0:0:0:0:
376,202,115883,2,0,B|402:156|453:178|453:178|453:218|422:223,1,145.799995550537,4|8,1:2|0:0,0:0:0:0:
396,332,116337,2,0,P|389:294|379:258,1,72.8999977752686,4|0,1:2|0:0,0:0:0:0:
263,116,116640,6,0,P|216:174|135:162,1,145.799995550537,4|8,1:0|0:0,0:0:0:0:
0,283,117095,2,0,P|47:341|128:329,1,145.799995550537,4|8,1:0|0:0,0:0:0:0:
164,243,117549,2,0,P|155:194|147:164,1,72.8999977752686,4|2,1:2|0:0,0:0:0:0:
93,118,117852,5,10,0:0:0:0:
75,270,118004,1,0,1:0:0:0:
227,288,118155,1,8,1:2:0:0:
245,136,118307,1,4,1:0:0:0:
245,136,118610,6,0,P|225:128|205:120,2,32.4,2|2|2,0:0|0:0|0:0,0:0:0:0:
313,184,119064,6,0,P|345:177|380:170,1,68.8500013132096,4|2,1:0|0:0,0:0:0:0:
488,31,119367,1,8,0:0:0:0:
512,95,119519,1,0,1:0:0:0:
512,95,119670,2,0,P|480:88|445:81,1,68.8500013132096,8|0,0:0|1:0,0:0:0:0:
236,87,119973,1,8,0:0:0:0:
287,48,120125,6,0,P|296:95|313:184,2,137.700002626419,4|2|2,1:0|1:2|1:2,0:0:0:0:
229,25,120883,1,8,3:0:0:0:
186,124,121085,1,8,3:0:0:0:
87,81,121287,1,2,3:0:0:0:
50,153,121489,6,0,P|88:143|118:138,1,68.8500013132096,4|2,1:0|0:0,0:0:0:0:
22,297,121792,1,8,0:0:0:0:
0,235,121943,1,0,1:0:0:0:
0,235,122095,2,0,P|33:240|67:249,1,68.8500013132096,8|0,0:0|1:0,0:0:0:0:
267,337,122398,1,8,0:0:0:0:
260,266,122549,6,0,P|207:299|203:371,2,137.700002626419,4|2|2,1:0|1:2|1:2,0:0:0:0:
411,359,123458,2,0,P|429:362|448:367,3,34.4250006566048,2|0|2|0,0:0|0:0|0:0|0:0,0:0:0:0:
505,308,123761,6,0,P|457:253|477:182,1,137.700002626419,4|0,1:0|2:2,0:0:0:0:
375,84,124216,1,0,1:2:0:0:
486,127,124367,2,0,B|418:114|423:166|346:153,1,137.700002626419,2|0,2:2|2:0,0:0:0:0:
208,93,124822,1,0,1:2:0:0:
208,93,124973,1,2,0:0:0:0:
278,49,125125,6,0,B|263:135|263:135|281:105|304:101,1,137.700002626419,2|0,1:2|1:0,0:0:0:0:
212,200,125580,2,0,B|177:198|181:221|144:216,1,68.8500013132096,2|0,0:0|1:0,0:0:0:0:
21,160,125883,1,2,0:0:0:0:
48,110,126034,2,0,P|103:148|96:189,1,103.275001969814,0|0,1:0|0:0,0:0:0:0:
91,236,126337,5,2,1:2:0:0:
24,252,126489,2,0,P|56:243|90:236,1,68.8500013132096,2|8,0:0|0:0,0:0:0:0:
225,318,126792,2,0,P|287:333|368:347,1,137.700002626419,2|0,0:2|1:0,0:0:0:0:
264,263,127246,2,0,P|252:216|298:179,1,103.275001969814,2|0,1:2|0:0,0:0:0:0:
322,125,127549,6,0,L|315:88,1,34.4250006566048,8|8,0:0|0:0,0:0:0:0:
225,36,127701,1,8,0:0:0:0:
225,36,127776,1,8,0:0:0:0:
225,36,127852,2,0,L|218:69,1,34.4250006566048,8|8,0:0|0:0,0:0:0:0:
139,152,128004,2,0,B|106:106|53:128|53:128|41:168|77:180,1,153.899995890427,4|8,1:0|0:0,0:0:0:0:
177,213,128610,6,0,P|258:197|341:189,1,162,12|0,1:0|0:0,0:0:0:0:
442,78,129064,2,0,P|450:118|422:146,1,81,8|2,0:0|0:0,0:0:0:0:
396,317,129367,2,0,P|404:272|412:237,1,81,2|2,1:2|1:2,0:0:0:0:
256,121,129670,1,8,0:0:0:0:
313,70,129822,6,0,P|326:131|337:194,1,121.5,2|0,0:0|0:0,0:0:0:0:
411,237,130125,2,0,P|402:277|396:317,1,81,0|8,1:0|0:0,0:0:0:0:
284,378,130428,1,2,0:0:0:0:
284,378,130504,1,2,0:0:0:0:
284,378,130580,2,0,P|278:351|273:333,1,40.5,2|0,1:2|0:0,0:0:0:0:
293,226,130731,2,0,P|298:245|302:265,1,40.5,2|0,1:2|0:0,0:0:0:0:
396,316,130883,2,0,P|376:320|356:325,1,40.5,10|0,0:0|0:0,0:0:0:0:
205,378,131034,6,0,P|118:365|40:356,1,162,4|0,1:0|1:0,0:0:0:0:
20,271,131489,2,0,P|-4:236|5:193,1,81,8|2,0:0|0:0,0:0:0:0:
156,93,131792,1,2,1:2:0:0:
156,93,131943,1,0,1:2:0:0:
134,162,132095,1,8,0:0:0:0:
9,94,132246,6,0,P|49:100|94:110,1,81,4|0,1:0|0:0,0:0:0:0:
258,199,132549,2,0,P|218:205|179:215,1,81,2|0,1:2|0:0,0:0:0:0:
349,93,132852,2,0,P|388:101|428:107,1,81,2|0,1:2|1:0,0:0:0:0:
503,185,133155,1,0,1:0:0:0:
503,185,133307,1,8,0:0:0:0:
400,266,133458,6,0,P|412:187|430:97,1,162,12|0,1:0|1:0,0:0:0:0:
344,308,133913,1,8,2:0:0:0:
344,308,134064,1,2,2:0:0:0:
284,145,134216,2,0,P|291:184|297:224,1,81,0|0,2:0|0:0,0:0:0:0:
183,370,134519,2,0,P|188:329|196:290,1,81,8|2,2:0|0:0,0:0:0:0:
52,206,134822,6,0,P|131:213|219:222,1,162,2|8,1:2|0:0,0:0:0:0:
124,360,135277,2,0,P|132:303|139:273,1,81,2|0,0:0|1:0,0:0:0:0:
27,107,135580,1,2,1:2:0:0:
80,65,135731,2,0,P|88:104|93:144,1,81,8|0,2:0|0:0,0:0:0:0:
209,300,136034,6,0,P|269:293|330:288,1,121.5,12|0,1:0|0:0,0:0:0:0:
394,248,136337,2,0,P|406:289|393:329,1,81,8|0,0:0|0:0,0:0:0:0:
274,174,136640,1,0,1:0:0:0:
274,174,136792,1,0,1:0:0:0:
330,218,136943,2,0,P|335:178|342:137,1,81,8|0,0:0|0:0,0:0:0:0:
110,36,137246,6,0,P|116:75|121:116,1,81,12|0,1:0|1:0,0:0:0:0:
170,160,137549,1,8,0:0:0:0:
40,254,137701,1,0,1:0:0:0:
40,254,137777,1,0,1:0:0:0:
40,254,137852,6,0,P|43:226|45:211,1,40.5,8|8,0:0|0:0,0:0:0:0:
264,358,138004,2,0,P|261:330|259:315,1,40.5,8|8,0:0|0:0,0:0:0:0:
103,260,138155,6,0,P|106:232|108:217,1,40.5,8|8,0:0|0:0,0:0:0:0:
201,364,138307,2,0,P|198:336|196:321,1,40.5,8|8,0:0|0:0,0:0:0:0:
167,267,138458,6,0,P|174:200|178:164,1,97.1999970336915,4|0,1:0|1:0,0:0:0:0:
231,132,139064,1,0,1:0:0:0:
231,132,139367,1,0,1:0:0:0:
97,80,139670,5,0,1:0:0:0:
153,109,139822,1,8,0:0:0:0:
164,106,139898,1,8,0:0:0:0:
175,103,139973,1,8,0:0:0:0:
231,132,140125,1,4,1:3:0:0:
97,80,140277,6,0,P|52:72|12:68,2,86.4,8|4|8,0:0|1:3|0:0,0:0:0:0:
231,132,140883,6,0,P|271:104|327:114,1,97.1999970336915,4|0,1:0|1:0,0:0:0:0:
366,154,141489,1,0,1:0:0:0:
366,154,141792,1,0,1:0:0:0:
491,51,142095,5,0,1:0:0:0:
441,13,142246,1,8,0:0:0:0:
441,13,142398,2,0,P|430:37|430:63,1,48.5999985168458,8|4,0:0|1:3,0:0:0:0:
490,156,142701,6,0,P|498:193|506:243,1,86.4,8|4,0:0|1:3,0:0:0:0:
444,235,143004,5,0,1:0:0:0:
444,235,143105,2,0,P|439:208|434:181,1,43.2,8|0,0:0|1:0,0:0:0:0:
378,293,143307,6,0,B|320:286|321:321|258:314,1,113.399996539307,4|0,1:0|1:0,0:0:0:0:
56,186,143913,2,0,B|117:178|116:215|182:208,1,129.6,4|0,1:0|1:0,0:0:0:0:
313,80,144519,6,0,P|250:119|272:216,1,170.09999480896,4|0,1:0|0:0,0:0:0:0:
373,201,145125,2,0,P|382:121|313:80,1,170.09999480896,2|2,1:2|0:0,0:0:0:0:
316,153,145731,5,12,1:2:0:0:
256,192,145807,12,4,148155,1:0:0:0:
316,153,155428,6,0,P|273:145|236:142,1,81,12|0,1:0|0:0,0:0:0:0:
142,278,155731,2,0,P|185:260|198:221,1,81,8|0,0:0|1:0,0:0:0:0:
135,79,156034,2,0,P|143:122|146:159,1,81,8|0,0:0|1:0,0:0:0:0:
71,210,156337,1,8,0:0:0:0:
71,210,156489,1,0,1:2:0:0:
49,50,156640,6,0,P|64:131|71:213,1,162,14|8,1:2|0:0,0:0:0:0:
256,351,157095,1,2,1:2:0:0:
190,384,157246,2,0,P|197:303|212:223,1,162,8|10,0:0|0:0,0:0:0:0:
300,147,157701,1,0,1:2:0:0:
300,147,157776,1,0,1:2:0:0:
300,147,157852,6,0,P|325:182|405:187,1,121.5,14|0,1:2|0:0,0:0:0:0:
428,89,158155,2,0,P|399:123|359:128,1,81,8|0,0:0|1:0,0:0:0:0:
190,40,158458,1,8,0:0:0:0:
190,40,158610,1,0,1:0:0:0:
122,175,158761,1,8,0:0:0:0:
122,175,158913,1,0,1:0:0:0:
155,108,159064,6,0,P|238:91|327:78,1,162,14|8,1:2|0:0,0:0:0:0:
364,128,159519,1,2,1:2:0:0:
313,225,159670,2,0,P|304:183|298:138,1,81,10|0,0:0|1:0,0:0:0:0:
443,30,159973,2,0,P|434:71|428:116,1,81,10|0,0:0|0:0,0:0:0:0:
485,222,160276,6,0,P|445:214|405:207,1,81,14|0,0:0|0:0,0:0:0:0:
218,328,160580,2,0,P|257:320|297:313,1,81,8|0,0:0|1:0,0:0:0:0:
410,384,160883,2,0,P|402:344|395:304,1,81,8|0,0:0|1:0,0:0:0:0:
313,225,161186,1,8,0:0:0:0:
313,225,161337,1,0,1:0:0:0:
153,253,161489,6,0,P|235:236|318:223,1,162,14|8,0:0|0:0,0:0:0:0:
130,336,161943,1,2,1:2:0:0:
130,336,162095,2,0,P|104:371|61:382,1,81,8|0,0:0|1:0,0:0:0:0:
12,255,162398,2,0,P|16:203|32:163,1,81,10|0,0:0|1:0,0:0:0:0:
77,138,162625,1,0,1:0:0:0:
77,138,162701,6,0,B|118:135|121:153|157:151,1,81,14|0,1:2|0:0,0:0:0:0:
74,15,163004,2,0,P|47:44|39:84,1,81,10|0,0:0|1:0,0:0:0:0:
151,214,163307,6,0,B|187:216|190:198|231:201,1,81,14|0,1:2|0:0,0:0:0:0:
140,333,163610,2,0,P|113:303|105:263,1,81,10|0,0:0|1:0,0:0:0:0:
375,309,163913,5,14,0:0:0:0:
375,309,164064,1,0,1:0:0:0:
315,361,164216,2,0,P|303:279|300:236,1,121.5,8|0,0:0|0:0,0:0:0:0:
343,191,164519,5,10,0:0:0:0:
343,191,164620,2,0,P|348:161|351:134,1,54,8|8,0:0|0:0,0:0:0:0:
249,166,164822,5,10,3:0:0:0:
249,166,164923,2,0,P|245:192|241:219,1,54,4|4,3:0|3:0,0:0:0:0:
151,170,165125,6,0,P|86:108|105:13,1,194.4,4|4,1:2|1:0,0:0:0:0:
105,13,167549,6,0,L|128:18,1,16.2,8|0,0:0|1:0,0:0:0:0:
111,22,167701,2,0,L|134:27,1,16.2,0|0,1:0|1:0,0:0:0:0:
180,70,167852,6,0,P|258:56|344:42,1,162,4|4,1:2|1:2,0:0:0:0:
339,42,169973,6,0,P|353:46|366:48,2,21.6,2|2|2,0:0|0:0|0:0,0:0:0:0:
415,59,170276,6,0,P|425:48|433:38,2,21.6,2|2|2,0:0|0:0|0:0,0:0:0:0:
347,103,170580,6,0,P|339:149|327:232,1,129.6,4|4,1:0|1:0,0:0:0:0:
159,329,172398,6,0,P|148:256|136:184,1,145.799995550537,4|4,1:2|1:0,0:0:0:0:
91,142,174822,5,2,1:2:0:0:
91,142,174898,1,0,1:0:0:0:
91,142,174973,2,0,P|96:125|99:114,1,16.2,10|10,0:2|0:2,0:0:0:0:
143,81,175125,6,0,B|187:75|186:104|232:99,1,85.0499974044801,4|0,1:0|0:0,0:0:0:0:
223,42,175428,1,8,0:0:0:0:
287,126,175579,2,0,P|279:92|275:71,1,56.6999982696534,2|0,0:0|0:0,0:0:0:0:
344,1,175882,2,0,P|336:35|332:56,1,56.6999982696534,2|0,0:0|0:0,0:0:0:0:
436,158,176185,6,0,P|391:111|336:122,1,113.399996539307,8|0,0:0|1:0,0:0:0:0:
218,186,176640,1,10,0:0:0:0:
270,238,176791,2,0,P|281:158|288:122,1,113.399996539307,0|2,1:0|0:0,0:0:0:0:
208,247,177246,1,8,0:0:0:0:
201,249,177321,1,8,0:0:0:0:
194,251,177397,1,8,0:0:0:0:
187,253,177473,1,8,0:0:0:0:
180,254,177549,6,0,P|134:246|96:242,1,85.0499974044801,4|0,1:0|0:0,0:0:0:0:
57,284,177852,1,8,0:0:0:0:
2,300,178003,2,0,P|37:289|72:280,1,56.6999982696534,2|0,0:0|0:0,0:0:0:0:
60,179,178306,2,0,P|40:209|46:236,1,56.6999982696534,0|8,1:0|0:0,0:0:0:0:
0,367,178609,6,0,P|57:348|115:333,1,113.399996539307,4|0,1:0|0:0,0:0:0:0:
230,208,179064,1,8,0:0:0:0:
180,254,179215,2,0,P|237:272|295:287,1,113.399996539307,4|0,1:2|0:0,0:0:0:0:
388,229,179670,6,0,P|407:223|424:219,2,37.7999988464356,10|8|8,0:0|0:0|0:0,0:0:0:0:
359,296,179973,1,12,3:0:0:0:
359,296,180074,2,0,P|362:314|367:333,1,37.7999988464356,12|8,3:0|3:0,0:0:0:0:
431,289,180276,5,4,1:0:0:0:
321,193,180427,2,0,P|329:134|339:81,1,113.399996539307,2|2,0:0|1:2,0:0:0:0:
265,101,180882,2,0,P|259:128|256:156,1,56.6999982696534,0|8,1:0|0:0,0:0:0:0:
228,22,181185,2,0,P|255:27|283:30,1,56.6999982696534,2|0,2:0|1:0,0:0:0:0:
212,77,181412,1,0,1:2:0:0:
212,77,181488,2,0,P|169:120|106:115,1,113.399996539307,8|2,0:2|0:0,0:0:0:0:
119,120,182094,6,0,P|113:90|126:60,1,56.6999982696534,0|8,1:0|0:0,0:0:0:0:
22,0,182397,2,0,P|47:16|59:47,1,56.6999982696534,2|0,0:0|1:0,0:0:0:0:
181,154,182700,6,0,P|161:211|153:274,1,113.399996539307,8|0,0:0|1:0,0:0:0:0:
53,292,183154,1,8,0:0:0:0:
53,292,183306,1,2,1:2:0:0:
97,257,183457,1,10,0:0:0:0:
153,263,183609,1,2,1:2:0:0:
188,307,183760,5,8,0:0:0:0:
188,307,183836,1,8,0:0:0:0:
188,307,183912,1,8,0:0:0:0:
244,313,184063,1,8,3:0:0:0:
288,278,184215,1,0,1:0:0:0:
288,278,184519,6,0,P|278:236|270:195,1,81,14|0,0:0|1:0,0:0:0:0:
244,313,184822,1,0,1:0:0:0:
314,163,184973,6,0,P|324:121|332:80,1,81,8|0,0:0|1:0,0:0:0:0:
358,198,185276,1,0,1:0:0:0:
296,39,185428,2,0,P|254:49|213:57,1,81,8|0,0:0|1:0,0:0:0:0:
53,139,185731,6,0,P|95:149|136:157,1,81,12|0,0:0|1:0,0:0:0:0:
9,176,186034,1,0,1:0:0:0:
221,231,186185,6,0,P|263:221|304:213,1,81,12|0,0:2|1:0,0:0:0:0:
177,194,186488,1,0,1:0:0:0:
344,176,186640,2,0,P|386:186|427:194,1,81,8|0,0:0|0:0,0:0:0:0:
262,70,186943,6,0,P|233:101|242:147,1,81,12|0,0:0|1:0,0:0:0:0:
290,157,187246,1,0,1:0:0:0:
423,193,187397,6,0,P|452:224|443:270,1,81,8|0,0:0|1:0,0:0:0:0:
395,280,187700,1,0,1:0:0:0:
284,384,187852,2,0,P|278:337|268:291,1,81,8|0,0:0|1:0,0:0:0:0:
3,141,188155,5,12,0:0:0:0:
194,177,188306,1,0,1:0:0:0:
108,103,188458,1,0,1:0:0:0:
87,213,188609,1,0,1:0:0:0:
375,96,188761,5,8,0:0:0:0:
213,65,188912,1,0,1:0:0:0:
285,128,189064,1,0,1:0:0:0:
303,35,189215,1,0,1:0:0:0:
194,155,189367,5,2,0:0:0:0:
254,208,197852,6,0,P|257:185|259:169,2,32.4,10|10|0,1:2|0:0|0:0,0:0:0:0:
189,260,198306,2,0,P|201:164|209:98,1,153.899995890427,4|8,1:0|1:2,0:0:0:0:
222,21,198912,6,0,P|251:62|372:66,1,162,12|0,1:0|0:0,0:0:0:0:
413,128,199367,2,0,P|431:91|419:42,1,81,8|2,0:0|0:0,0:0:0:0:
333,151,199670,2,0,P|326:190|321:232,1,81,2|2,1:2|1:2,0:0:0:0:
457,231,199973,1,8,0:0:0:0:
405,284,200125,6,0,P|397:244|393:203,1,81,2|0,0:0|0:0,0:0:0:0:
239,342,200428,2,0,P|243:301|250:261,1,81,2|0,1:2|1:0,0:0:0:0:
138,152,200731,1,2,1:2:0:0:
138,152,200882,6,0,P|156:144|181:137,1,40.5,2|0,1:2|0:0,0:0:0:0:
114,210,201034,2,0,P|98:198|79:180,1,40.5,2|0,1:2|0:0,0:0:0:0:
177,202,201185,2,0,P|174:221|168:246,1,40.5,10|0,0:0|0:0,0:0:0:0:
53,373,201337,6,0,P|35:262|27:207,1,162,4|0,1:0|1:0,0:0:0:0:
154,72,201791,2,0,P|144:111|137:157,1,81,8|2,0:0|0:0,0:0:0:0:
115,276,202094,1,0,1:0:0:0:
230,237,202246,1,0,1:0:0:0:
230,237,202397,1,8,0:0:0:0:
247,175,202549,6,0,P|210:175|175:202,1,81,2|0,1:2|0:0,0:0:0:0:
218,317,202852,2,0,P|223:269|232:226,1,81,2|0,1:2|0:0,0:0:0:0:
297,77,203155,2,0,P|304:116|308:157,1,81,2|0,1:2|0:0,0:0:0:0:
159,300,203458,2,0,P|161:276|166:254,1,40.5,0|0,1:0|1:2,0:0:0:0:
285,276,203609,2,0,P|281:295|279:316,1,40.5,8|8,0:0|0:0,0:0:0:0:
171,360,203761,6,0,B|90:342|90:393|6:374,1,162,12|0,1:0|1:0,0:0:0:0:
104,194,204215,1,8,0:0:0:0:
20,141,204367,2,0,P|35:220|45:300,1,162,2|0,2:0|0:0,0:0:0:0:
240,218,204822,1,8,0:0:0:0:
240,218,204973,1,2,0:0:0:0:
170,239,205125,6,0,P|175:199|183:160,1,81,2|0,1:2|0:0,0:0:0:0:
303,77,205428,1,8,0:0:0:0:
236,60,205579,2,0,P|243:99|248:139,1,81,2|0,0:0|2:0,0:0:0:0:
400,180,205882,1,2,1:2:0:0:
400,180,206034,2,0,P|357:151|323:153,1,81,8|0,2:0|0:0,0:0:0:0:
234,286,206337,6,0,P|310:262|364:253,1,121.5,12|0,1:0|0:0,0:0:0:0:
345,317,206640,2,0,P|304:325|265:338,1,81,8|0,0:0|0:0,0:0:0:0:
484,201,206943,1,0,1:0:0:0:
484,201,207094,1,0,1:0:0:0:
510,278,207246,2,0,P|471:265|431:257,1,81,8|0,0:0|0:0,0:0:0:0:
248,140,207549,5,2,1:2:0:0:
300,193,207700,1,0,1:2:0:0:
300,193,207776,1,0,1:2:0:0:
300,193,207852,1,8,0:0:0:0:
356,106,208003,2,0,P|336:113|317:119,1,40.5,8|8,0:0|0:0,0:0:0:0:
226,212,208155,2,0,P|178:199|132:192,1,89.1000027191163,10|14,0:0|0:2,0:0:0:0:
0,384,208609,6,0,P|87:363|161:353,1,162,12|0,1:0|1:0,0:0:0:0:
271,343,209064,2,0,P|231:337|205:304,1,81,8|2,0:0|0:0,0:0:0:0:
279,199,209367,2,0,P|269:239|262:288,1,81,2|0,1:2|1:0,0:0:0:0:
431,348,209670,1,8,0:0:0:0:
376,384,209822,6,0,P|366:344|359:295,1,81,2|0,1:2|0:0,0:0:0:0:
225,165,210125,2,0,P|215:205|208:254,1,81,2|0,1:2|0:0,0:0:0:0:
431,348,210428,1,2,1:2:0:0:
431,348,210503,1,2,0:0:0:0:
431,348,210579,2,0,P|426:328|422:303,1,40.5,2|0,0:0|0:0,0:0:0:0:
402,213,210731,2,0,P|397:233|393:257,1,40.5,2|0,1:2|0:0,0:0:0:0:
490,337,210882,2,0,P|485:317|481:292,1,40.5,10|0,0:2|0:0,0:0:0:0:
329,250,211034,6,0,P|346:169|372:90,1,162,4|0,1:0|1:0,0:0:0:0:
482,119,211488,2,0,P|443:151|408:144,1,81,8|2,0:0|0:0,0:0:0:0:
211,55,211791,1,0,1:0:0:0:
302,94,211943,1,0,1:0:0:0:
302,94,212094,1,8,0:0:0:0:
161,157,212246,6,0,P|207:143|258:135,1,81,2|0,1:2|0:0,0:0:0:0:
83,219,212549,2,0,P|69:173|61:122,1,81,2|0,1:2|0:0,0:0:0:0:
223,235,212852,1,2,1:2:0:0:
145,297,213003,1,0,1:2:0:0:
145,297,213079,1,0,1:2:0:0:
145,297,213155,2,0,P|122:304|96:308,1,40.5,0|0,1:2|1:2,0:0:0:0:
223,235,213306,2,0,P|230:258|234:283,1,40.5,8|8,2:2|2:2,0:0:0:0:
351,384,213458,6,0,P|364:304|388:226,1,162,4|0,1:0|0:0,0:0:0:0:
338,95,213912,1,8,2:0:0:0:
338,95,214064,1,2,2:0:0:0:
294,307,214215,2,0,P|301:267|314:229,1,81,0|0,1:0|0:0,0:0:0:0:
395,124,214519,2,0,P|363:157|319:157,1,81,8|2,0:0|0:0,0:0:0:0:
188,54,214822,6,0,B|271:38|266:107|346:95,1,162,2|8,1:2|0:0,0:0:0:0:
214,120,215276,2,0,P|181:151|187:183,1,81,2|0,0:0|1:0,0:0:0:0:
74,275,215579,1,0,1:0:0:0:
146,308,215731,2,0,P|139:264|129:214,1,81,8|0,0:0|0:0,0:0:0:0:
339,96,216034,6,0,P|327:155|317:215,1,121.5,4|0,1:0|0:0,0:0:0:0:
383,207,216337,2,0,P|390:159|400:112,1,81,8|0,0:0|0:0,0:0:0:0:
229,327,216640,1,0,1:0:0:0:
229,327,216791,1,0,1:0:0:0:
297,354,216943,2,0,P|289:306|279:259,1,81,8|0,0:0|0:0,0:0:0:0:
459,138,217246,6,0,P|452:177|446:217,1,81,4|0,1:0|1:0,0:0:0:0:
488,266,217549,1,8,0:0:0:0:
317,215,217700,1,0,1:0:0:0:
351,271,217852,6,0,P|373:265|395:260,1,40.5,8|8,0:0|0:0,0:0:0:0:
252,215,218003,2,0,P|232:209|213:205,1,40.5,8|8,0:0|0:0,0:0:0:0:
382,322,218155,2,0,P|404:316|426:311,1,40.5,0|0,1:2|1:2,0:0:0:0:
224,265,218306,2,0,P|204:259|184:254,1,40.5,0|0,1:2|1:2,0:0:0:0:
413,373,218458,6,0,P|462:359|511:348,1,97.1999970336915,4|0,1:0|1:0,0:0:0:0:
512,289,219064,1,0,1:0:0:0:
512,289,219367,1,0,1:0:0:0:
452,175,219670,5,0,1:0:0:0:
484,223,219822,1,8,0:0:0:0:
482,232,219897,1,8,0:0:0:0:
480,241,219973,1,8,0:0:0:0:
512,289,220125,1,4,1:3:0:0:
413,230,220276,6,0,P|361:221|317:217,2,86.4,8|4|8,0:0|1:3|0:0,0:0:0:0:
289,286,220882,6,0,P|240:291|192:300,1,97.1999970336915,4|0,1:0|1:0,0:0:0:0:
141,263,221488,1,0,1:0:0:0:
141,263,221791,1,0,1:0:0:0:
54,357,222094,5,0,1:0:0:0:
218,262,222246,1,8,0:0:0:0:
189,316,222397,2,0,P|197:287|206:264,1,48.5999985168458,8|4,0:0|1:3,0:0:0:0:
123,179,222700,6,0,P|132:218|141:263,1,86.4,8|4,0:0|1:3,0:0:0:0:
78,260,223003,1,0,1:2:0:0:
78,260,223104,2,0,P|72:233|66:207,1,43.2,8|0,0:0|1:2,0:0:0:0:
0,88,223306,6,0,P|33:121|106:114,1,113.399996539307,4|0,1:0|1:0,0:0:0:0:
238,144,223761,1,2,0:0:0:0:
189,199,223912,2,0,P|170:121|158:59,1,129.6,4|0,1:0|1:2,0:0:0:0:
409,76,224519,6,0,P|415:98|419:125,1,43.2,4|0,1:0|0:0,0:0:0:0:
349,85,224721,6,0,P|355:107|359:134,1,43.2,4|0,3:0|0:0,0:0:0:0:
289,94,224923,6,0,P|295:116|299:143,1,43.2,8|0,3:0|0:0,0:0:0:0:
257,191,225125,6,0,P|250:215|246:244,1,43.2,2|0,1:2|0:0,0:0:0:0:
323,200,225327,6,0,P|316:224|312:253,1,43.2,8|0,3:0|0:0,0:0:0:0:
389,210,225529,6,0,P|382:234|378:263,1,43.2,2|0,3:0|0:0,0:0:0:0:
421,312,225731,6,0,P|428:338|433:370,1,43.2,12|0,1:2|0:0,0:0:0:0:
350,322,225933,6,0,P|357:348|362:380,1,43.2,8|0,0:0|0:0,0:0:0:0:
278,333,226135,6,0,P|285:359|290:391,1,43.2,8|0,3:0|0:0,0:0:0:0:
217,274,226337,6,0,P|224:244|230:209,1,43.2,12|0,1:2|0:0,0:0:0:0:
138,263,226539,6,0,P|145:233|151:198,1,43.2,8|0,0:0|0:0,0:0:0:0:
59,250,226741,6,0,P|66:220|72:185,1,43.2,8|0,3:0|0:0,0:0:0:0:
23,379,226943,6,0,P|98:361|182:348,1,162,12|4,1:0|1:0,0:0:0:0:
445,164,228155,6,0,P|413:213|322:212,2,145.799995550537,4|0|2,1:0|1:0|1:2,0:0:0:0:
304,127,228912,1,2,0:2:0:0:
356,82,229064,2,0,P|364:115|372:162,1,72.8999977752686,0|0,1:0|0:0,0:0:0:0:
234,267,229367,6,0,P|240:231|248:195,1,72.8999977752686,0|0,1:0|0:0,0:0:0:0:
177,81,229670,2,0,P|196:116|228:113,1,72.8999977752686,0|2,1:0|0:0,0:0:0:0:
136,203,229973,2,0,P|53:221|23:236,1,109.349996662903,2|0,1:2|0:0,0:0:0:0:
64,281,230276,2,0,P|98:267|134:261,1,72.8999977752686,0|0,1:2|0:0,0:0:0:0:
243,325,230579,6,0,B|321:309|309:369|393:353,1,145.799995550537,4|8,1:0|0:0,0:0:0:0:
482,253,231034,1,2,0:0:0:0:
450,201,231185,2,0,P|425:230|425:272,1,72.8999977752686,8|0,0:0|0:0,0:0:0:0:
478,382,231488,2,0,P|468:332|462:311,1,72.8999977752686,10|0,0:0|0:0,0:0:0:0:
390,134,231791,6,0,P|380:184|374:205,1,72.8999977752686,8|0,0:0|0:0,0:0:0:0:
338,259,232094,1,8,0:0:0:0:
338,259,232246,1,2,1:2:0:0:
235,190,232397,5,2,1:2:0:0:
169,199,232549,1,2,1:2:0:0:
178,265,232700,1,8,0:0:0:0:
244,256,232852,1,0,1:2:0:0:
324,163,233003,6,0,P|302:82|281:23,2,145.799995550537,4|8|8,1:0|0:0|0:0,0:0:0:0:
363,42,233761,1,0,1:0:0:0:
385,112,233912,2,0,P|374:71|363:41,1,72.8999977752686,8|0,0:0|0:0,0:0:0:0:
240,101,234197,6,0,P|219:96|196:92,2,43.2,8|8|8,1:2|3:0|3:0,0:0:0:0:
145,54,234500,5,4,3:0:0:0:
145,54,234601,2,0,P|123:57|102:62,1,43.2,2|2,3:0|3:0,0:0:0:0:
0,199,234803,6,0,P|132:172|237:156,1,226.8,4|0,1:0|0:0,0:0:0:0:
281,144,235409,5,4,1:1:0:0:
281,144,235712,6,0,P|306:152|330:157,1,48.5999985168458,2|0,2:0|0:0,0:0:0:0:
398,148,236015,1,2,0:0:0:0:
398,148,236166,2,0,P|390:173|385:197,1,48.5999985168458,2|0,0:0|0:0,0:0:0:0:
394,265,236470,1,2,0:0:0:0:
394,265,236621,2,0,P|369:257|345:252,1,48.5999985168458,2|0,0:0|0:0,0:0:0:0:
277,261,236924,1,2,0:0:0:0:
277,261,237075,2,0,P|285:236|290:212,1,48.5999985168458,2|0,0:0|0:0,0:0:0:0:
281,144,237378,1,2,0:0:0:0:
385,194,237530,5,10,1:2:0:0:
273,378,237681,1,14,1:2:0:0:
