osu file format v14

[General]
AudioFilename: audio.mp3
AudioLeadIn: 0
PreviewTime: 51239
Countdown: 0
SampleSet: Soft
StackLeniency: 0.7
Mode: 0
LetterboxInBreaks: 0
WidescreenStoryboard: 0

[Editor]
Bookmarks: 860,10556,20253,29950,39647,51769,61312,71174,78435,85694,87817,87968
DistanceSpacing: 1
BeatDivisor: 4
GridSize: 32
TimelineZoom: 0.9999998

[Metadata]
Title:OveR (TV Size)
TitleUnicode:OveR (TV Size)
Artist:Tomita Miyu
ArtistUnicode:富田美憂
Creator:lit120
Version:Lasse's Expert
Source:デート・ア・ライブⅣ
Tags:Date A Live DAL 4 IV DAL4 DALIV opening japanese poop jpop j-pop rock jrock j-rock anime kadokawa -Hakurei- Lasse Yogurtt
BeatmapID:3551426
BeatmapSetID:1737435

[Difficulty]
HPDrainRate:6
CircleSize:4
OverallDifficulty:8.7
ApproachRate:9.2
SliderMultiplier:1.69999990463257
SliderTickRate:1

[Events]
//Background and Video events
0,0,"kotori.jpg",0,0
Video,196,"dals4op.mp4"
//Break Periods
//Storyboard Layer 0 (Background)
//Storyboard Layer 1 (Fail)
//Storyboard Layer 2 (Pass)
//Storyboard Layer 3 (Foreground)
//Storyboard Layer 4 (Overlay)
//Storyboard Sound Samples

[TimingPoints]
860,303.030303030303,4,2,1,50,1,0
860,-200,4,2,1,50,0,0
9950,-133.333333333333,4,2,1,35,0,0
10556,-100,4,2,1,80,0,0
12905,-100,4,2,1,30,0,0
12981,-100,4,2,1,80,0,0
20253,-166.666666666667,4,2,1,50,0,0
29950,-133.333333333333,4,2,1,50,0,0
39647,306.122448979592,4,2,1,60,1,0
39647,-111.111111111111,4,2,1,60,0,0
40106,-55.5555555555556,4,2,1,60,0,0
40259,298.507462686567,4,2,1,60,1,0
40856,298.507462686567,4,2,1,60,1,0
41453,309.278350515464,4,2,1,60,1,0
41453,-111.111111111111,4,2,1,60,0,0
41916,272.727272727273,4,2,1,60,1,0
42052,309.278350515464,4,2,1,60,1,0
42052,-111.111111111111,4,2,1,60,0,0
42514,-55.5555555555556,4,2,1,60,0,0
43134,303.030303030303,4,2,1,50,1,0
43285,303.030303030303,4,2,1,60,1,0
44042,-153.846153846153,4,2,1,60,0,0
44497,-111.111111111111,4,2,1,60,0,0
44951,-83.3333333333333,4,2,1,60,0,0
46315,-111.111111111111,4,2,1,60,0,0
46921,-71.4285714285714,4,2,1,70,0,0
49042,-100,4,2,1,70,0,0
49269,-100,4,2,1,30,0,0
49345,-66.6666666666667,4,2,1,70,0,0
51315,-200,4,2,1,35,0,0
51769,-90.9090909090909,4,2,1,80,0,1
51921,-90.9090909090909,4,2,1,80,0,0
52072,300,4,2,1,80,1,0
52822,-90.9090909090909,4,2,1,80,0,1
52972,300,4,2,1,80,1,1
52972,-90.9090909090909,4,2,1,80,0,0
53122,-90.9090909090909,4,2,1,80,0,1
53272,-90.9090909090909,4,2,1,80,0,0
53422,315.789473684211,4,2,1,80,1,1
53422,-90.9090909090909,4,2,1,80,0,1
53579,307.29833546735,4,2,1,80,1,0
54193,299.25187032419,4,2,1,80,1,1
54193,-90.9090909090909,4,2,1,80,0,1
54342,-90.9090909090909,4,2,1,80,0,0
55240,310.880829015544,4,2,1,80,1,1
55395,310.880829015544,4,2,1,80,1,0
55550,-100,4,2,1,80,0,1
55705,-90.9090909090909,4,2,1,80,0,0
55861,302.648171500631,4,2,1,80,1,1
56012,302.648171500631,4,2,1,80,1,0
56465,303.030303030303,4,2,1,80,1,1
56465,-90.9090909090909,4,2,1,80,0,1
56616,303.030303030303,4,2,1,80,1,1
56616,-90.9090909090909,4,2,1,80,0,0
61312,301.507537688442,4,2,1,80,1,1
61312,-90.9090909090909,4,2,1,80,0,1
61462,301.507537688442,4,2,1,80,1,1
61612,-90.9090909090909,4,2,1,80,0,0
62668,303.030303030303,4,2,1,80,1,0
62819,-90.9090909090909,4,2,1,80,0,0
63728,309.278350515464,4,2,1,80,1,1
63728,-90.9090909090909,4,2,1,80,0,1
63882,309.278350515464,4,2,1,80,1,1
64036,-90.9090909090909,4,2,1,80,0,0
64191,303.030303030303,4,2,1,80,1,0
64948,-90.9090909090909,4,2,1,80,0,0
65100,303.030303030303,4,2,1,80,1,0
65251,-90.9090909090909,4,2,1,80,0,0
66160,-90.9090909090909,4,2,1,80,0,1
66463,-90.9090909090909,4,2,1,80,0,0
68736,-90.9090909090909,4,2,1,80,0,1
69039,-90.9090909090909,4,2,1,80,0,0
70554,310.077519379845,4,2,1,80,1,0
71174,292.682926829268,4,2,1,80,1,0
71174,-100,4,2,1,80,0,1
71466,309.278350515464,4,2,1,50,1,0
71775,299.25187032419,4,2,1,50,1,0
72373,299.25187032419,4,2,1,50,1,0
72672,-100,4,2,1,60,0,0
72971,301.507537688442,4,2,1,60,1,0
73574,285.714285714286,4,2,1,80,1,1
73859,324.324324324324,4,2,1,50,1,0
74183,307.692307692308,4,2,1,50,1,0
74798,307.692307692308,4,2,1,50,1,0
75105,303.030303030303,4,2,1,60,1,0
76014,306.122448979592,4,2,1,80,1,1
76320,-100,4,2,1,70,0,0
76626,298.507462686567,4,2,1,80,1,1
76924,-100,4,2,1,70,0,0
77223,303.030303030303,4,2,1,80,1,1
77223,-100,4,2,1,80,0,1
77526,-100,4,2,1,70,0,0
77829,-100,4,2,1,80,0,1
78132,-100,4,2,1,70,0,0
78435,301.88679245283,4,2,1,80,1,0
79642,303.030303030303,4,2,1,80,1,0
83884,300,4,2,1,80,1,0
84484,288.461538461538,4,2,1,80,1,0
84772,324.324324324324,4,2,1,80,1,0
85096,299.25187032419,4,2,1,80,1,0
85096,-166.666666666667,4,2,1,80,0,0
85694,319.148936170213,4,2,1,80,1,0
86013,303.030303030303,4,2,1,80,1,0
86922,303.030303030303,4,2,1,80,1,0
87528,289.855072463768,4,2,1,80,1,0
87817,303.030303030303,4,2,1,80,1,0
87968,-100,4,2,1,80,0,0
88120,303.030303030303,4,2,1,80,1,0

[Colours]
Combo1 : 223,179,117
Combo2 : 238,108,121
Combo3 : 219,163,121
Combo4 : 196,91,99

[HitObjects]
34,384,860,6,0,L|478:384,1,424.999976158142,2|0,3:2|3:2,0:0:0:0:
300,298,2678,6,0,L|215:298,1,84.9999952316285,2|0,3:2|3:2,0:0:0:0:
2,192,3284,6,0,L|95:192,1,84.9999952316285,2|0,3:2|3:2,0:0:0:0:
223,105,3738,2,0,L|129:105,1,84.9999952316285,2|0,0:2|0:0,0:0:0:0:
87,192,4193,2,0,L|426:192,1,339.999980926514,2|0,3:2|3:2,0:0:0:0:
458,0,5708,6,0,L|34:0,1,424.999976158142,2|0,3:2|3:2,0:0:0:0:
215,92,7526,6,0,L|300:92,1,84.9999952316285,2|0,3:2|3:2,0:0:0:0:
469,192,8132,6,0,L|44:192,1,424.999976158142,2|0,3:2|3:2,0:0:0:0:
0,117,9950,5,4,0:3:0:0:
44,192,10102,2,0,L|37:235,2,31.8749994277954,4|4|4,0:3|0:3|0:3,0:0:0:0:
123,138,10405,2,0,L|128:106,1,31.8749994277954,4|4,0:3|0:3,0:0:0:0:
197,44,10556,6,0,P|239:43|280:33,1,84.9999952316285,6|0,3:2|0:0,0:0:0:0:
246,282,10859,2,0,P|203:282|162:292,1,84.9999952316285,8|0,0:2|0:0,0:0:0:0:
346,146,11163,1,0,3:2:0:0:
459,203,11314,2,0,P|462:160|475:118,1,84.9999952316285,0|8,3:2|0:2,0:0:0:0:
227,183,11617,6,0,P|326:188|387:259,1,169.999990463257,0|0,3:2|3:2,0:0:0:0:
175,374,12072,2,0,P|172:333|161:287,1,84.9999952316285,8|0,0:2|0:0,0:0:0:0:
66,355,12375,1,2,3:2:0:0:
272,316,12526,1,0,3:2:0:0:
152,257,12678,2,0,P|131:194|141:130,1,127.499992847443,8|0,0:2|0:0,0:0:0:0:
223,39,12981,6,0,L|420:7,1,169.999990463257,2|8,3:2|0:2,0:0:0:0:
225,191,13435,2,0,P|141:191|57:218,1,169.999990463257,2|0,0:2|3:2,0:0:0:0:
0,299,13890,1,10,0:2:0:0:
140,374,14041,2,0,P|223:373|307:346,1,169.999990463257,0|0,3:2|3:2,0:0:0:0:
463,190,14496,5,10,0:2:0:0:
414,269,14647,1,0,0:0:0:0:
463,190,14799,1,2,3:2:0:0:
512,272,14950,1,0,3:2:0:0:
362,189,15102,1,8,0:2:0:0:
506,104,15253,1,0,0:0:0:0:
308,13,15405,6,0,P|300:68|306:120,1,84.9999952316285,6|0,3:2|0:0,0:0:0:0:
48,94,15708,2,0,P|154:42|234:57,1,169.999990463257,8|0,0:2|3:2,0:0:0:0:
95,186,16163,1,0,3:2:0:0:
235,226,16314,1,8,0:2:0:0:
100,384,16466,6,0,P|183:381|254:335,1,169.999990463257,0|0,3:2|3:2,0:0:0:0:
92,291,16920,1,8,0:2:0:0:
235,226,17072,1,0,0:0:0:0:
95,186,17223,1,2,3:2:0:0:
195,137,17375,1,0,3:0:0:0:
122,67,17526,1,8,0:2:0:0:
116,54,17602,1,8,0:3:0:0:
112,42,17678,1,4,0:3:0:0:
107,30,17753,1,4,0:3:0:0:
102,18,17829,6,0,P|33:45|17:138,1,169.999990463257,6|8,3:2|0:2,0:0:0:0:
497,131,18284,2,0,P|484:51|410:18,1,169.999990463257,6|0,3:2|0:0,0:0:0:0:
50,240,18738,6,0,P|135:189|227:177,1,169.999990463257,6|8,3:2|0:2,0:0:0:0:
462,240,19193,2,0,P|377:189|285:177,1,169.999990463257,6|8,3:2|0:3,0:0:0:0:
308,176,19572,1,8,0:3:0:0:
308,176,19647,1,8,0:3:0:0:
161,279,19799,1,8,0:3:0:0:
231,64,19950,1,4,0:3:0:0:
279,356,20102,1,8,0:2:0:0:
510,325,20405,5,0,0:0:0:0:
443,293,20556,1,2,0:2:0:0:
490,291,20708,1,0,0:0:0:0:
466,326,20859,1,2,0:2:0:0:
470,333,21163,1,2,0:2:0:0:
317,227,21466,5,0,0:0:0:0:
352,203,21617,1,2,0:2:0:0:
328,159,21769,1,0,0:0:0:0:
315,250,21920,1,0,0:0:0:0:
383,214,22072,1,2,0:2:0:0:
381,206,22375,1,2,0:2:0:0:
250,41,22678,5,0,0:0:0:0:
330,53,22829,1,2,0:2:0:0:
262,68,22981,1,0,0:0:0:0:
300,76,23132,1,2,0:2:0:0:
280,102,23284,1,0,0:0:0:0:
282,111,23587,1,2,0:2:0:0:
149,10,23890,5,0,0:0:0:0:
117,44,24041,1,2,0:2:0:0:
198,26,24193,1,2,0:2:0:0:
137,67,24344,1,0,0:0:0:0:
182,82,24496,1,2,0:2:0:0:
166,43,24647,1,0,0:0:0:0:
166,43,24723,1,0,0:0:0:0:
166,43,24799,2,0,P|137:62|105:71,1,50.9999955825808,2|0,0:2|0:0,0:0:0:0:
27,102,25102,5,2,0:2:0:0:
92,146,25253,1,0,0:0:0:0:
39,146,25405,1,2,0:2:0:0:
111,171,25556,1,0,0:0:0:0:
68,181,25708,1,2,0:2:0:0:
70,192,26011,1,2,0:2:0:0:
179,324,26314,5,0,0:0:0:0:
126,377,26466,1,2,0:2:0:0:
152,300,26617,1,0,0:0:0:0:
169,353,26769,1,0,0:0:0:0:
117,294,26920,1,2,0:2:0:0:
116,286,27223,1,2,0:2:0:0:
271,179,27526,5,0,0:0:0:0:
343,200,27678,1,2,0:2:0:0:
274,228,27829,1,0,0:0:0:0:
336,207,27981,1,2,0:2:0:0:
308,248,28132,1,0,0:0:0:0:
314,257,28435,1,0,0:0:0:0:
504,311,28738,5,0,0:0:0:0:
436,343,28890,1,2,0:2:0:0:
469,302,29041,1,2,0:2:0:0:
463,341,29193,1,2,0:2:0:0:
443,262,29344,1,2,0:2:0:0:
465,238,29496,1,0,0:0:0:0:
465,238,29572,1,0,0:0:0:0:
465,238,29647,2,0,P|482:274|483:304,1,50.9999955825808,2|0,0:2|0:0,0:0:0:0:
384,324,29950,6,0,L|311:301,1,63.7499988555908,2|0,3:2|0:0,0:0:0:0:
377,336,30253,2,0,L|306:306,1,63.7499988555908,0|0,3:2|0:0,0:0:0:0:
368,347,30556,2,0,L|300:311,1,63.7499988555908,0|0,3:2|0:2,0:0:0:0:
359,357,30859,2,0,L|294:315,1,63.7499988555908,0|0,3:2|0:2,0:0:0:0:
165,323,31163,6,0,L|190:239,1,63.7499988555908,2|0,3:2|0:2,0:0:0:0:
137,306,31466,2,0,L|176:227,1,63.7499988555908,0|0,3:2|0:0,0:0:0:0:
112,284,31769,2,0,L|164:213,1,63.7499988555908,0|0,3:2|0:2,0:0:0:0:
91,257,32072,2,0,L|154:196,1,63.7499988555908,0|0,3:2|0:2,0:0:0:0:
201,89,32375,6,0,L|267:122,1,63.7499988555908,2|0,3:2|0:2,0:0:0:0:
241,50,32678,2,0,L|296:98,1,63.7499988555908,0|0,3:2|0:2,0:0:0:0:
289,22,32981,2,0,L|329:83,1,63.7499988555908,0|0,3:2|0:0,0:0:0:0:
342,7,33284,2,0,L|365:77,1,63.7499988555908,0|0,3:2|0:2,0:0:0:0:
487,194,33587,6,0,L|415:175,1,63.7499988555908,2|0,3:2|0:2,0:0:0:0:
448,288,33890,2,0,L|376:269,1,63.7499988555908,0|0,3:2|0:0,0:0:0:0:
268,292,34193,5,2,3:2:0:0:
322,212,34344,1,0,0:2:0:0:
292,307,34496,1,2,3:2:0:0:
304,194,34647,1,0,0:2:0:0:
244,49,34799,6,0,L|258:121,1,63.7499988555908,2|0,3:2|0:0,0:0:0:0:
194,51,35102,2,0,L|231:113,1,63.7499988555908,0|0,3:2|0:0,0:0:0:0:
147,69,35405,2,0,L|204:115,1,63.7499988555908,0|0,3:2|0:2,0:0:0:0:
108,101,35708,2,0,L|177:124,1,63.7499988555908,0|0,3:2|0:2,0:0:0:0:
0,230,36011,6,0,L|71:208,1,63.7499988555908,2|0,3:2|0:2,0:0:0:0:
24,302,36314,2,0,L|79:252,1,63.7499988555908,0|0,3:2|0:0,0:0:0:0:
76,357,36617,2,0,L|104:288,1,63.7499988555908,0|0,3:2|0:2,0:0:0:0:
146,384,36920,2,0,L|143:309,1,63.7499988555908,0|0,3:2|0:2,0:0:0:0:
341,353,37223,6,0,L|271:329,1,63.7499988555908,2|0,3:2|0:2,0:0:0:0:
411,265,37526,2,0,L|338:279,1,63.7499988555908,0|0,3:2|0:2,0:0:0:0:
427,153,37829,2,0,L|371:201,1,63.7499988555908,0|0,3:2|0:2,0:0:0:0:
384,48,38132,2,0,L|360:118,1,63.7499988555908,0|0,3:2|0:2,0:0:0:0:
170,12,38435,6,0,L|183:75,1,63.7499988555908,2|0,3:2|0:2,0:0:0:0:
126,242,38738,2,0,L|113:179,1,63.7499988555908,0|0,3:2|0:0,0:0:0:0:
59,108,39041,5,2,3:2:0:0:
217,169,39193,1,0,0:0:0:0:
113,276,39344,2,0,L|102:312,3,31.8749994277954,0|0|0|0,3:2|0:0|0:0|0:0,0:0:0:0:
98,330,39647,6,0,B|143:352|143:352|249:332,1,152.999986747742,4|0,3:2|0:0,0:0:0:0:
330,379,40106,6,0,B|320:308|417:314|344:319|369:226|300:303|348:353,1,152.999986747742,2|8,3:2|0:2,0:0:0:0:
338,332,40706,5,0,3:2:0:0:
343,343,41005,1,0,3:2:0:0:
348,354,41303,1,0,3:2:0:0:
492,282,41453,6,0,P|445:276|405:263,1,76.4999933738711,10|0,0:2|0:2,0:0:0:0:
438,149,41762,2,0,P|485:155|525:168,1,76.4999933738711,2|0,0:2|0:2,0:0:0:0:
375,50,42052,6,0,B|330:72|330:72|224:52,1,152.999986747742,2|0,3:2|0:0,0:0:0:0:
142,101,42514,6,0,B|152:30|55:36|128:41|103:-52|172:25|124:75,1,152.999986747742,2|8,3:2|0:2,0:0:0:0:
134,54,43134,5,2,3:2:0:0:
129,65,43436,1,2,3:2:0:0:
124,76,43739,1,2,3:2:0:0:
19,139,43891,5,10,0:2:0:0:
125,185,44042,2,0,B|102:162|102:162|84:210|126:241,1,110.499988742829,0|0,3:2|0:0,0:0:0:0:
14,314,44497,6,0,B|69:304|69:304|101:321|101:321|179:311,1,152.999986747742,2|0,3:2|0:0,0:0:0:0:
266,255,44951,5,2,3:2:0:0:
266,255,45027,1,0,3:0:0:0:
266,255,45103,2,0,B|199:183|266:87|317:117|312:169|253:172,1,203.999982330323,8|2,0:2|0:2,0:0:0:0:
176,123,45557,5,0,3:2:0:0:
161,110,45860,1,0,3:2:0:0:
146,97,46163,1,0,3:2:0:0:
281,2,46315,6,0,P|248:43|243:84,1,76.4999933738711,10|2,0:2|0:2,0:0:0:0:
284,169,46618,1,8,0:3:0:0:
444,141,46769,5,4,0:3:0:0:
444,141,46845,1,4,0:3:0:0:
444,141,46921,2,0,B|413:107|413:107|331:142|331:142|366:275,1,237.999979385377,6|8,3:2|0:2,0:0:0:0:
48,349,47375,6,0,B|79:383|79:383|161:348|161:348|126:215,1,237.999979385377,6|8,3:2|0:2,0:0:0:0:
35,0,47830,6,0,B|26:47|26:47|35:67|35:67|23:125,1,118.999989692688,6|0,3:2|0:0,0:0:0:0:
301,137,48133,5,6,3:2:0:0:
301,137,48209,1,0,3:0:0:0:
301,137,48285,1,0,3:0:0:0:
130,196,48436,1,8,0:2:0:0:
314,229,48588,1,6,3:2:0:0:
190,73,48739,1,0,3:0:0:0:
224,309,48891,1,8,0:2:0:0:
354,55,49042,2,0,B|389:44|389:44|418:50|418:50|447:33|494:40,1,127.499992847443,6|0,3:2|0:0,0:0:0:0:
512,117,49345,6,0,B|464:376,1,254.999995422363,6|8,3:2|0:2,0:0:0:0:
0,267,49800,6,0,B|48:8,1,254.999995422363,6|0,3:2|3:2,0:0:0:0:
319,200,50254,6,0,P|255:197|195:216,1,127.499997711182,10|0,0:2|0:0,0:0:0:0:
375,270,50557,5,10,0:2:0:0:
137,114,50709,1,2,3:2:0:0:
275,369,50860,1,10,0:2:0:0:
237,15,51012,1,6,3:2:0:0:
256,192,51315,5,0,0:0:0:0:
256,192,51466,1,0,0:0:0:0:
256,192,51618,1,0,0:0:0:0:
158,230,51769,5,6,3:2:0:0:
354,154,51921,1,2,0:2:0:0:
209,45,52072,1,2,0:2:0:0:
303,339,52222,1,2,3:2:0:0:
419,284,52372,1,10,0:2:0:0:
336,252,52522,1,0,3:2:0:0:
385,370,52672,1,10,0:2:0:0:
512,192,52822,5,6,3:2:0:0:
0,192,53122,1,14,3:2:0:0:
512,192,53422,1,14,3:2:0:0:
459,112,53579,5,2,0:0:0:0:
256,352,53809,1,2,0:0:0:0:
53,112,54039,1,2,0:0:0:0:
104,18,54193,5,6,3:2:0:0:
256,192,54342,1,2,0:2:0:0:
408,18,54492,1,10,0:2:0:0:
363,287,54641,1,2,3:2:0:0:
256,64,54791,1,10,0:2:0:0:
149,287,54941,1,2,3:2:0:0:
104,18,55090,1,10,0:2:0:0:
0,192,55240,5,6,3:2:0:0:
512,192,55550,1,6,3:2:0:0:
0,192,55861,1,6,3:2:0:0:
256,192,56163,5,2,0:2:0:0:
256,192,56314,1,2,0:2:0:0:
485,60,56465,6,0,P|394:51|331:116,1,186.99999521637,6|0,3:2|3:2,0:0:0:0:
116,239,56919,1,10,2:2:0:0:
151,145,57070,1,0,3:2:0:0:
151,145,57146,1,0,3:0:0:0:
151,145,57222,1,8,0:2:0:0:
235,294,57373,1,0,3:0:0:0:
49,336,57525,1,10,2:2:0:0:
123,246,57676,5,2,3:2:0:0:
123,246,57752,1,0,3:0:0:0:
123,246,57828,2,0,L|15:233,1,93.4999976081848,8|0,0:2|3:0,0:0:0:0:
235,294,58131,1,8,0:2:0:0:
326,368,58282,2,0,P|388:355|430:333,1,93.4999976081848,2|8,3:2|0:2,0:0:0:0:
348,104,58585,1,2,3:2:0:0:
348,104,58661,1,0,3:0:0:0:
348,104,58737,2,0,P|286:117|244:139,1,93.4999976081848,8|0,0:2|3:0,0:0:0:0:
154,80,59040,5,10,0:2:0:0:
358,202,59191,2,0,P|404:194|447:176,1,93.4999976081848,2|10,3:2|0:2,0:0:0:0:
139,0,59494,2,0,L|95:201,1,186.99999521637,2|0,3:2|3:0,0:0:0:0:
93,340,59949,2,0,P|54:359|-17:366,1,93.4999976081848,8|0,0:2|0:0,0:0:0:0:
285,181,60252,5,10,0:2:0:0:
330,191,60328,1,8,0:2:0:0:
359,227,60403,1,10,0:2:0:0:
369,272,60479,1,8,0:2:0:0:
404,301,60555,1,10,0:2:0:0:
447,317,60631,1,8,0:2:0:0:
493,308,60706,2,0,P|503:244|509:212,1,93.4999976081848,6|0,3:2|0:0,0:0:0:0:
19,76,61009,2,0,P|9:140|3:172,1,93.4999976081848,2|0,3:2|0:0,0:0:0:0:
270,376,61312,6,0,B|288:288|220:299|238:195,1,186.99999521637,6|2,3:2|3:2,0:0:0:0:
276,3,61763,1,10,0:2:0:0:
337,235,61914,1,2,0:2:0:0:
165,56,62065,1,2,3:2:0:0:
404,143,62215,1,2,3:2:0:0:
219,314,62366,1,10,0:2:0:0:
55,268,62517,6,0,P|59:311|63:369,1,93.4999976081848,2|0,0:2|3:2,0:0:0:0:
490,169,62819,2,0,P|486:212|482:270,1,93.4999976081848,2|8,0:2|0:2,0:0:0:0:
156,146,63122,1,2,0:2:0:0:
361,235,63274,1,2,3:2:0:0:
249,100,63425,1,2,3:2:0:0:
263,284,63577,1,10,0:2:0:0:
348,61,63728,6,0,P|429:56|495:135,1,186.99999521637,6|2,3:2|3:2,0:0:0:0:
238,0,64191,1,10,0:2:0:0:
110,354,64494,1,2,3:2:0:0:
219,191,64645,1,2,3:2:0:0:
43,272,64797,1,10,0:2:0:0:
260,289,64948,6,0,P|266:342|270:395,1,93.4999976081848,2|0,0:2|3:2,0:0:0:0:
69,139,65251,2,0,P|63:92|59:45,1,93.4999976081848,2|8,3:2|0:2,0:0:0:0:
483,212,65554,2,0,P|489:265|493:318,1,93.4999976081848,2|0,0:2|3:2,0:0:0:0:
149,256,65857,1,2,3:2:0:0:
363,128,66009,1,10,0:2:0:0:
236,7,66160,6,0,B|217:99|291:105|248:210,1,186.99999521637,4|0,3:2|3:2,0:0:0:0:
152,382,66615,1,10,0:2:0:0:
58,239,66766,1,2,0:2:0:0:
58,239,66842,1,2,0:0:0:0:
58,239,66918,1,0,3:2:0:0:
175,148,67069,1,0,3:2:0:0:
156,275,67221,1,10,0:2:0:0:
77,127,67372,5,2,0:2:0:0:
77,127,67448,1,2,0:0:0:0:
77,127,67524,2,0,L|-25:141,1,93.4999976081848,0|0,3:2|3:2,0:0:0:0:
256,192,67827,1,10,0:2:0:0:
340,137,67978,2,0,P|344:90|337:44,1,93.4999976081848,2|0,0:2|3:2,0:0:0:0:
172,247,68281,1,2,3:2:0:0:
172,247,68357,1,2,0:0:0:0:
172,247,68433,2,0,P|167:293|174:339,1,93.4999976081848,8|0,0:2|0:0,0:0:0:0:
512,255,68736,6,0,P|440:279|340:228,2,186.99999521637,6|8|2,3:2|0:2|3:2,0:0:0:0:
358,123,69493,1,0,3:2:0:0:
478,36,69645,1,8,0:2:0:0:
358,123,69796,1,0,0:0:0:0:
237,37,69948,5,2,3:2:0:0:
344,233,70100,1,0,3:2:0:0:
372,11,70251,1,8,0:2:0:0:
218,174,70403,1,0,3:2:0:0:
438,132,70554,1,10,0:2:0:0:
237,37,70709,5,8,0:2:0:0:
199,31,70786,1,8,0:2:0:0:
162,35,70864,1,8,0:3:0:0:
131,56,70941,1,8,0:3:0:0:
98,75,71019,1,4,0:3:0:0:
62,80,71096,1,4,0:3:0:0:
25,75,71174,6,0,P|-4:147|24:259,1,169.999990463257,14|0,0:2|3:2,0:0:0:0:
20,250,71775,1,0,3:2:0:0:
31,262,72074,1,0,3:2:0:0:
44,271,72373,1,0,3:2:0:0:
149,316,72522,5,8,0:2:0:0:
149,316,72597,1,8,0:2:0:0:
149,316,72672,1,10,0:2:0:0:
51,382,72821,1,10,0:2:0:0:
136,200,72971,5,2,3:2:0:0:
398,309,73172,1,10,0:2:0:0:
362,28,73373,1,10,0:2:0:0:
505,247,73574,6,0,P|514:169|458:69,1,169.999990463257,6|0,3:2|3:2,0:0:0:0:
464,76,74183,1,0,3:2:0:0:
450,67,74490,1,0,3:2:0:0:
435,62,74798,1,0,3:2:0:0:
304,103,74951,5,8,0:2:0:0:
304,103,75028,1,8,0:0:0:0:
304,103,75105,1,10,0:2:0:0:
342,0,75256,1,10,0:2:0:0:
388,218,75408,5,8,0:3:0:0:
124,134,75610,1,8,0:3:0:0:
138,173,75711,1,8,0:3:0:0:
173,200,75812,1,4,0:3:0:0:
367,363,76014,6,0,P|288:343|193:416,1,169.999990463257,6|0,3:2|0:2,0:0:0:0:
145,21,76626,2,0,P|224:41|319:-32,1,169.999990463257,14|0,0:2|0:2,0:0:0:0:
499,247,77073,5,0,3:0:0:0:
499,247,77148,1,0,3:0:0:0:
499,247,77223,2,0,P|466:169|479:86,1,169.999990463257,6|0,3:2|0:0,0:0:0:0:
13,137,77829,2,0,P|45:214|32:297,1,169.999990463257,14|0,0:2|0:0,0:0:0:0:
286,23,78435,6,0,P|243:21|202:11,1,84.9999952316285,14|0,3:2|0:0,0:0:0:0:
226,361,78736,2,0,P|269:363|310:373,1,84.9999952316285,8|0,3:2|0:0,0:0:0:0:
124,81,79038,2,0,P|101:117|72:148,1,84.9999952316285,8|0,3:2|0:0,0:0:0:0:
387,302,79340,2,0,P|410:266|439:235,1,84.9999952316285,8|0,3:2|0:0,0:0:0:0:
94,250,79642,2,0,P|114:288|126:329,1,84.9999952316285,8|0,3:2|0:0,0:0:0:0:
417,133,79945,2,0,P|397:95|385:54,1,84.9999952316285,8|0,3:2|0:0,0:0:0:0:
160,132,80248,6,0,P|84:95|0:97,1,169.999990463257,10|8,3:2|3:2,0:0:0:0:
352,329,80854,2,0,P|427:365|512:364,1,169.999990463257,10|8,3:2|3:2,0:0:0:0:
338,219,81308,1,2,0:2:0:0:
476,131,81460,2,0,P|469:174|451:216,1,84.9999952316285,8|0,3:2|0:0,0:0:0:0:
233,108,81763,1,10,3:2:0:0:
95,196,81914,2,0,P|101:152|119:110,1,84.9999952316285,0|8,2:0|3:2,0:0:0:0:
320,24,82217,5,2,2:0:0:0:
320,24,82293,1,2,2:0:0:0:
320,24,82369,1,10,3:2:0:0:
258,202,82520,1,2,0:2:0:0:
320,24,82672,1,10,3:2:0:0:
342,151,82823,1,2,0:2:0:0:
183,52,82975,1,10,3:2:0:0:
240,306,83126,1,2,3:2:0:0:
47,223,83278,6,0,P|57:271|58:330,1,84.9999952316285,14|0,3:2|0:0,0:0:0:0:
465,161,83581,2,0,P|455:113|454:54,1,84.9999952316285,8|0,3:2|0:0,0:0:0:0:
149,170,83884,1,8,3:2:0:0:
363,214,84034,1,0,3:0:0:0:
185,82,84184,1,8,3:2:0:0:
327,302,84334,1,0,3:0:0:0:
512,224,84484,5,8,3:2:0:0:
490,190,84580,1,8,0:2:0:0:
494,150,84676,1,8,0:2:0:0:
452,77,84772,5,0,3:2:0:0:
435,88,84880,1,8,0:3:0:0:
416,95,84988,1,4,0:3:0:0:
326,122,85096,6,0,B|282:95|282:95|242:100|242:100|216:82|164:80,1,152.999986747742,6|0,3:2|0:0,0:0:0:0:
106,34,85694,5,6,3:2:0:0:
53,91,85853,1,2,0:2:0:0:
39,171,86013,1,2,0:2:0:0:
65,261,86164,1,2,0:2:0:0:
139,326,86316,1,2,0:2:0:0:
239,355,86467,1,2,0:2:0:0:
341,325,86619,1,2,0:2:0:0:
408,235,86770,1,2,0:2:0:0:
396,118,86922,1,2,0:2:0:0:
292,51,87073,1,2,0:2:0:0:
181,114,87225,1,2,0:2:0:0:
185,246,87376,1,2,0:2:0:0:
312,296,87528,1,2,0:2:0:0:
427,210,87672,1,2,0:2:0:0:
284,29,87817,5,10,0:2:0:0:
233,384,87968,1,10,0:2:0:0:
