osu file format v14

[General]
AudioFilename: audio.mp3
AudioLeadIn: 0
PreviewTime: 51239
Countdown: 0
SampleSet: Soft
StackLeniency: 0.4
Mode: 0
LetterboxInBreaks: 0
WidescreenStoryboard: 0

[Editor]
Bookmarks: 860,10556,20253,29950,39647,51769,61312,71174,78435,85694,87817,87968
DistanceSpacing: 1.2
BeatDivisor: 4
GridSize: 16
TimelineZoom: 1.6

[Metadata]
Title:OveR (TV Size)
TitleUnicode:OveR (TV Size)
Artist:Tomita Miyu
ArtistUnicode:富田美憂
Creator:lit120
Version:Hard
Source:デート・ア・ライブⅣ
Tags:Date A Live DAL 4 IV DAL4 DALIV opening japanese poop jpop j-pop rock jrock j-rock anime kadokawa -Hakurei- Lasse Yogurtt
BeatmapID:3551180
BeatmapSetID:1737435

[Difficulty]
HPDrainRate:5
CircleSize:4
OverallDifficulty:6
ApproachRate:8
SliderMultiplier:1.5
SliderTickRate:1

[Events]
//Background and Video events
0,0,"kotori.jpg",0,0
Video,196,"dals4op.mp4"
//Break Periods
//Storyboard Layer 0 (Background)
//Storyboard Layer 1 (Fail)
//Storyboard Layer 2 (Pass)
//Storyboard Layer 3 (Foreground)
//Storyboard Layer 4 (Overlay)
//Storyboard Sound Samples

[TimingPoints]
860,303.030303030303,4,2,1,50,1,0
860,-133.333333333333,4,2,1,50,0,0
9950,-133.333333333333,4,2,1,35,0,0
10556,-100,4,2,1,80,0,0
10784,-100,4,2,1,5,0,0
10859,-100,4,2,1,80,0,0
15632,-100,4,2,1,5,0,0
15708,-100,4,2,1,80,0,0
20253,-133.333333333333,4,2,1,50,0,0
39647,306.122448979592,4,2,1,60,1,0
40259,298.507462686567,4,2,1,60,1,0
40856,298.507462686567,4,2,1,60,1,0
41453,309.278350515464,4,2,1,60,1,0
41916,272.727272727273,4,2,1,60,1,0
42052,309.278350515464,4,2,1,60,1,0
43134,303.030303030303,4,2,1,50,1,0
43285,303.030303030303,4,2,1,60,1,0
46920,-100,4,2,1,70,0,0
51769,-100,4,2,1,80,0,1
52072,300,4,2,1,80,1,1
52972,300,4,2,1,80,1,1
53422,315.789473684211,4,2,1,80,1,1
53579,307.29833546735,4,2,1,80,1,1
54193,299.25187032419,4,2,1,80,1,1
55240,310.880829015544,4,2,1,80,1,1
55395,310.880829015544,4,2,1,80,1,1
55861,302.648171500631,4,2,1,80,1,1
56012,302.648171500631,4,2,1,80,1,1
56465,303.030303030303,4,2,1,80,1,1
56616,303.030303030303,4,2,1,80,1,1
61312,301.507537688442,4,2,1,80,1,1
61462,301.507537688442,4,2,1,80,1,1
62668,303.030303030303,4,2,1,80,1,1
63728,309.278350515464,4,2,1,80,1,1
63882,309.278350515464,4,2,1,80,1,1
64191,303.030303030303,4,2,1,80,1,1
65100,303.030303030303,4,2,1,80,1,1
70554,310.077519379845,4,2,1,80,1,1
71174,292.682926829268,4,2,1,80,1,0
71174,-100,4,2,1,80,0,0
71466,309.278350515464,4,2,1,50,1,0
71466,-100,4,2,1,50,0,0
71775,299.25187032419,4,2,1,50,1,0
72373,299.25187032419,4,2,1,50,1,0
72678,-100,4,2,1,60,0,0
72971,301.507537688442,4,2,1,60,1,0
73574,285.714285714286,4,2,1,80,1,0
73859,324.324324324324,4,2,1,50,1,0
74183,307.692307692308,4,2,1,50,1,0
74798,307.692307692308,4,2,1,50,1,0
75105,303.030303030303,4,2,1,60,1,0
76014,306.122448979592,4,2,1,80,1,1
76626,298.507462686567,4,2,1,80,1,1
77223,303.030303030303,4,2,1,80,1,1
78435,301.88679245283,4,2,1,80,1,0
79642,303.030303030303,4,2,1,80,1,0
83884,300,4,2,1,80,1,0
84484,288.461538461538,4,2,1,80,1,0
84772,324.324324324324,4,2,1,80,1,0
85096,299.25187032419,4,2,1,80,1,0
85694,319.148936170213,4,2,1,80,1,0
86013,303.030303030303,4,2,1,80,1,0
86922,303.030303030303,4,2,1,80,1,0
87528,289.855072463768,4,2,1,80,1,0
87817,303.030303030303,4,2,1,80,1,0
88120,303.030303030303,4,2,1,80,1,0

[Colours]
Combo1 : 223,179,117
Combo2 : 238,108,121
Combo3 : 219,163,121
Combo4 : 196,91,99

[HitObjects]
512,127,860,6,0,B|468:35|468:35|491:267|491:267|362:212|408:354|280:313,1,562.500021457673,2|0,3:2|3:2,0:0:0:0:
147,208,2678,2,0,P|155:234|162:262,1,56.2500021457673,2|0,3:2|0:0,0:0:0:0:
249,236,2981,2,0,P|240:209|233:181,1,56.2500021457673,0|0,3:2|0:0,0:0:0:0:
167,119,3284,6,0,P|97:141|37:153,1,112.500004291535,2|0,3:2|3:2,0:0:0:0:
79,60,3738,2,0,P|133:43|188:31,1,112.500004291535,2|0,0:2|0:0,0:0:0:0:
253,93,4193,2,0,P|306:110|361:122,2,112.500004291535,2|0|0,3:2|3:2|3:2,0:0:0:0:
352,243,5102,2,0,P|405:225|460:213,1,112.500004291535,0|0,3:2|3:2,0:0:0:0:
373,370,5708,6,0,B|281:358|281:358|257:318|257:318|167:303|167:303|150:359|90:399|15:376|-16:310|-17:237|63:203,1,562.500021457673,2|0,3:2|3:2,0:0:0:0:
183,80,7526,2,0,P|156:85|127:89,1,56.2500021457673,2|0,3:2|0:0,0:0:0:0:
144,179,7829,2,0,P|171:172|200:168,1,56.2500021457673,0|0,3:2|0:0,0:0:0:0:
268,110,8132,6,0,B|353:122|421:22|421:22|382:136|444:197|444:197|505:259|466:373,1,562.500021457673,2|0,3:2|3:2,0:0:0:0:
318,270,9950,5,4,0:3:0:0:
256,336,10102,2,0,L|256:364,2,28.1250010728836,4|4|4,0:3|0:3|0:3,0:0:0:0:
194,270,10405,1,4,0:3:0:0:
194,270,10481,1,4,0:3:0:0:
194,270,10556,6,0,P|125:288|55:305,1,112.5,6|0,3:2|0:0,0:0:0:0:
46,274,10860,2,0,P|58:216|64:160,1,75,8|0,0:2|0:0,0:0:0:0:
133,146,11163,2,0,P|121:88|115:32,1,75,0|0,3:2|3:2,0:0:0:0:
56,6,11466,1,8,0:2:0:0:
56,6,11617,6,0,P|144:41|226:8,1,150,0|0,3:2|3:2,0:0:0:0:
279,61,12072,2,0,P|359:44|414:55,1,75,8|0,0:2|0:0,0:0:0:0:
434,6,12375,2,0,P|450:86|439:141,1,75,2|0,3:2|3:2,0:0:0:0:
489,162,12678,2,0,P|408:178|353:167,1,75,8|0,0:2|0:0,0:0:0:0:
334,217,12981,6,0,P|281:160|162:166,1,150,2|8,3:2|0:2,0:0:0:0:
130,184,13435,2,0,P|106:257|172:357,1,150,2|0,0:2|3:2,0:0:0:0:
204,377,13890,1,10,0:2:0:0:
204,377,14041,6,0,P|279:360|333:253,1,150,0|0,3:2|3:2,0:0:0:0:
406,269,14496,2,0,P|466:287|507:293,1,75,8|0,0:2|0:0,0:0:0:0:
510,205,14799,2,0,P|501:168|489:132,1,75,0|0,3:2|3:2,0:0:0:0:
409,91,15102,2,0,P|417:54|429:18,1,75,8|0,0:2|0:0,0:0:0:0:
340,4,15405,6,0,P|285:46|219:52,1,112.5,6|0,3:2|0:0,0:0:0:0:
198,56,15708,2,0,L|101:48,1,75,8|0,0:2|0:0,0:0:0:0:
103,137,16011,2,0,L|177:143,1,75,0|0,3:2|3:2,0:0:0:0:
158,231,16314,1,8,0:2:0:0:
158,231,16466,6,0,L|8:218,1,150,0|0,3:2|3:2,0:0:0:0:
29,305,16920,2,0,L|103:311,1,75,8|0,0:2|0:0,0:0:0:0:
184,350,17223,2,0,P|264:345|299:263,1,150,2|8,3:2|0:2,0:0:0:0:
290,201,17678,1,4,0:3:0:0:
290,201,17753,1,4,0:3:0:0:
290,201,17829,6,0,P|273:82|267:30,1,150,6|8,3:2|0:2,0:0:0:0:
351,14,18284,2,0,P|362:88|371:162,1,150,6|0,3:2|0:0,0:0:0:0:
417,240,18738,2,0,P|345:248|289:200,1,150,6|8,3:2|0:2,0:0:0:0:
233,130,19193,2,0,P|160:122|105:169,1,150,6|8,3:2|0:3,0:0:0:0:
46,237,19647,5,8,0:3:0:0:
75,322,19799,1,8,0:3:0:0:
163,339,19950,1,4,0:3:0:0:
223,272,20102,1,8,0:2:0:0:
251,356,20253,6,0,P|304:347|366:338,1,112.500004291535,2|2,0:2|0:0,0:0:0:0:
485,206,20860,2,0,P|491:166|496:138,2,56.2500021457673,2|2|2,0:0|0:0|0:0,0:0:0:0:
404,246,21314,5,2,0:0:0:0:
293,104,21617,2,0,P|237:112|181:121,1,112.500004291535,2|0,0:2|0:0,0:0:0:0:
104,169,22072,2,0,P|114:215|117:247,2,56.2500021457673,2|2|2,0:0|0:0|0:0,0:0:0:0:
37,110,22526,6,0,P|42:49|96:17,1,112.500004291535,2|2,0:0|0:0,0:0:0:0:
259,25,23132,2,0,P|314:16|370:7,1,112.500004291535,2|0,0:2|0:0,0:0:0:0:
439,64,23587,1,2,0:0:0:0:
439,64,23738,6,0,P|418:116|398:168,1,112.500004291535,2|2,0:2|0:0,0:0:0:0:
439,249,24193,2,0,P|459:301|479:353,2,112.500004291535,2|2|2,0:2|0:0|0:0,0:0:0:0:
277,168,25102,6,0,P|283:237|289:322,1,112.500004291535,2|2,0:0|0:0,0:0:0:0:
129,368,25708,2,0,P|93:365|56:359,2,56.2500021457673,2|2|2,0:0|0:0|0:0,0:0:0:0:
182,295,26163,5,2,0:0:0:0:
24,208,26466,2,0,P|28:151|33:95,1,112.500004291535,2|0,0:0|0:0,0:0:0:0:
98,34,26920,2,0,P|76:17|34:5,2,56.2500021457673,2|2|2,0:0|0:0|0:0,0:0:0:0:
119,122,27375,6,0,P|114:178|109:234,1,112.500004291535,2|2,0:0|0:0,0:0:0:0:
223,373,27981,2,0,P|227:316|232:260,1,112.500004291535,2|2,0:0|0:0,0:0:0:0:
408,224,28587,6,0,P|334:220|294:168,1,112.500004291535,2|2,0:2|0:2,0:0:0:0:
249,128,29041,2,0,P|259:82|263:60,1,56.2500021457673,2|2,0:2|0:2,0:0:0:0:
315,0,29344,1,2,0:2:0:0:
374,68,29496,1,2,0:0:0:0:
374,68,29572,1,2,0:0:0:0:
374,68,29647,2,0,P|424:62|454:60,1,56.2500021457673,2|0,0:2|0:0,0:0:0:0:
494,125,29950,6,0,P|491:152|487:180,1,56.2500021457673,2|0,3:2|0:0,0:0:0:0:
408,224,30253,2,0,P|410:252|414:279,1,56.2500021457673,2|0,3:2|0:0,0:0:0:0:
491,327,30556,2,0,P|488:354|484:382,2,56.2500021457673,2|2|2,3:2|0:2|3:2,0:0:0:0:
414,280,31011,6,0,P|386:284|358:286,1,56.2500021457673,2|0,0:2|3:2,0:0:0:0:
289,344,31314,1,2,0:0:0:0:
289,344,31466,2,0,P|266:328|241:314,1,56.2500021457673,0|0,3:2|0:0,0:0:0:0:
157,280,31769,2,0,L|67:294,2,56.2500021457673,2|2|2,3:2|0:2|3:2,0:0:0:0:
223,219,32223,6,0,L|209:129,1,56.2500021457673,2|0,0:2|3:2,0:0:0:0:
289,113,32526,2,0,L|297:57,1,56.2500021457673,2|0,0:2|3:2,0:0:0:0:
223,6,32829,2,0,P|138:49|91:37,1,112.500004291535,2|0,0:2|0:0,0:0:0:0:
42,9,33284,1,2,3:2:0:0:
42,9,33435,6,0,P|53:105|56:157,1,112.500004291535,2|2,0:2|0:2,0:0:0:0:
25,206,33890,2,0,P|14:302|11:354,2,112.500004291535,2|2|2,3:2|3:2|3:2,0:0:0:0:
164,320,34799,6,0,P|209:330|231:330,1,56.2500021457673,2|0,3:2|0:0,0:0:0:0:
294,380,35102,2,0,P|315:361|331:338,1,56.2500021457673,2|0,3:2|0:0,0:0:0:0:
411,296,35405,2,0,P|396:251|386:232,2,56.2500021457673,2|2|2,3:2|0:2|3:2,0:0:0:0:
331,338,35860,6,0,P|319:312|312:285,1,56.2500021457673,2|0,0:2|3:2,0:0:0:0:
265,207,36163,1,2,0:0:0:0:
265,207,36314,2,0,P|269:179|275:152,1,56.2500021457673,0|0,3:2|0:0,0:0:0:0:
247,65,36617,2,0,P|201:57|181:51,2,56.2500021457673,2|2|2,3:2|0:2|3:2,0:0:0:0:
336,84,37072,6,0,P|363:76|391:72,1,56.2500021457673,2|0,0:2|3:2,0:0:0:0:
470,117,37375,2,0,P|476:144|480:172,1,56.2500021457673,2|0,0:2|3:2,0:0:0:0:
421,240,37678,2,0,P|414:268|411:296,1,56.2500021457673,2|0,0:2|3:2,0:0:0:0:
331,338,37981,2,0,P|303:331|275:327,1,56.2500021457673,2|0,0:2|3:2,0:0:0:0:
197,282,38284,6,0,P|149:348|88:348,1,112.500004291535,2|2,0:2|0:2,0:0:0:0:
59,291,38738,2,0,P|67:234|77:157,1,112.500004291535,2|2,3:2|3:2,0:0:0:0:
126,106,39193,1,2,0:0:0:0:
126,106,39269,1,2,0:0:0:0:
126,106,39344,2,0,P|113:59|108:37,1,56.2500021457673,2|0,3:2|0:0,0:0:0:0:
191,10,39647,6,0,P|262:65|337:65,1,150,4|0,3:2|0:0,0:0:0:0:
395,19,40106,1,2,3:2:0:0:
395,19,40259,2,0,P|364:103|387:174,1,150,8|2,0:2|0:0,0:0:0:0:
449,215,40706,6,0,P|359:212|298:256,2,150,0|0|0,3:2|3:2|3:2,0:0:0:0:
497,291,41453,1,10,0:0:0:0:
476,378,41607,1,2,0:0:0:0:
385,383,41762,2,0,P|339:369|313:359,1,75,2|2,0:2|0:2,0:0:0:0:
239,307,42052,6,0,P|173:341|100:334,1,150,2|0,3:2|0:0,0:0:0:0:
47,262,42514,1,2,3:2:0:0:
47,262,42670,2,0,P|55:188|63:77,1,150,8|2,0:2|0:2,0:0:0:0:
140,69,43134,6,0,P|145:143|153:218,2,150,2|2|2,3:2|3:2|3:2,0:0:0:0:
214,18,43891,1,10,0:0:0:0:
302,31,44042,1,0,3:2:0:0:
347,110,44194,2,0,P|408:82|439:78,1,75,2|0,0:2|0:0,0:0:0:0:
483,21,44497,6,0,P|465:123|458:231,1,150,2|0,3:2|0:0,0:0:0:0:
508,244,44951,1,2,3:2:0:0:
508,244,45027,1,0,3:2:0:0:
508,244,45103,2,0,P|435:203|352:250,1,150,8|2,0:2|0:0,0:0:0:0:
318,291,45557,6,0,P|245:332|162:285,2,150,0|0|0,3:2|3:2|3:2,0:0:0:0:
287,206,46315,2,0,P|296:152|301:110,1,75,10|2,0:2|0:2,0:0:0:0:
254,52,46618,1,8,0:3:0:0:
174,95,46769,1,4,0:3:0:0:
174,95,46845,1,4,0:3:0:0:
174,95,46921,6,0,P|106:87|21:72,1,150,6|8,3:2|0:2,0:0:0:0:
1,160,47375,2,0,P|69:168|154:183,1,150,6|8,3:2|0:2,0:0:0:0:
220,236,47830,2,0,P|256:226|287:206,1,75,6|0,3:2|0:0,0:0:0:0:
336,129,48133,6,0,P|405:152|497:177,1,150,6|8,3:2|0:2,0:0:0:0:
510,257,48588,2,0,P|437:277|366:300,1,150,6|8,3:2|0:2,0:0:0:0:
297,357,49042,2,0,P|243:348|206:341,1,75,6|0,3:2|0:0,0:0:0:0:
143,302,49345,6,0,P|119:364|11:357,1,150,6|8,3:2|0:2,0:0:0:0:
0,299,49800,2,0,P|15:217|28:128,1,150,6|0,3:2|3:2,0:0:0:0:
98,100,50254,2,0,P|86:33|81:6,1,75,10|0,0:2|0:0,0:0:0:0:
171,2,50557,5,10,0:2:0:0:
236,65,50709,1,2,3:2:0:0:
213,152,50860,1,10,0:2:0:0:
278,215,51012,1,6,3:2:0:0:
278,215,51769,6,0,L|264:298,1,75,6|2,3:2|0:2,0:0:0:0:
346,328,52072,2,0,L|358:254,1,75,2|2,0:2|3:2,0:0:0:0:
435,207,52372,2,0,P|408:134|416:85,1,75,10|0,0:2|3:2,0:0:0:0:
430,50,52672,1,10,0:0:0:0:
342,31,52822,6,0,P|284:52|248:57,1,75,6|0,3:2|0:0,0:0:0:0:
254,144,53122,2,0,P|269:178|278:215,1,75,14|0,3:2|0:0,0:0:0:0:
358,254,53422,1,14,0:0:0:0:
358,254,53579,2,0,P|418:239|475:240,2,112.5,2|2|2,0:0|0:0|0:0,0:0:0:0:
276,293,54193,6,0,L|269:378,1,75,6|2,3:2|0:2,0:0:0:0:
180,376,54492,2,0,L|186:301,1,75,10|2,0:2|3:2,0:0:0:0:
120,239,54791,1,10,0:0:0:0:
84,321,54941,1,2,3:2:0:0:
2,285,55090,1,10,0:2:0:0:
38,203,55240,6,0,L|31:128,1,75,6|0,3:2|0:0,0:0:0:0:
88,57,55550,2,0,P|142:80|171:87,1,75,6|0,3:2|0:0,0:0:0:0:
230,136,55861,2,0,P|304:82|424:103,1,150,6|2,3:2|0:2,0:0:0:0:
446,102,56314,1,2,0:2:0:0:
468,189,56465,6,0,P|461:283|458:360,1,150,6|0,3:2|3:2,0:0:0:0:
378,379,56919,2,0,P|370:322|365:289,1,75,2|2,3:2|0:2,0:0:0:0:
319,227,57222,2,0,P|243:271|155:258,1,150,8|2,0:2|3:2,0:0:0:0:
143,187,57676,6,0,P|160:88|173:5,1,150,2|0,0:2|0:0,0:0:0:0:
84,4,58131,1,10,0:2:0:0:
84,4,58282,2,0,P|65:53|43:97,1,75,2|8,0:2|0:2,0:0:0:0:
1,145,58585,2,0,P|22:229|36:332,1,150,2|0,0:2|0:0,0:0:0:0:
96,353,59040,5,10,0:2:0:0:
96,353,59191,2,0,P|140:335|185:322,1,75,2|10,0:2|0:2,0:0:0:0:
226,259,59494,2,0,P|221:348|286:359,1,150,2|0,0:2|0:0,0:0:0:0:
344,321,59949,2,0,P|408:339|446:348,1,75,8|0,0:2|0:0,0:0:0:0:
495,298,60252,5,10,0:2:0:0:
418,251,60403,1,10,0:2:0:0:
418,251,60479,1,8,0:2:0:0:
418,251,60555,1,10,0:2:0:0:
497,208,60706,2,0,P|488:137|485:98,1,75,6|0,3:2|0:0,0:0:0:0:
403,101,61009,2,0,P|408:64|413:27,1,75,2|0,3:2|0:0,0:0:0:0:
325,1,61312,6,0,P|264:47|173:23,1,150,6|2,3:2|3:2,0:0:0:0:
141,111,61763,2,0,P|150:147|155:184,1,75,10|2,0:2|0:2,0:0:0:0:
222,246,62065,1,2,3:2:0:0:
139,280,62215,1,2,3:2:0:0:
206,344,62366,1,10,0:2:0:0:
123,378,62517,6,0,P|86:370|50:360,1,75,2|0,0:2|3:2,0:0:0:0:
1,286,62819,2,0,P|9:249|19:213,1,75,2|8,0:2|0:2,0:0:0:0:
64,135,63122,2,0,P|56:98|46:62,1,75,2|2,0:2|3:2,0:0:0:0:
113,2,63425,1,2,3:2:0:0:
160,78,63577,1,10,0:2:0:0:
227,18,63728,6,0,P|304:47|394:50,1,150,6|2,3:2|3:2,0:0:0:0:
459,31,64191,2,0,P|448:109|447:148,1,75,10|0,0:2|0:0,0:0:0:0:
407,185,64494,2,0,P|418:263|419:302,2,75,2|2|10,3:2|3:2|0:2,0:0:0:0:
332,135,64948,6,0,P|254:146|215:147,1,75,2|0,0:2|3:2,0:0:0:0:
208,220,65251,2,0,P|214:257|219:295,1,75,2|8,3:2|0:2,0:0:0:0:
293,343,65554,2,0,P|329:336|367:332,1,75,2|0,0:2|3:2,0:0:0:0:
417,259,65857,1,2,3:2:0:0:
456,340,66009,1,10,0:2:0:0:
507,267,66160,6,0,P|501:178|495:102,1,150,4|0,3:2|3:2,0:0:0:0:
460,35,66615,1,10,0:2:0:0:
371,52,66766,2,0,P|296:45|227:18,1,150,2|0,0:2|3:2,0:0:0:0:
157,74,67221,1,10,0:2:0:0:
224,134,67372,6,0,P|209:223|199:303,1,150,2|0,0:2|3:2,0:0:0:0:
144,351,67827,1,10,0:2:0:0:
81,285,67978,2,0,L|1:298,1,75,2|0,0:2|3:2,0:0:0:0:
21,207,68281,2,0,L|95:194,2,75,2|8|0,3:2|0:2|0:0,0:0:0:0:
36,116,68736,6,0,L|184:91,2,150,6|8|2,3:2|0:2|3:2,0:0:0:0:
21,207,69493,1,0,3:2:0:0:
6,297,69645,2,0,L|81:285,1,75,8|0,0:2|0:0,0:0:0:0:
144,351,69948,5,2,3:2:0:0:
226,312,70100,1,0,3:2:0:0:
214,222,70251,1,8,0:2:0:0:
297,183,70403,1,0,3:2:0:0:
359,248,70554,2,0,P|387:177|339:102,1,150,10|8,0:2|0:3,0:0:0:0:
266,96,71019,1,4,0:3:0:0:
266,96,71096,1,4,0:3:0:0:
266,96,71174,6,0,P|340:83|381:4,1,150,14|0,0:2|3:2,0:0:0:0:
466,2,71620,2,0,P|461:54|457:105,1,75,2|0,0:2|3:2,0:0:0:0:
504,155,71924,2,0,P|507:192|510:229,1,75,2|0,0:2|3:2,0:0:0:0:
435,279,72223,2,0,P|430:331|426:382,1,75,2|0,0:2|3:2,0:0:0:0:
339,369,72522,1,8,0:2:0:0:
339,369,72597,1,8,0:2:0:0:
339,369,72672,6,0,P|335:331|332:294,1,75,10|10,0:2|0:2,0:0:0:0:
257,243,72971,2,0,P|191:255|122:264,2,100,2|10|10,3:2|0:2|0:2,0:0:0:0:
331,148,73574,6,0,P|293:76|202:82,1,150,6|2,3:2|3:2,0:0:0:0:
155,115,74021,2,0,P|100:97|68:82,1,75,2|0,0:2|3:2,0:0:0:0:
7,138,74336,2,0,P|21:172|31:208,1,75,2|0,0:2|3:2,0:0:0:0:
73,288,74644,2,0,P|58:322|48:358,2,75,2|0|8,0:2|3:2|0:2,0:0:0:0:
158,259,75105,6,0,P|219:283|240:290,1,75,10|10,0:2|0:2,0:0:0:0:
279,360,75408,2,0,P|200:374|167:385,2,100,8|8|4,0:3|0:3|0:3,0:0:0:0:
367,279,76014,6,0,P|430:344|503:321,1,150,6|2,3:2|0:2,0:0:0:0:
503,248,76473,2,0,P|492:155|491:137,1,75,2|14,0:2|0:2,0:0:0:0:
433,106,76775,2,0,P|444:13|445:-5,2,75,2|2|2,0:2|0:2|0:2,0:0:0:0:
361,159,77223,6,0,P|264:143|211:71,1,150,6|0,3:2|0:0,0:0:0:0:
79,9,77829,2,0,P|85:94|93:250,1,225,14|2,0:2|0:2,0:0:0:0:
161,291,78435,6,0,P|223:270|254:265,1,75,14|0,3:2|0:0,0:0:0:0:
280,191,78736,2,0,P|342:212|373:217,1,75,8|0,3:2|0:0,0:0:0:0:
441,208,79038,2,0,P|420:270|415:301,1,75,8|0,3:2|0:0,0:0:0:0:
424,369,79340,2,0,P|362:348|331:343,1,75,8|0,3:2|0:0,0:0:0:0:
263,352,79642,5,8,3:2:0:0:
232,268,79793,1,0,3:2:0:0:
152,311,79945,2,0,P|111:321|58:328,1,75,8|0,0:0|0:0,0:0:0:0:
0,280,80248,2,0,P|31:198|19:110,1,150,10|8,3:2|3:2,0:0:0:0:
2,50,80702,1,0,0:0:0:0:
90,71,80854,6,0,P|179:77|238:32,1,150,10|8,3:2|3:2,0:0:0:0:
307,1,81308,2,0,P|329:86|390:128,1,150,2|0,0:2|0:0,0:0:0:0:
440,183,81763,2,0,P|427:219|414:254,1,75,10|0,3:2|0:0,0:0:0:0:
335,298,82066,6,0,P|322:262|309:227,1,75,8|0,3:2|0:0,0:0:0:0:
233,178,82369,2,0,P|161:194|136:199,1,75,10|2,3:2|0:2,0:0:0:0:
117,275,82672,1,10,3:2:0:0:
37,233,82823,1,2,0:2:0:0:
79,152,82975,2,0,P|66:87|56:57,1,75,10|2,3:2|3:2,0:0:0:0:
126,14,83278,6,0,P|162:23|199:29,1,75,14|0,3:2|0:0,0:0:0:0:
280,68,83581,2,0,P|316:58|353:52,1,75,8|0,3:2|0:0,0:0:0:0:
432,10,83884,1,8,3:2:0:0:
502,65,84034,1,0,3:2:0:0:
501,155,84184,2,0,P|491:191|485:228,1,75,8|0,3:2|0:0,0:0:0:0:
419,290,84484,6,0,P|425:325|429:353,2,50,8|8|8,3:2|0:2|0:2,0:0:0:0:
381,243,84772,2,0,P|387:208|391:180,2,50,0|8|4,3:2|0:3|0:3,0:0:0:0:
325,265,85096,2,0,B|150:220|242:397|53:338,1,300,6|6,3:2|3:2,0:0:0:0:
256,192,85773,12,10,87968,0:2:0:0:
