osu file format v14

[General]
AudioFilename: audio.mp3
AudioLeadIn: 0
PreviewTime: 51239
Countdown: 0
SampleSet: Soft
StackLeniency: 0.4
Mode: 0
LetterboxInBreaks: 0
WidescreenStoryboard: 0

[Editor]
Bookmarks: 860,10556,20253,29950,39647,51769,61312,71174,78435,85694,87817,87968
DistanceSpacing: 1.7
BeatDivisor: 4
GridSize: 4
TimelineZoom: 3.799999

[Metadata]
Title:OveR (TV Size)
TitleUnicode:OveR (TV Size)
Artist:Tomita Miyu
ArtistUnicode:富田美憂
Creator:lit120
Version:Fate
Source:デート・ア・ライブⅣ
Tags:Date A Live DAL 4 IV DAL4 DALIV opening japanese poop jpop j-pop rock jrock j-rock anime kadokawa -Hakurei- Lasse Yogurtt
BeatmapID:3551179
BeatmapSetID:1737435

[Difficulty]
HPDrainRate:6
CircleSize:4.5
OverallDifficulty:9
ApproachRate:9.6
SliderMultiplier:1.89999990463257
SliderTickRate:1

[Events]
//Background and Video events
0,0,"kotori.jpg",0,0
Video,196,"dals4op.mp4"
//Break Periods
//Storyboard Layer 0 (Background)
//Storyboard Layer 1 (Fail)
//Storyboard Layer 2 (Pass)
//Storyboard Layer 3 (Foreground)
//Storyboard Layer 4 (Overlay)
//Storyboard Sound Samples

[TimingPoints]
860,303.030303030303,4,2,1,50,1,0
860,-166.666666666667,4,2,1,50,0,0
2602,-133.333333333333,4,2,1,5,0,0
2678,-133.333333333333,4,2,1,50,0,0
3208,-133.333333333333,4,2,1,5,0,0
3284,-111.111111111111,4,2,1,50,0,0
3738,-133.333333333333,4,2,1,50,0,0
4193,-166.666666666667,4,2,1,50,0,0
7450,-166.666666666667,4,2,1,5,0,0
7526,-133.333333333333,4,2,1,50,0,0
8056,-133.333333333333,4,2,1,5,0,0
8132,-111.111111111111,4,2,1,50,0,0
9875,-133.333333333333,4,2,1,5,0,0
9950,-200,4,2,1,35,0,0
10026,-200,4,2,1,5,0,0
10102,-200,4,2,1,35,0,0
10329,-200,4,2,1,5,0,0
10405,-200,4,2,1,35,0,0
10556,-55.5555555555556,4,2,1,80,0,0
10784,-83.3333333333333,4,2,1,5,0,0
10860,-83.3333333333333,4,2,1,80,0,0
12450,-83.3333333333333,4,2,1,5,0,0
12526,-83.3333333333333,4,2,1,80,0,0
12602,-83.3333333333333,4,2,1,5,0,0
12678,-83.3333333333333,4,2,1,80,0,0
12905,-83.3333333333333,4,2,1,5,0,0
12981,-83.3333333333333,4,2,1,80,0,0
15405,-55.5555555555556,4,2,1,80,0,0
15632,-83.3333333333333,4,2,1,5,0,0
15708,-83.3333333333333,4,2,1,80,0,0
17450,-83.3333333333333,4,2,1,5,0,0
17526,-55.5555555555556,4,2,1,80,0,0
18056,-55.5555555555556,4,2,1,5,0,0
18132,-83.3333333333333,4,2,1,80,0,0
18208,-55.5555555555556,4,2,1,5,0,0
18284,-55.5555555555556,4,2,1,80,0,0
18511,-55.5555555555556,4,2,1,5,0,0
18587,-83.3333333333333,4,2,1,80,0,0
18663,-55.5555555555556,4,2,1,5,0,0
18738,-55.5555555555556,4,2,1,80,0,0
18966,-55.5555555555556,4,2,1,5,0,0
19041,-83.3333333333333,4,2,1,80,0,0
19117,-55.5555555555556,4,2,1,5,0,0
19193,-55.5555555555556,4,2,1,80,0,0
19420,-55.5555555555556,4,2,1,5,0,0
19496,-62.5,4,2,1,80,0,0
19723,-62.5,4,2,1,5,0,0
19799,-62.5,4,2,1,80,0,0
19875,-62.5,4,2,1,5,0,0
19950,-62.5,4,2,1,80,0,0
20026,-62.5,4,2,1,5,0,0
20102,-62.5,4,2,1,80,0,0
20178,-62.5,4,2,1,5,0,0
20253,-166.666666666667,4,2,1,50,0,0
29950,-133.333333333333,4,2,1,50,0,0
39647,306.122448979592,4,2,1,60,1,0
39647,-100,4,2,1,60,0,0
40259,298.507462686567,4,2,1,60,1,0
40856,298.507462686567,4,2,1,60,1,0
41453,309.278350515464,4,2,1,60,1,0
41916,272.727272727273,4,2,1,60,1,0
42052,309.278350515464,4,2,1,60,1,0
43134,303.030303030303,4,2,1,50,1,0
43285,303.030303030303,4,2,1,60,1,0
46391,-100,4,2,1,5,0,0
46466,-100,4,2,1,60,0,0
46542,-100,4,2,1,5,0,0
46618,-100,4,2,1,60,0,0
46694,-100,4,2,1,5,0,0
46769,-100,4,2,1,60,0,0
46921,-62.5,4,2,1,70,0,0
47148,-100,4,2,1,5,0,0
47224,-100,4,2,1,70,0,0
47300,-100,4,2,1,5,0,0
47375,-62.5,4,2,1,70,0,0
47603,-100,4,2,1,5,0,0
47678,-100,4,2,1,70,0,0
47754,-100,4,2,1,5,0,0
47830,-62.5,4,2,1,70,0,0
48057,-100,4,2,1,5,0,0
48133,-62.5,4,2,1,70,0,0
48360,-62.5,4,2,1,5,0,0
48436,-100,4,2,1,70,0,0
48512,-100,4,2,1,5,0,0
48588,-62.5,4,2,1,70,0,0
48815,-100,4,2,1,5,0,0
48891,-100,4,2,1,70,0,0
48966,-100,4,2,1,5,0,0
49042,-62.5,4,2,1,70,0,0
49269,-100,4,2,1,5,0,0
49345,-55.5555555555556,4,2,1,70,0,0
49572,-55.5555555555556,4,2,1,5,0,0
49648,-83.3333333333333,4,2,1,70,0,0
49724,-100,4,2,1,5,0,0
49800,-55.5555555555556,4,2,1,70,0,0
50027,-100,4,2,1,5,0,0
50103,-83.3333333333333,4,2,1,70,0,0
50178,-100,4,2,1,5,0,0
50254,-55.5555555555556,4,2,1,70,0,0
50481,-100,4,2,1,5,0,0
50557,-62.5,4,2,1,70,0,0
50633,-100,4,2,1,5,0,0
50709,-62.5,4,2,1,70,0,0
50785,-100,4,2,1,5,0,0
50860,-50,4,2,1,70,0,0
50936,-100,4,2,1,5,0,0
51012,-50,4,2,1,70,0,0
51088,-100,4,2,1,5,0,0
51769,-62.5,4,2,1,80,0,1
52072,300,4,2,1,80,1,1
52822,-62.5,4,2,1,80,0,1
52972,300,4,2,1,80,1,1
53047,-55.5555555555556,4,2,1,5,0,1
53122,-55.5555555555556,4,2,1,80,0,1
53347,-55.5555555555556,4,2,1,5,0,1
53422,315.789473684211,4,2,1,80,1,1
53422,-55.5555555555556,4,2,1,80,0,1
53500,-55.5555555555556,4,2,1,5,0,1
53579,307.29833546735,4,2,1,80,1,1
53579,-133.333333333333,4,2,1,80,0,1
54193,299.25187032419,4,2,1,80,1,1
55240,310.880829015544,4,2,1,80,1,1
55240,-62.5,4,2,1,80,0,1
55395,310.880829015544,4,2,1,80,1,1
55472,-133.333333333333,4,2,1,5,0,1
55550,-55.5555555555556,4,2,1,80,0,1
55784,-133.333333333333,4,2,1,5,0,1
55861,302.648171500631,4,2,1,80,1,1
55861,-50,4,2,1,80,0,1
56012,302.648171500631,4,2,1,80,1,1
56087,-133.333333333333,4,2,1,5,0,1
56163,-100,4,2,1,80,0,1
56238,-83.3333333333333,4,2,1,5,0,1
56314,-100,4,2,1,80,0,1
56390,-83.3333333333333,4,2,1,5,0,1
56465,303.030303030303,4,2,1,80,1,1
56465,-55.5555555555556,4,2,1,80,0,1
56616,303.030303030303,4,2,1,80,1,1
56691,-83.3333333333333,4,2,1,5,0,1
56767,-83.3333333333333,4,2,1,80,0,1
59116,-83.3333333333333,4,2,1,5,0,1
59191,-83.3333333333333,4,2,1,80,0,1
59267,-83.3333333333333,4,2,1,5,0,1
59343,-83.3333333333333,4,2,1,80,0,1
59419,-83.3333333333333,4,2,1,5,0,1
59494,-83.3333333333333,4,2,1,80,0,1
60176,-83.3333333333333,4,2,1,5,0,1
60252,-55.5555555555556,4,2,1,80,0,1
60934,-55.5555555555556,4,2,1,5,0,1
61009,-62.5,4,2,1,80,0,1
61237,-55.5555555555556,4,2,1,5,0,1
61312,301.507537688442,4,2,1,80,1,1
61312,-55.5555555555556,4,2,1,80,0,1
61462,301.507537688442,4,2,1,80,1,1
61537,-55.5555555555556,4,2,1,5,0,1
61612,-83.3333333333333,4,2,1,80,0,1
62668,303.030303030303,4,2,1,80,1,1
62819,-83.3333333333333,4,2,1,80,0,1
63728,309.278350515464,4,2,1,80,1,1
63728,-55.5555555555556,4,2,1,80,0,1
63882,309.278350515464,4,2,1,80,1,1
63959,-83.3333333333333,4,2,1,5,0,1
64036,-83.3333333333333,4,2,1,80,0,1
64191,303.030303030303,4,2,1,80,1,1
64191,-83.3333333333333,4,2,1,80,0,1
65100,303.030303030303,4,2,1,80,1,1
65251,-83.3333333333333,4,2,1,80,0,1
65933,-83.3333333333333,4,2,1,5,0,1
66009,-83.3333333333333,4,2,1,80,0,1
66084,-83.3333333333333,4,2,1,5,0,1
66160,-55.5555555555556,4,2,1,80,0,1
66387,-83.3333333333333,4,2,1,5,0,1
66463,-83.3333333333333,4,2,1,80,0,1
68206,-83.3333333333333,4,2,1,5,0,1
68281,-83.3333333333333,4,2,1,80,0,1
68357,-83.3333333333333,4,2,1,5,0,1
68433,-83.3333333333333,4,2,1,80,0,1
68660,-83.3333333333333,4,2,1,5,0,1
68736,-55.5555555555556,4,2,1,80,0,1
68963,-83.3333333333333,4,2,1,5,0,1
69039,-83.3333333333333,4,2,1,80,0,1
69872,-83.3333333333333,4,2,1,5,0,1
69948,-83.3333333333333,4,2,1,80,0,1
70554,310.077519379845,4,2,1,80,1,1
71174,292.682926829268,4,2,1,80,1,0
71174,-55.5555555555556,4,2,1,80,0,0
71466,309.278350515464,4,2,1,50,1,0
71466,-100,4,2,1,50,0,0
71775,299.25187032419,4,2,1,50,1,0
72373,299.25187032419,4,2,1,50,1,0
72672,-100,4,2,1,60,0,0
72747,-100,4,2,1,5,0,0
72821,-100,4,2,1,60,0,0
72896,-100,4,2,1,5,0,0
72971,301.507537688442,4,2,1,60,1,0
72971,-83.3333333333333,4,2,1,60,0,0
73071,-83.3333333333333,4,2,1,5,0,0
73172,-83.3333333333333,4,2,1,60,0,0
73272,-83.3333333333333,4,2,1,5,0,0
73373,-83.3333333333333,4,2,1,60,0,0
73473,-100,4,2,1,5,0,0
73574,285.714285714286,4,2,1,80,1,0
73574,-55.5555555555556,4,2,1,80,0,0
73859,324.324324324324,4,2,1,50,1,0
74183,307.692307692308,4,2,1,50,1,0
74798,307.692307692308,4,2,1,50,1,0
75105,303.030303030303,4,2,1,60,1,0
75105,-100,4,2,1,60,0,0
75180,-100,4,2,1,5,0,0
75256,-100,4,2,1,60,0,0
75332,-100,4,2,1,5,0,0
75408,-83.3333333333333,4,2,1,60,0,0
75509,-83.3333333333333,4,2,1,5,0,0
75610,-83.3333333333333,4,2,1,60,0,0
75711,-83.3333333333333,4,2,1,5,0,0
75812,-83.3333333333333,4,2,1,60,0,0
75913,-100,4,2,1,5,0,0
76014,306.122448979592,4,2,1,80,1,1
76014,-100,4,2,1,80,0,1
76549,-100,4,2,1,5,0,1
76626,298.507462686567,4,2,1,80,1,1
76626,-71.4285714285714,4,2,1,80,0,1
77147,-100,4,2,1,5,0,1
77223,303.030303030303,4,2,1,80,1,1
77223,-83.3333333333333,4,2,1,80,0,1
77753,-100,4,2,1,5,0,1
77829,-62.5,4,2,1,80,0,1
78359,-100,4,2,1,5,0,1
78435,301.88679245283,4,2,1,80,1,0
78435,-83.3333333333333,4,2,1,80,0,0
79642,303.030303030303,4,2,1,80,1,0
79642,-83.3333333333333,4,2,1,80,0,0
83884,300,4,2,1,80,1,0
83884,-83.3333333333333,4,2,1,80,0,0
84484,288.461538461538,4,2,1,80,1,0
84772,324.324324324324,4,2,1,80,1,0
85096,299.25187032419,4,2,1,80,1,0
85096,-83.3333333333333,4,2,1,80,0,0
85619,-83.3333333333333,4,2,1,5,0,0
85694,319.148936170213,4,2,1,80,1,0
86013,303.030303030303,4,2,1,80,1,0
86922,303.030303030303,4,2,1,80,1,0
87376,-62.5,4,2,1,80,0,0
87452,-62.5,4,2,1,5,0,0
87528,289.855072463768,4,2,1,80,1,0
87528,-62.5,4,2,1,80,0,0
87600,-83.3333333333333,4,2,1,5,0,0
87672,-62.5,4,2,1,80,0,0
87745,-83.3333333333333,4,2,1,5,0,0
87817,303.030303030303,4,2,1,80,1,0
87817,-50,4,2,1,80,0,0
87892,-83.3333333333333,4,2,1,5,0,0
87968,-50,4,2,1,80,0,0
88044,-83.3333333333333,4,2,1,5,0,0
88120,303.030303030303,4,2,1,80,1,0

[Colours]
Combo1 : 223,179,117
Combo2 : 238,108,121
Combo3 : 219,163,121
Combo4 : 196,91,99

[HitObjects]
510,110,860,6,0,B|457:112|422:82|422:82|380:45|415:1|415:1|457:38|422:82|422:82|353:147|323:238|379:296|450:304|503:288|515:224|456:178|436:242,1,655.499947093966,2|0,3:2|0:0,0:0:0:0:
394,337,2678,6,0,B|253:358|332:216|191:238,1,249.374996995926,2|0,3:2|0:0,0:0:0:0:
77,352,3284,6,0,P|154:376|210:317,1,170.999986198426,2|0,3:2|3:2,0:0:0:0:
142,103,3738,6,0,P|92:149|112:214,1,142.499998283386,2|0,0:2|0:0,0:0:0:0:
315,247,4193,6,0,P|304:194|252:182,4,113.999990798951,2|0|0|0|0,3:2|3:2|3:2|3:2|3:2,0:0:0:0:
453,33,5708,6,0,B|355:43|355:43|324:84|324:84|227:95|227:95|224:22|122:-39|38:57|71:132|71:132|104:206|68:249,1,655.499947093966,2|0,3:2|0:0,0:0:0:0:
43,364,7526,6,0,B|23:299|68:249|68:249|137:264|156:329,1,249.374996995926,2|0,3:2|0:0,0:0:0:0:
257,368,8132,6,0,B|300:291|300:291|254:256|281:223|239:173|239:173|255:197|283:204|283:204|411:38|411:38|461:13|461:13|465:69|465:69|384:263|384:263|405:283|434:286|434:286|369:274|355:314|300:291,1,983.249920640949,2|0,3:2|0:0,0:0:0:0:
206,298,9950,6,0,P|184:293|164:286,1,23.7499988079071,4|0,0:3|0:0,0:0:0:0:
113,222,10102,1,4,0:3:0:0:
113,222,10178,1,4,0:3:0:0:
113,222,10253,2,0,P|119:243|123:264,1,23.7499988079071,4|0,0:3|0:0,0:0:0:0:
94,341,10405,1,4,0:3:0:0:
94,341,10481,1,4,0:3:0:0:
94,341,10556,6,0,B|114:242|114:242|83:198|83:198|105:98,1,256.499979297639,6|0,3:2|0:0,0:0:0:0:
180,24,10859,6,0,P|243:52|291:64,1,113.999990798951,8|0,0:2|0:0,0:0:0:0:
460,191,11163,1,0,3:2:0:0:
370,29,11314,1,0,3:2:0:0:
291,281,11466,1,8,0:2:0:0:
485,382,11617,6,0,B|397:364|397:364|372:323|372:323|283:307,1,227.999981597901,0|0,3:2|3:2,0:0:0:0:
490,180,12072,2,0,P|475:250|467:303,1,113.999990798951,8|0,0:2|0:0,0:0:0:0:
313,86,12375,2,0,P|353:102|376:108,1,56.9999953994753,2|0,3:2|0:0,0:0:0:0:
194,227,12526,2,0,P|234:211|257:205,1,56.9999953994753,0|0,3:2|0:0,0:0:0:0:
97,51,12678,2,0,P|68:108|115:66,1,170.999986198426,8|0,0:2|0:0,0:0:0:0:
49,22,12981,6,0,P|57:106|62:268,1,227.999981597901,2|8,3:2|0:2,0:0:0:0:
178,382,13435,2,0,P|97:366|22:359,1,113.999990798951,2|0,0:2|3:2,0:0:0:0:
196,238,13738,1,0,3:2:0:0:
14,111,13890,1,10,0:2:0:0:
185,26,14041,6,0,B|319:0|241:129|375:102,1,227.999981597901,0|0,3:2|3:2,0:0:0:0:
336,317,14496,1,8,0:2:0:0:
151,141,14647,1,0,0:0:0:0:
191,356,14799,1,0,3:2:0:0:
288,207,14950,1,0,3:2:0:0:
459,383,15102,2,0,P|453:327|451:228,1,113.999990798951,8|0,0:2|0:0,0:0:0:0:
388,21,15405,6,0,B|236:-8|324:137|173:107,1,256.499979297639,6|0,3:2|0:0,0:0:0:0:
56,23,15708,6,0,P|61:108|63:160,1,113.999990798951,8|0,0:2|0:0,0:0:0:0:
42,308,16011,1,0,3:2:0:0:
151,141,16163,1,0,3:2:0:0:
255,365,16314,1,8,0:2:0:0:
391,190,16466,6,0,B|302:204|302:204|276:245|276:245|186:257,1,227.999981597901,0|0,3:2|3:2,0:0:0:0:
344,384,16920,2,0,P|355:297|364:254,1,113.999990798951,8|0,0:2|0:0,0:0:0:0:
206,26,17223,2,0,P|194:94|275:96,1,170.999986198426,2|0,3:2|0:0,0:0:0:0:
355,48,17526,5,8,0:2:0:0:
378,52,17602,1,8,0:3:0:0:
401,57,17678,1,4,0:3:0:0:
424,61,17753,1,4,0:3:0:0:
475,118,17829,6,0,B|451:216|451:216|481:261|481:261|455:360,1,256.499979297639,6|0,3:2|0:0,0:0:0:0:
364,383,18132,2,0,B|377:327,1,56.9999953994753,8|0,0:2|0:0,0:0:0:0:
196,145,18284,6,0,B|112:122|46:187|46:187|42:147|85:105,1,256.499979297639,6|0,3:2|0:0,0:0:0:0:
165,2,18587,2,0,P|158:47|156:71,1,56.9999953994753
26,327,18738,6,0,B|99:310|104:238|104:238|139:300|212:283,1,256.499979297639,6|0,3:2|0:0,0:0:0:0:
293,369,19041,2,0,P|286:324|284:300,1,56.9999953994753,8|0,0:2|0:0,0:0:0:0:
355,48,19193,6,0,P|464:45|428:149,1,256.499979297639,6|0,3:2|0:0,0:0:0:0:
324,209,19496,5,8,0:3:0:0:
324,209,19572,1,8,0:3:0:0:
324,209,19647,2,0,P|333:172|340:134,1,75.9999961853028,8|0,0:3|0:0,0:0:0:0:
226,52,19799,2,0,P|235:88|242:126,1,75.9999961853028,8|0,0:3|0:0,0:0:0:0:
141,253,19950,2,0,P|150:216|157:178,1,75.9999961853028,4|0,0:3|0:0,0:0:0:0:
43,7,20102,2,0,P|52:43|59:81,1,75.9999961853028,8|0,0:2|0:0,0:0:0:0:
157,178,20253,6,0,P|109:166|93:163,1,56.9999953994753,2|0,0:2|0:0,0:0:0:0:
3,255,20556,2,0,P|30:248|58:240,1,56.9999953994753,2|0,0:2|0:0,0:0:0:0:
137,341,20859,2,0,P|88:328|72:325,2,56.9999953994753,2|2|2,0:2|0:2|0:2,0:0:0:0:
229,247,21314,6,0,P|201:254|173:261,1,56.9999953994753,2|0,0:2|0:0,0:0:0:0:
265,375,21617,2,0,P|314:345|388:358,1,113.999990798951,2|0,0:2|0:0,0:0:0:0:
452,263,22072,2,0,P|439:311|436:335,2,56.9999953994753,2|2|2,0:2|0:2|0:2,0:0:0:0:
336,196,22526,6,0,P|357:215|377:236,1,56.9999953994753,2|0,0:2|0:0,0:0:0:0:
492,168,22829,2,0,P|465:177|438:183,1,56.9999953994753,2|0,0:2|0:0,0:0:0:0:
320,98,23132,2,0,B|275:103|275:103|261:123|261:123|216:127,1,113.999990798951,2|0,0:2|0:0,0:0:0:0:
157,74,23587,1,2,0:2:0:0:
35,164,23738,6,0,P|89:177|139:152,1,113.999990798951,2|2,0:2|0:2,0:0:0:0:
71,42,24193,2,0,P|76:70|80:98,1,56.9999953994753,2|0,0:2|0:0,0:0:0:0:
239,24,24496,1,2,0:2:0:0:
320,98,24647,1,2,0:0:0:0:
320,98,24723,1,2,0:0:0:0:
320,98,24799,2,0,P|312:146|311:156,1,56.9999953994753,2|2,0:2|0:0,0:0:0:0:
229,261,25102,6,0,P|237:213|238:203,1,56.9999953994753,2|0,0:2|0:0,0:0:0:0:
383,206,25405,2,0,P|375:254|374:264,1,56.9999953994753,2|0,0:2|0:0,0:0:0:0:
292,369,25708,2,0,P|300:321|301:311,2,56.9999953994753,2|2|2,0:2|0:2|0:2,0:0:0:0:
172,252,26163,6,0,P|201:255|229:261,1,56.9999953994753,2|0,0:2|0:0,0:0:0:0:
111,379,26466,2,0,P|54:356|58:274,1,113.999990798951,2|0,0:2|0:0,0:0:0:0:
97,185,26920,2,0,P|93:213|88:241,2,56.9999953994753,2|2|2,0:2|0:2|0:2,0:0:0:0:
12,76,27375,6,0,P|15:104|20:132,1,56.9999953994753,2|0,0:2|0:0,0:0:0:0:
145,60,27678,2,0,P|150:32|153:3,1,56.9999953994753,2|0,0:2|0:0,0:0:0:0:
242,160,27981,2,0,P|187:151|147:147,1,56.9999953994753,2|0,0:2|0:0,0:0:0:0:
333,47,28284,2,0,P|278:56|238:60,1,56.9999953994753,2|0,0:2|0:0,0:0:0:0:
386,161,28587,6,0,P|374:239|369:293,1,113.999990798951,2|2,0:2|0:2,0:0:0:0:
324,345,29041,1,2,0:2:0:0:
229,265,29193,2,0,P|257:268|285:269,1,56.9999953994753,2|2,0:2|0:2,0:0:0:0:
409,349,29496,1,2,0:0:0:0:
409,349,29572,1,2,0:0:0:0:
409,349,29647,2,0,P|437:345|465:344,1,56.9999953994753,2|2,0:2|0:0,0:0:0:0:
254,376,29950,6,0,P|192:357|156:357,1,71.2499991416931,2|0,3:2|0:0,0:0:0:0:
211,196,30253,2,0,P|216:231|229:265,1,71.2499991416931,2|0,3:2|0:0,0:0:0:0:
78,323,30556,2,0,P|125:278|143:247,2,71.2499991416931,2|2|2,3:2|0:2|3:2,0:0:0:0:
229,265,31011,6,0,P|216:231|211:196,1,71.2499991416931,2|0,0:2|3:2,0:0:0:0:
119,76,31314,2,0,B|173:84|173:84|190:109|190:109|245:117,1,142.499998283386,2|0,0:2|0:0,0:0:0:0:
318,24,31769,2,0,P|269:32|227:37,2,71.2499991416931,2|2|2,3:2|0:2|3:2,0:0:0:0:
426,151,32223,6,0,P|377:143|335:138,1,71.2499991416931,2|0,0:2|3:2,0:0:0:0:
462,9,32526,2,0,P|473:68|480:99,1,71.2499991416931,2|0,0:2|3:2,0:0:0:0:
503,225,32829,2,0,P|494:301|489:383,1,142.499998283386,2|0,0:2|0:0,0:0:0:0:
405,311,33284,1,2,3:2:0:0:
320,366,33435,6,0,P|315:295|307:225,1,142.499998283386,2|2,0:2|0:2,0:0:0:0:
371,70,33890,2,0,P|361:105|355:140,1,71.2499991416931,2|0,3:2|0:0,0:0:0:0:
232,26,34193,1,2,3:2:0:0:
156,81,34344,1,2,0:2:0:0:
156,81,34420,1,2,0:0:0:0:
156,81,34496,2,0,P|112:73|78:70,1,71.2499991416931,2|2,3:2|0:2,0:0:0:0:
184,220,34799,6,0,P|192:176|195:142,1,71.2499991416931,2|0,3:2|0:0,0:0:0:0:
45,249,35102,2,0,P|80:255|115:258,1,71.2499991416931,2|0,3:2|0:0,0:0:0:0:
16,109,35405,2,0,P|10:144|6:180,2,71.2499991416931,2|2|2,3:2|0:2|3:2,0:0:0:0:
116,259,35859,6,0,P|112:294|105:329,1,71.2499991416931,2|0,0:2|3:2,0:0:0:0:
222,216,36163,2,0,B|276:224|276:224|293:249|293:249|348:257,1,142.499998283386,2|0,0:2|0:0,0:0:0:0:
240,367,36617,2,0,P|236:331|229:296,2,71.2499991416931,2|2|2,3:2|0:2|3:2,0:0:0:0:
343,177,37072,6,0,P|336:142|332:106,1,71.2499991416931,2|0,0:2|3:2,0:0:0:0:
210,6,37375,2,0,P|216:40|220:76,1,71.2499991416931,2|0,0:2|3:2,0:0:0:0:
362,25,37678,2,0,P|327:31|291:35,1,71.2499991416931,2|0,0:2|3:2,0:0:0:0:
191,158,37981,2,0,P|225:151|261:147,1,71.2499991416931,2|0,0:2|3:2,0:0:0:0:
362,25,38284,6,0,P|426:77|503:63,1,142.499998283386,2|2,0:2|0:2,0:0:0:0:
427,223,38738,2,0,P|419:180|408:141,1,71.2499991416931,2|0,3:2|0:0,0:0:0:0:
494,329,39041,2,0,P|502:286|513:247,1,71.2499991416931,2|0,3:2|0:0,0:0:0:0:
330,313,39344,5,2,3:2:0:0:
330,321,39420,1,2,0:0:0:0:
331,330,39496,1,2,0:0:0:0:
332,339,39572,1,2,0:0:0:0:
389,380,39647,6,0,B|314:369|314:369|292:335|292:335|219:324,1,189.999990463257,4|0,3:2|0:0,0:0:0:0:
134,369,40106,1,2,3:2:0:0:
2,202,40259,2,0,P|48:280|138:272,1,189.999990463257,8|2,0:2|0:2,0:0:0:0:
114,17,40706,6,0,P|99:111|87:206,2,189.999990463257,0|0|0,3:2|3:2|3:2,0:0:0:0:
284,168,41453,2,0,P|215:155|180:151,1,94.9999952316285,10|2,0:2|0:2,0:0:0:0:
386,25,41762,2,0,P|317:38|282:42,1,94.9999952316285,2|2,0:2|0:2,0:0:0:0:
390,296,42052,6,0,P|469:251|478:160,1,189.999990463257,2|0,3:2|0:0,0:0:0:0:
401,102,42515,1,2,3:2:0:0:
255,299,42670,1,8,0:2:0:0:
389,199,42825,1,2,0:2:0:0:
408,364,42979,1,2,0:2:0:0:
235,289,43134,6,0,B|160:299|160:299|138:333|138:333|65:344,2,189.999990463257,2|2|2,3:2|3:2|3:2,0:0:0:0:
68,163,43891,2,0,P|81:235|86:272,1,94.9999952316285,10|0,0:2|3:2,0:0:0:0:
196,102,44194,2,0,P|187:55|179:8,1,94.9999952316285,2|0,0:2|0:0,0:0:0:0:
339,178,44497,6,0,P|281:108|191:122,1,189.999990463257,2|0,3:2|0:0,0:0:0:0:
249,196,44951,1,2,3:2:0:0:
249,196,45027,1,0,3:2:0:0:
249,196,45103,2,0,P|340:178|451:168,1,189.999990463257,8|2,0:2|0:2,0:0:0:0:
512,294,45557,6,0,P|417:284|324:266,2,189.999990463257,0|0|0,3:2|3:2|3:2,0:0:0:0:
438,25,46315,2,0,P|398:34|365:38,1,47.4999976158143,10|0,0:2|0:0,0:0:0:0:
317,111,46466,2,0,P|277:102|244:98,1,47.4999976158143,2|0,0:2|0:0,0:0:0:0:
183,1,46618,2,0,P|143:10|110:14,1,47.4999976158143,8|0,0:3|0:0,0:0:0:0:
62,135,46769,1,4,0:3:0:0:
38,129,46845,1,4,0:3:0:0:
0,70,46921,6,0,P|5:150|13:310,1,227.999988555908,6|0,3:2|0:0,0:0:0:0:
93,364,47224,2,0,P|98:325|103:299,1,47.4999976158143,8|0,0:2|0:0,0:0:0:0:
189,112,47375,6,0,B|322:81|248:213|382:181,1,227.999988555908,6|0,3:2|0:0,0:0:0:0:
456,76,47678,2,0,P|451:117|448:151,1,47.4999976158143,8|0,0:2|0:0,0:0:0:0:
503,354,47830,6,0,B|438:338|433:274|433:274|402:329|337:314,1,227.999988555908,6|0,3:2|0:0,0:0:0:0:
170,218,48133,6,0,B|149:159|189:112|189:112|252:123|271:182,1,227.999988555908,6|0,3:2|0:0,0:0:0:0:
250,304,48436,2,0,P|244:281|241:258,1,47.4999976158143,8|0,0:2|0:0,0:0:0:0:
180,40,48588,6,0,B|42:26|42:26|-6:51|6:108,1,227.999988555908,6|0,3:2|0:0,0:0:0:0:
88,176,48891,2,0,P|83:130|80:108,1,47.4999976158143,8|0,0:2|0:0,0:0:0:0:
253,9,49042,6,0,B|340:22|340:22|366:62|366:62|456:76,1,227.999988555908,6|0,3:2|0:0,0:0:0:0:
510,204,49345,6,0,B|475:285|489:369|489:369|473:326|438:297,1,256.499979297639,6|0,3:2|0:0,0:0:0:0:
350,206,49648,2,0,P|403:219|430:223,1,56.9999953994753,8|0,0:2|0:0,0:0:0:0:
264,376,49800,6,0,B|111:406|200:260|49:290,1,256.499979297639,6|0,3:2|0:0,0:0:0:0:
25,382,50103,2,0,P|70:376|94:375,1,56.9999953994753,0|0,3:2|0:0,0:0:0:0:
260,217,50254,6,0,B|275:57|275:57|251:-4|193:29,1,256.499979297639,10|0,0:2|0:0,0:0:0:0:
151,102,50557,6,0,P|157:140|162:178,1,75.9999961853028,10|0,0:2|0:0,0:0:0:0:
360,281,50709,2,0,P|354:243|350:206,1,75.9999961853028,2|0,3:2|0:0,0:0:0:0:
49,290,50860,6,0,B|95:300|95:300|132:269,1,94.9999952316285,10|0,0:2|0:0,0:0:0:0:
463,94,51012,2,0,B|417:84|417:84|379:114,1,94.9999952316285,6|0,3:2|0:0,0:0:0:0:
379,114,51769,5,6,3:2:0:0:
132,269,51921,1,2,0:2:0:0:
178,68,52072,1,2,0:2:0:0:
333,315,52222,1,2,3:2:0:0:
95,155,52372,5,10,0:2:0:0:
292,31,52522,1,0,3:2:0:0:
219,352,52672,1,10,0:2:0:0:
417,228,52822,6,0,B|325:213|325:213|299:173|299:173|212:160,1,227.999988555908,6|0,3:2|0:0,0:0:0:0:
113,292,53122,6,0,B|128:359|198:378|198:378|247:329|229:261,1,256.499979297639,14|0,3:2|0:0,0:0:0:0:
129,67,53422,6,0,P|124:137|122:181,1,85.4999930992129,14|0,3:2|0:0,0:0:0:0:
28,220,53579,6,0,P|22:164|12:87,2,106.87499871254,2|2|2,0:0|0:0|0:0,0:0:0:0:
219,352,54193,5,6,3:2:0:0:
135,80,54342,1,2,0:2:0:0:
413,143,54492,1,10,0:2:0:0:
219,352,54641,1,2,3:2:0:0:
292,31,54791,5,10,0:2:0:0:
98,240,54941,1,2,3:2:0:0:
376,303,55090,1,10,0:2:0:0:
135,80,55240,6,0,B|154:21|217:10|217:10|257:57|236:116,1,227.999988555908,6|0,3:2|0:0,0:0:0:0:
171,289,55550,6,0,B|192:355|263:367|263:367|308:314|284:248,1,256.499979297639,6|0,3:2|0:0,0:0:0:0:
348,88,55861,6,0,B|371:14|450:0|450:0|500:59|474:132,1,284.999985694885,6|0,3:2|0:0,0:0:0:0:
415,276,56163,6,0,P|412:252|409:228,1,47.4999976158143,2|0,0:2|0:0,0:0:0:0:
387,173,56314,2,0,P|389:196|392:220,1,47.4999976158143,2|0,0:2|0:0,0:0:0:0:
220,377,56465,6,0,B|67:407|156:261|5:291,1,256.499979297639,6|0,3:2|0:0,0:0:0:0:
36,375,56767,5,0,3:2:0:0:
189,293,56919,2,0,P|180:210|176:168,1,113.999990798951,2|2,3:2|0:2,0:0:0:0:
32,21,57222,2,0,B|121:35|121:35|147:76|147:76|237:88,1,227.999981597901,8|2,0:2|3:2,0:0:0:0:
76,220,57676,6,0,P|71:163|65:107,1,113.999990798951,2|8,0:2|0:2,0:0:0:0:
202,1,57979,1,0,0:0:0:0:
314,208,58131,1,10,0:2:0:0:
444,94,58282,2,0,P|361:107|319:110,1,113.999990798951,2|8,0:2|0:2,0:0:0:0:
189,293,58585,1,2,0:2:0:0:
189,293,58661,1,2,0:0:0:0:
189,293,58737,2,0,P|245:298|301:308,1,113.999990798951,10|0,0:2|0:0,0:0:0:0:
168,114,59040,6,0,P|131:113|96:114,1,56.9999953994753,10|0,0:2|0:0,0:0:0:0:
3,189,59191,2,0,P|21:157|38:126,1,56.9999953994753,2|0,0:2|0:0,0:0:0:0:
19,10,59343,2,0,P|36:41|55:71,1,56.9999953994753,10|0,0:2|0:0,0:0:0:0:
225,197,59494,2,0,B|359:223|281:94|415:121,1,227.999981597901,2|0,0:2|0:0,0:0:0:0:
510,330,59949,2,0,P|430:344|382:278,1,170.999986198426,8|0,0:2|0:0,0:0:0:0:
459,192,60252,6,0,B|472:232|472:232|459:273,1,85.4999930992129,10|8,0:2|0:2,0:0:0:0:
295,380,60403,1,10,0:2:0:0:
295,380,60479,1,8,0:2:0:0:
295,380,60555,2,0,B|281:339|281:339|294:298,1,85.4999930992129,10|8,0:2|0:2,0:0:0:0:
190,110,60706,6,0,B|33:132|33:132|-18:103|17:42,1,256.499979297639,6|0,3:2|0:0,0:0:0:0:
102,3,61009,6,0,P|88:116|77:229,1,227.999988555908,2|0,3:2|0:0,0:0:0:0:
47,348,61312,6,0,B|28:278|77:229|77:229|147:248|162:315,1,256.499979297639,6|0,3:2|0:0,0:0:0:0:
257,370,61612,5,2,3:2:0:0:
340,150,61763,1,10,0:2:0:0:
489,331,61914,1,2,0:2:0:0:
425,90,62065,1,2,3:2:0:0:
347,254,62215,1,2,3:2:0:0:
243,104,62366,1,10,0:2:0:0:
468,211,62517,6,0,P|457:296|453:351,1,113.999990798951,2|0,0:2|3:2,0:0:0:0:
330,121,62819,2,0,P|341:36|345:-19,1,113.999990798951,2|8,0:2|0:2,0:0:0:0:
161,236,63122,1,2,0:2:0:0:
313,143,63274,1,2,3:2:0:0:
182,54,63425,1,2,3:2:0:0:
292,325,63577,1,10,0:2:0:0:
36,165,63728,6,0,B|187:135|98:281|251:251,1,256.499979297639,6|0,3:2|0:0,0:0:0:0:
220,167,64036,5,2,3:2:0:0:
78,362,64191,2,0,P|74:305|66:248,1,113.999990798951,10|0,0:2|0:0,0:0:0:0:
208,53,64494,1,2,3:2:0:0:
143,208,64645,1,2,3:2:0:0:
45,11,64797,1,10,0:2:0:0:
289,112,64948,6,0,P|354:102|409:97,1,113.999990798951,2|0,0:2|3:2,0:0:0:0:
268,339,65251,2,0,P|211:333|154:324,1,113.999990798951,2|8,3:2|0:2,0:0:0:0:
342,225,65554,2,0,P|407:215|462:210,1,113.999990798951,2|0,0:2|3:2,0:0:0:0:
283,34,65857,2,0,P|277:81|272:110,1,56.9999953994753,2|0,3:2|0:0,0:0:0:0:
179,193,66009,2,0,P|182:165|187:137,1,56.9999953994753,10|0,0:2|0:0,0:0:0:0:
11,7,66160,6,0,B|35:105|35:105|5:150|5:150|31:249,1,256.499979297639,4|0,3:2|0:0,0:0:0:0:
74,339,66463,5,0,3:2:0:0:
187,137,66615,1,10,0:2:0:0:
269,264,66766,1,2,0:2:0:0:
269,264,66842,1,2,0:0:0:0:
269,264,66918,1,2,3:2:0:0:
92,174,67069,1,0,3:2:0:0:
239,384,67221,1,10,0:2:0:0:
342,225,67372,6,0,P|329:150|321:88,1,113.999990798951,2|0,0:2|3:2,0:0:0:0:
168,24,67675,1,0,3:2:0:0:
168,24,67751,1,0,3:2:0:0:
168,24,67827,2,0,P|178:80|187:137,1,113.999990798951,10|2,0:2|0:2,0:0:0:0:
87,350,68130,2,0,P|47:341|25:339,1,56.9999953994753,0|0,3:2|0:0,0:0:0:0:
215,208,68281,2,0,P|175:217|153:219,1,56.9999953994753,2|0,3:2|0:0,0:0:0:0:
373,353,68433,2,0,P|453:345|445:270,1,170.999986198426,8|0,0:2|0:0,0:0:0:0:
353,361,68736,6,0,B|251:346|251:346|222:301|222:301|122:284,1,256.499979297639,6|0,3:2|0:0,0:0:0:0:
14,226,69039,6,0,P|23:282|31:339,1,113.999990798951,8|0,0:2|0:0,0:0:0:0:
110,145,69342,1,2,3:2:0:0:
222,301,69493,1,0,3:2:0:0:
319,38,69645,2,0,B|333:104|333:104|313:132|313:132|326:198,1,170.999986198426,8|0,0:2|0:0,0:0:0:0:
343,286,69948,5,2,3:2:0:0:
194,196,70100,1,0,3:2:0:0:
470,171,70251,1,8,0:2:0:0:
402,13,70403,1,0,3:2:0:0:
343,286,70554,1,10,0:2:0:0:
232,28,70709,5,8,0:2:0:0:
183,29,70786,1,8,0:2:0:0:
146,54,70864,1,8,0:3:0:0:
128,98,70941,1,8,0:3:0:0:
91,123,71019,1,4,0:3:0:0:
43,124,71096,1,4,0:3:0:0:
64,46,71174,6,0,B|177:220|-47:183|65:354,1,341.999972396852,14|0,0:2|3:2,0:0:0:0:
76,350,71775,1,0,3:2:0:0:
87,346,72074,1,0,3:2:0:0:
98,342,72373,1,0,3:2:0:0:
209,257,72522,5,8,0:2:0:0:
209,257,72597,1,8,0:2:0:0:
209,257,72672,2,0,L|204:305,1,47.4999976158143,10|0,0:2|0:0,0:0:0:0:
194,377,72821,2,0,L|200:330,1,47.4999976158143,10|0,0:2|0:0,0:0:0:0:
71,192,72971,6,0,B|83:227|83:227|118:245,1,75.9999938659671,2|0,3:2|0:0,0:0:0:0:
356,224,73172,2,0,B|336:256|336:256|299:265,1,75.9999938659671,10|0,0:2|0:0,0:0:0:0:
220,148,73373,2,0,L|229:73,1,75.9999938659671,10|0,0:2|0:0,0:0:0:0:
471,12,73574,6,0,B|439:141|439:141|478:201|478:201|444:332,1,341.999972396852,6|0,3:2|3:2,0:0:0:0:
434,338,74183,1,0,3:2:0:0:
424,344,74490,1,0,3:2:0:0:
414,350,74798,1,0,3:2:0:0:
313,383,74951,5,8,0:2:0:0:
299,265,75105,2,0,L|304:311,1,47.4999976158143,10|0,0:2|0:0,0:0:0:0:
313,383,75256,2,0,L|307:336,1,47.4999976158143,10|0,0:2|0:0,0:0:0:0:
210,227,75408,6,0,P|202:265|209:302,1,75.9999938659671,8|0,0:3|0:0,0:0:0:0:
394,277,75610,2,0,P|391:239|374:205,1,75.9999938659671,8|0,0:3|0:0,0:0:0:0:
276,71,75812,2,0,L|285:147,1,75.9999938659671,4|0,0:3|0:0,0:0:0:0:
193,383,76014,6,0,B|78:408|91:334|107:223|-37:261|-46:358|44:422|50:318,1,332.4999833107,6|0,3:2|0:0,0:0:0:0:
108,239,76626,6,0,B|98:135|98:135|54:103|54:103|44:3|44:3|56:57|86:83|150:109|204:53,1,465.499962429048,14|0,0:2|0:0,0:0:0:0:
333,20,77223,6,0,P|444:135|284:146,1,398.999967796327,6|0,3:2|0:0,0:0:0:0:
362,104,77829,6,0,B|404:172|373:244|289:216|255:250|279:386|371:430|477:402|496:318|498:301|488:246|450:225|413:245|398:279,1,531.99997329712,14|0,0:2|0:0,0:0:0:0:
271,379,78435,6,0,P|197:366|151:360,1,113.999990798951,14|0,3:2|0:0,0:0:0:0:
18,112,78736,2,0,P|92:125|138:131,1,113.999990798951,8|0,3:2|0:0,0:0:0:0:
11,372,79038,2,0,P|24:298|30:252,1,113.999990798951,8|0,3:2|0:0,0:0:0:0:
278,119,79340,2,0,P|265:192|259:238,1,113.999990798951,8|0,3:2|0:0,0:0:0:0:
13,95,79642,5,8,3:2:0:0:
159,21,79793,1,0,3:2:0:0:
21,248,79945,1,8,3:2:0:0:
154,341,80096,1,0,3:2:0:0:
278,119,80248,2,0,P|205:135|147:140,1,113.999990798951,10|0,3:2|0:0,0:0:0:0:
323,301,80551,2,0,P|379:307|434:321,1,113.999990798951,8|0,3:2|0:0,0:0:0:0:
509,45,80854,6,0,P|388:39|403:138,1,227.999981597901,10|8,3:2|3:2,0:0:0:0:
291,227,81308,1,2,0:2:0:0:
145,27,81460,2,0,P|159:82|166:139,1,113.999990798951,8|0,3:2|0:0,0:0:0:0:
286,375,81763,2,0,P|293:319|306:264,1,113.999990798951,10|0,3:2|0:0,0:0:0:0:
120,315,82066,5,10,3:2:0:0:
78,220,82217,1,2,0:0:0:0:
214,273,82369,1,10,3:2:0:0:
172,179,82520,1,2,0:2:0:0:
202,375,82672,5,10,3:2:0:0:
90,118,82823,1,2,0:2:0:0:
275,190,82975,1,10,3:2:0:0:
17,303,83126,1,2,3:2:0:0:
234,96,83278,6,0,P|287:115|358:126,1,113.999990798951,14|0,3:2|0:0,0:0:0:0:
499,375,83581,2,0,P|445:355|375:345,1,113.999990798951,8|0,3:2|0:0,0:0:0:0:
506,103,83884,2,0,P|486:156|476:227,1,113.999990798951,8|0,3:2|0:0,0:0:0:0:
226,368,84184,2,0,P|245:314|255:258,1,113.999990798951,8|0,3:2|0:0,0:0:0:0:
96,23,84484,5,8,3:2:0:0:
40,75,84580,1,8,0:0:0:0:
72,143,84676,1,8,0:0:0:0:
138,205,84772,5,0,3:2:0:0:
161,256,84880,1,8,0:3:0:0:
119,295,84988,1,4,0:3:0:0:
47,350,85096,6,0,B|207:329|207:329|255:261|255:261|407:244,1,398.999967796327,6|0,3:2|0:0,0:0:0:0:
480,200,85694,5,6,3:2:0:0:
376,167,85853,1,2,0:2:0:0:
266,364,86013,5,2,0:2:0:0:
185,290,86165,1,2,0:2:0:0:
289,257,86316,1,2,0:2:0:0:
185,76,86467,5,2,0:2:0:0:
104,150,86619,1,2,0:2:0:0:
208,183,86770,1,2,0:2:0:0:
312,2,86922,5,2,0:2:0:0:
393,76,87074,1,2,0:2:0:0:
289,109,87225,1,2,0:2:0:0:
432,305,87376,6,0,P|492:293|540:285,1,75.9999961853028,2|0,0:0|0:0,0:0:0:0:
295,183,87528,2,0,P|355:195|403:203,1,75.9999961853028,2|0,0:0|0:0,0:0:0:0:
167,371,87672,2,0,P|227:359|275:351,1,75.9999961853028,2|0,0:0|0:0,0:0:0:0:
30,116,87817,6,0,B|15:161|15:161|50:223,1,94.9999952316285,10|0,0:0|0:0,0:0:0:0:
326,355,87968,2,0,B|340:310|340:310|316:268,1,94.9999952316285,10|0,0:0|0:0,0:0:0:0:
