osu file format v14

[General]
AudioFilename: audio.mp3
AudioLeadIn: 0
PreviewTime: 50961
Countdown: 0
SampleSet: Soft
StackLeniency: 0.7
Mode: 0
LetterboxInBreaks: 0
WidescreenStoryboard: 1

[Editor]
DistanceSpacing: 0.5
BeatDivisor: 4
GridSize: 32
TimelineZoom: 1.4

[Metadata]
Title:OveR (TV Size)
TitleUnicode:OveR (TV Size)
Artist:Tomita Miyu
ArtistUnicode:富田美憂
Creator:Sotarks
Version:KoldNoodl's Insane
Source:デート・ア・ライブⅣ
Tags:date a live iv dal season 4 pop jpop j-pop op opening anime japanese j-rock rock jrock female vocals -_ex_- kirishima- koldnoodl
BeatmapID:3623640
BeatmapSetID:1770116

[Difficulty]
HPDrainRate:5
CircleSize:4
OverallDifficulty:7.5
ApproachRate:9
SliderMultiplier:1.65
SliderTickRate:1

[Events]
//Background and Video events
0,0,"bg.jpg",0,0
//Break Periods
2,20176,29224
//Storyboard Layer 0 (Background)
//Storyboard Layer 1 (Fail)
//Storyboard Layer 2 (Pass)
//Storyboard Layer 3 (Foreground)
//Storyboard Layer 4 (Overlay)
//Storyboard Sound Samples

[TimingPoints]
734,303.030303030303,4,2,1,40,1,0
9824,-125,4,2,1,40,0,0
10430,-100,4,2,1,60,0,0
20734,-142.857142857143,4,2,1,40,0,0
29824,-142.857142857143,4,2,1,50,0,0
39521,-125,4,2,1,55,0,0
46794,-100,4,2,1,65,0,0
51188,-100,4,2,1,40,0,0
51643,-100,4,2,1,70,0,0
71037,-100,4,2,1,60,0,0
78309,-100,4,2,1,65,0,0
85582,-125,4,2,1,50,0,0
86794,-111.111111111111,4,2,1,50,0,0
87703,-111.111111111111,4,2,1,60,0,0

[Colours]
Combo1 : 219,111,79
Combo2 : 121,0,0
Combo3 : 237,146,148
Combo4 : 228,210,82

[HitObjects]
256,192,8006,12,0,9521,1:0:0:0:
382,89,9824,5,0,3:0:0:0:
335,173,9976,1,0,3:0:0:0:
335,173,10052,1,0,3:0:0:0:
335,173,10127,1,0,3:0:0:0:
259,85,10279,2,0,P|294:92|321:98,1,33,0|0,3:0|3:0,0:0:0:0:
460,212,10430,6,0,P|467:170|486:109,1,82.5,6|0,1:2|0:0,0:0:0:0:
297,285,10734,2,0,P|348:295|479:348,1,165,8|0,0:0|1:2,0:0:0:0:
356,196,11188,1,0,1:2:0:0:
356,196,11340,1,8,0:0:0:0:
217,349,11491,6,0,P|156:366|77:294,1,165,0|0,1:2|1:2,0:0:0:0:
191,179,11946,2,0,P|242:168|275:156,1,82.5,8|0,0:0|0:0,0:0:0:0:
264,266,12249,1,2,1:2:0:0:
264,266,12400,1,0,1:2:0:0:
102,207,12552,2,0,P|85:141|71:85,1,123.75,8|0,0:0|3:0,0:0:0:0:
78,68,12855,6,0,P|154:45|215:110,1,165,2|8,1:2|0:0,0:0:0:0:
361,185,13309,2,0,P|436:208|495:155,1,165,2|0,0:0|1:2,0:0:0:0:
407,68,13764,1,10,0:0:0:0:
270,170,13915,6,0,P|285:240|301:361,1,165,0|0,1:2|1:2,0:0:0:0:
91,258,14370,1,8,0:0:0:0:
173,203,14521,1,0,3:0:0:0:
203,302,14673,2,0,P|192:348|184:399,1,82.5,0|0,1:2|1:2,0:0:0:0:
90,161,14976,2,0,P|81:114|63:27,1,123.75,8|0,0:0|0:0,0:0:0:0:
75,30,15279,6,0,P|123:39|169:44,1,82.5,6|0,1:2|0:0,0:0:0:0:
336,1,15582,2,0,P|271:48|287:139,1,165,8|0,0:0|1:2,0:0:0:0:
400,100,16037,1,0,1:2:0:0:
400,100,16188,1,8,0:0:0:0:
337,236,16340,6,0,P|264:219|150:199,1,165,0|0,1:2|1:2,0:0:0:0:
318,362,16794,2,0,P|371:352|408:343,1,82.5,8|0,0:0|3:0,0:0:0:0:
447,138,17097,2,0,P|430:192|423:233,1,82.5,2|0,1:2|1:2,0:0:0:0:
510,303,17400,1,8,0:0:0:0:
510,303,17476,1,8,3:0:0:0:
510,303,17552,1,8,3:0:0:0:
360,149,17703,6,0,P|381:85|481:62,1,165,6|8,1:2|0:2,0:0:0:0:
417,247,18158,2,0,P|356:231|235:208,1,165,4|0,1:2|0:0,0:0:0:0:
127,114,18612,6,0,P|206:109|249:42,1,165,4|8,1:2|0:2,0:0:0:0:
63,179,19067,2,0,P|79:247|96:367,1,165,4|0,1:2|1:2,0:0:0:0:
245,245,19521,1,0,1:2:0:0:
151,209,19673,1,0,1:2:0:0:
223,338,19824,1,8,0:0:0:0:
416,230,19976,1,12,0:0:0:0:
486,65,29824,6,0,P|453:96|381:98,1,115.49999647522,0|0,1:2|1:2,0:0:0:0:
322,51,30279,1,0,0:0:0:0:
363,180,30430,2,0,P|374:224|377:261,1,57.7499982376099,2|0,1:2|0:0,0:0:0:0:
289,132,30733,1,2,1:2:0:0:
289,132,30885,2,0,P|235:113|177:120,1,115.49999647522,2|2,0:0|0:0,0:0:0:0:
106,76,31340,1,0,0:0:0:0:
106,76,31643,6,0,P|99:119|94:149,1,57.7499982376099,2|0,1:2|0:0,0:0:0:0:
28,200,31946,1,2,1:2:0:0:
28,200,32097,2,0,P|37:243|50:317,1,115.49999647522,2|2,0:0|0:0,0:0:0:0:
131,231,32552,1,0,1:0:0:0:
242,349,32703,6,0,P|187:354|129:307,1,115.49999647522,2|0,0:0|0:0,0:0:0:0:
206,265,33158,1,2,1:2:0:0:
322,384,33309,2,0,P|363:369|440:349,1,115.49999647522,2|2,0:0|0:0,0:0:0:0:
321,232,33764,2,0,P|315:273|309:311,1,57.7499982376099,2|0,1:2|0:0,0:0:0:0:
426,247,34067,5,2,1:2:0:0:
479,184,34218,1,0,0:0:0:0:
463,107,34370,1,2,1:2:0:0:
389,81,34521,1,2,0:2:0:0:
328,131,34673,6,0,P|280:142|212:101,1,115.49999647522,0|0,1:2|1:0,0:0:0:0:
230,30,35127,1,0,0:0:0:0:
75,92,35279,2,0,P|114:82|148:71,1,57.7499982376099,2|0,1:2|0:0,0:0:0:0:
160,186,35582,1,2,1:2:0:0:
160,186,35733,2,0,P|153:230|141:311,1,115.49999647522,2|2,0:0|0:0,0:0:0:0:
191,362,36188,1,0,0:0:0:0:
191,362,36491,6,0,P|234:348|257:341,1,57.7499982376099,2|0,1:2|0:0,0:0:0:0:
333,247,36794,1,2,1:2:0:0:
342,373,36946,2,0,P|342:309|295:258,1,115.49999647522,2|2,0:0|0:0,0:0:0:0:
245,223,37400,1,0,1:0:0:0:
416,279,37552,2,0,P|456:268|498:261,1,57.7499982376099,2|0,0:0|1:0,0:0:0:0:
358,145,37855,2,0,P|352:180|346:221,1,57.7499982376099,2|0,0:0|1:0,0:0:0:0:
463,140,38158,6,0,P|484:95|454:21,1,115.49999647522,2|2,0:0|0:0,0:0:0:0:
289,108,38612,2,0,P|346:101|412:84,1,115.49999647522,2|0,1:2|1:2,0:0:0:0:
365,178,39067,1,0,0:0:0:0:
210,51,39218,2,0,P|201:102|191:161,1,86.6249973564149,2|0,1:2|0:0,0:0:0:0:
185,152,39521,6,0,P|145:118|55:129,1,132,6|0,1:2|0:0,0:0:0:0:
152,255,39976,1,2,1:2:0:0:
61,298,40127,2,0,P|72:253|78:214,1,66,8|0,0:0|0:0,0:0:0:0:
195,357,40430,5,2,0:0:0:0:
255,303,40582,2,0,P|305:302|350:351,1,99,0|0,1:2|0:0,0:0:0:0:
351,350,40885,2,0,P|402:339|433:334,1,66,0|0,1:2|0:0,0:0:0:0:
491,222,41188,1,0,1:2:0:0:
491,222,41340,2,0,P|458:229|426:235,1,66,10|0,0:0|0:0,0:0:0:0:
337,160,41643,1,2,0:0:0:0:
434,109,41794,1,0,0:0:0:0:
293,63,41946,6,0,P|302:106|319:199,1,132,2|0,1:2|0:0,0:0:0:0:
159,166,42400,1,2,1:2:0:0:
121,251,42552,2,0,P|178:258|241:199,1,132,8|2,0:0|0:0,0:0:0:0:
180,72,43006,6,0,P|173:113|166:152,1,66,0|0,1:0|0:0,0:0:0:0:
17,154,43309,2,0,P|56:139|93:126,1,66,0|0,1:0|0:0,0:0:0:0:
126,248,43612,1,0,1:2:0:0:
168,137,43764,1,10,0:0:0:0:
40,239,43915,2,0,P|23:292|51:372,1,132,0|0,1:2|0:0,0:0:0:0:
202,333,44370,6,0,P|254:318|351:306,1,132,6|0,1:2|0:0,0:0:0:0:
432,371,44824,1,2,1:2:0:0:
432,371,44900,1,0,1:0:0:0:
432,371,44976,2,0,P|412:335|460:252,1,132,8|2,0:0|0:0,0:0:0:0:
507,169,45430,2,0,P|473:162|434:151,1,66,0|0,1:2|0:0,0:0:0:0:
297,228,45733,2,0,P|331:221|370:210,1,66,0|0,1:2|0:0,0:0:0:0:
378,104,46037,1,0,1:2:0:0:
207,57,46188,5,10,0:0:0:0:
303,147,46340,1,2,0:0:0:0:
146,229,46491,1,2,1:2:0:0:
208,148,46643,5,0,1:2:0:0:
208,148,46718,1,0,1:2:0:0:
208,148,46794,2,0,P|225:190|232:309,1,165,6|8,1:2|0:0,0:0:0:0:
59,192,47249,2,0,P|57:109|83:31,1,165,4|8,1:2|0:0,0:0:0:0:
122,269,47703,2,0,P|79:278|36:293,1,82.5,4|0,1:2|0:0,0:0:0:0:
301,365,48006,6,0,P|373:373|446:298,1,165,6|8,1:2|0:0,0:0:0:0:
367,117,48461,2,0,P|357:170|335:286,1,165,4|8,1:2|0:0,0:0:0:0:
432,215,48915,2,0,P|480:203|522:191,1,82.5,4|0,1:2|0:0,0:0:0:0:
277,105,49218,5,6,1:2:0:0:
428,27,49370,1,0,0:0:0:0:
372,131,49521,1,8,0:0:0:0:
233,26,49673,2,0,P|179:46|141:54,1,82.5,4|0,1:2|0:0,0:0:0:0:
198,240,49976,1,0,1:2:0:0:
271,195,50127,2,0,P|280:138|292:101,1,82.5,12|0,0:0|0:0,0:0:0:0:
137,163,50430,5,14,0:0:0:0:
294,299,50582,1,2,1:2:0:0:
92,370,50733,1,10,0:0:0:0:
197,258,50885,1,6,1:2:0:0:
197,258,51643,6,0,P|241:272|287:279,1,82.5,14|2,0:2|0:0,0:0:0:0:
462,384,51946,2,0,P|472:336|472:288,1,82.5,10|2,0:0|1:2,0:0:0:0:
412,145,52249,2,0,P|384:184|388:311,1,165,10|10,0:0|0:0,0:0:0:0:
464,218,52703,5,6,1:2:0:0:
282,90,53006,1,6,1:2:0:0:
485,0,53309,1,6,1:2:0:0:
383,161,53461,5,2,0:0:0:0:
379,38,53688,1,2,0:0:0:0:
487,100,53915,1,2,0:0:0:0:
281,202,54067,6,0,P|225:185|184:177,1,82.5,14|2,0:0|1:2,0:0:0:0:
34,134,54370,2,0,P|47:177|57:239,1,82.5,10|2,0:0|1:2,0:0:0:0:
190,87,54673,1,10,0:0:0:0:
48,34,54824,1,0,1:2:0:0:
128,148,54976,1,10,0:0:0:0:
11,302,55127,5,6,1:2:0:0:
189,206,55430,1,6,1:2:0:0:
324,375,55733,1,6,1:2:0:0:
324,375,56037,6,0,P|368:364|406:357,1,82.5,2|2,0:0|0:0,0:0:0:0:
512,227,56340,6,0,P|458:247|362:180,1,165,6|0,1:2|0:0,0:0:0:0:
273,63,56794,1,10,0:0:0:0:
441,84,56946,2,0,P|390:100|345:110,1,82.5,2|8,1:2|0:0,0:0:0:0:
236,192,57249,1,0,0:0:0:0:
309,247,57400,1,10,0:0:0:0:
147,358,57552,6,0,P|102:294|135:196,1,165,2|0,1:2|0:0,0:0:0:0:
46,56,58006,1,10,0:0:0:0:
0,160,58158,2,0,P|57:140|97:134,1,82.5,2|8,1:2|0:0,0:0:0:0:
221,29,58461,2,0,P|266:93|233:191,1,165,2|0,1:2|0:0,0:0:0:0:
169,115,58915,5,10,0:0:0:0:
329,216,59067,2,0,P|372:203|435:188,1,82.5,2|8,1:2|0:0,0:0:0:0:
171,353,59370,2,0,P|108:341|4:327,1,165,2|0,1:2|1:2,0:0:0:0:
226,208,59824,2,0,P|242:266|248:313,1,82.5,8|0,0:0|1:2,0:0:0:0:
321,346,60127,5,10,0:0:0:0:
149,270,60279,1,10,0:0:0:0:
308,136,60430,1,8,0:0:0:0:
235,228,60582,6,0,P|224:186|202:124,1,82.5,6|0,1:2|0:0,0:0:0:0:
424,285,60885,2,0,P|435:243|457:181,1,82.5,6|0,1:2|0:0,0:0:0:0:
374,14,61188,6,0,P|330:66|352:175,1,165,6|0,1:2|1:2,0:0:0:0:
411,105,61643,1,10,0:0:0:0:
264,20,61794,1,2,0:0:0:0:
423,112,61946,2,0,P|468:101|516:93,1,82.5,2|2,1:2|1:2,0:0:0:0:
485,218,62249,1,10,0:0:0:0:
309,164,62400,6,0,P|264:153|216:145,1,82.5,2|0,0:0|1:0,0:0:0:0:
294,350,62703,2,0,P|326:316|356:278,1,82.5,2|8,0:0|0:0,0:0:0:0:
142,222,63006,1,2,0:0:0:0:
176,314,63158,1,0,1:2:0:0:
241,243,63309,1,0,1:2:0:0:
59,174,63461,1,8,0:0:0:0:
167,384,63612,6,0,P|154:328|132:206,1,165,6|0,1:2|1:2,0:0:0:0:
83,43,64067,2,0,P|14:36|-30:22,1,82.5,10|0,0:0|0:0,0:0:0:0:
38,163,64370,1,2,1:2:0:0:
170,89,64521,1,2,1:2:0:0:
140,211,64673,1,10,0:0:0:0:
267,132,64824,6,0,P|279:79|277:21,1,82.5,2|0,0:0|1:0,0:0:0:0:
148,203,65127,2,0,P|150:244|160:283,1,82.5,2|8,0:0|0:0,0:0:0:0:
387,269,65430,2,0,P|345:224|231:240,1,165,2|2,0:0|1:2,0:0:0:0:
301,301,65885,1,10,0:0:0:0:
453,176,66037,6,0,P|473:238|490:362,1,165,6|0,1:2|1:2,0:0:0:0:
387,269,66491,1,10,0:0:0:0:
257,384,66643,2,0,P|266:313|277:282,1,82.5,2|0,0:0|1:2,0:0:0:0:
318,195,66946,1,0,0:0:0:0:
351,339,67097,1,10,0:0:0:0:
178,215,67249,6,0,P|94:208|38:286,1,165,2|0,0:0|1:0,0:0:0:0:
239,154,67703,1,10,0:0:0:0:
126,281,67855,2,0,P|140:341|146:391,1,82.5,2|0,0:0|1:0,0:0:0:0:
243,278,68158,1,2,1:2:0:0:
38,206,68309,2,0,P|9:139|43:70,1,123.75,8|0,0:0|3:0,0:0:0:0:
32,81,68612,6,0,P|80:90|136:100,1,82.5,6|0,1:2|0:0,0:0:0:0:
278,173,68915,2,0,P|268:130|260:81,1,82.5,8|0,0:0|0:0,0:0:0:0:
171,191,69218,1,2,1:2:0:0:
171,191,69370,1,0,1:2:0:0:
347,103,69521,2,0,P|397:90|444:78,1,82.5,8|0,0:0|0:0,0:0:0:0:
348,265,69824,6,0,P|338:308|330:357,1,82.5,10|0,0:2|1:2,0:0:0:0:
158,180,70127,2,0,P|168:223|176:272,1,82.5,8|0,0:0|1:2,0:0:0:0:
278,173,70430,1,10,0:0:0:0:
243,363,70582,1,0,1:2:0:0:
243,363,70658,1,0,1:2:0:0:
243,363,70733,2,0,P|207:356|178:348,1,41.25,8|8,3:0|3:0,0:0:0:0:
59,295,70885,2,0,P|95:288|124:280,1,41.25,8|8,3:0|3:0,0:0:0:0:
253,253,71037,5,6,1:2:0:0:
253,253,71340,5,0,1:2:0:0:
253,253,71643,5,0,1:2:0:0:
253,253,71946,5,0,1:2:0:0:
253,253,72249,5,0,1:2:0:0:
341,211,72400,1,8,0:0:0:0:
341,211,72476,1,8,0:0:0:0:
341,211,72552,1,8,0:0:0:0:
338,311,72703,1,8,0:0:0:0:
449,241,72855,6,0,P|454:178|415:124,2,110,0|8|8,1:2|0:0|0:0,0:0:0:0:
320,127,73461,5,6,1:2:0:0:
320,127,73764,5,0,1:2:0:0:
320,127,74067,5,0,1:2:0:0:
320,127,74370,5,0,1:2:0:0:
320,127,74673,5,0,1:2:0:0:
260,65,74824,1,8,0:0:0:0:
322,8,74976,1,8,0:0:0:0:
380,68,75127,1,8,0:0:0:0:
232,152,75279,6,0,P|172:140|104:130,2,110,0|8|8,1:2|0:0|0:0,0:0:0:0:
479,288,75885,6,0,P|405:283|360:381,1,165,6|0,1:2|1:2,0:0:0:0:
133,163,76491,2,0,P|207:158|252:256,1,165,4|2,1:2|1:2,0:0:0:0:
495,85,77097,2,0,P|441:101|323:134,1,165,6|0,1:2|1:0,0:0:0:0:
69,23,77703,2,0,P|123:39|241:72,1,165,6|0,1:2|0:0,0:0:0:0:
310,30,78158,1,0,3:0:0:0:
256,180,78309,6,0,P|247:237|247:288,1,82.5,14|0,0:0|0:2,0:0:0:0:
432,284,78612,2,0,P|381:269|334:259,1,82.5,8|0,0:0|0:2,0:0:0:0:
122,316,78915,1,8,0:0:0:0:
185,373,79067,2,0,P|236:358|283:348,1,82.5,0|8,1:2|0:0,0:0:0:0:
166,235,79370,1,0,0:2:0:0:
29,384,79521,6,0,P|-7:336|21:229,1,165,8|8,0:0|0:0,0:0:0:0:
0,121,79976,1,0,1:2:0:0:
175,203,80127,2,0,P|133:196|86:182,1,82.5,10|0,0:0|2:2,0:0:0:0:
168,18,80430,2,0,P|212:44|213:139,1,123.75,8|0,0:0|0:0,0:0:0:0:
222,126,80733,6,0,P|273:110|396:88,1,165,10|8,0:0|0:0,0:0:0:0:
496,208,81188,1,2,1:2:0:0:
397,257,81340,2,0,P|409:199|412:151,1,82.5,8|0,0:0|2:2,0:0:0:0:
258,243,81643,2,0,P|246:299|292:370,1,123.75,10|0,0:0|1:0,0:0:0:0:
288,367,81946,6,0,P|338:353|399:348,1,82.5,8|0,0:0|2:2,0:0:0:0:
156,250,82249,2,0,P|106:236|45:231,1,82.5,8|0,0:0|2:2,0:0:0:0:
201,152,82552,1,8,0:0:0:0:
270,252,82703,1,0,1:2:0:0:
107,336,82855,1,8,0:0:0:0:
159,245,83006,1,0,1:2:0:0:
368,348,83158,6,0,P|415:338|472:319,1,82.5,14|0,0:0|2:0,0:0:0:0:
280,251,83461,2,0,P|266:181|328:111,1,165,8|8,0:0|0:0,0:0:0:0:
452,228,83915,2,0,P|405:218|348:199,1,82.5,0|8,1:2|0:0,0:0:0:0:
437,89,84218,1,0,2:2:0:0:
302,50,84370,5,8,0:0:0:0:
309,58,84471,2,0,P|318:94|325:132,1,55,8|8,0:0|0:0,0:0:0:0:
375,169,84673,5,8,3:0:0:0:
368,177,84774,2,0,P|359:213|352:251,1,55,8|8,3:0|3:0,0:0:0:0:
289,279,84976,6,0,P|232:221|67:251,1,247.5,6|0,1:2|0:0,0:0:0:0:
171,302,85582,6,0,P|178:350|179:382,1,66,6|0,1:2|0:0,0:0:0:0:
78,239,85885,2,0,P|80:206|85:173,1,66,2|0,0:0|0:0,0:0:0:0:
156,43,86188,1,2,0:0:0:0:
86,9,86340,1,2,0:0:0:0:
131,115,86491,1,0,0:0:0:0:
227,73,86643,1,2,0:0:0:0:
315,139,86794,6,0,P|325:182|322:228,1,74.2499977340699,2|0,0:0|0:0,0:0:0:0:
152,263,87097,2,0,P|196:252|236:243,1,74.2499977340699,0|2,0:0|0:0,0:0:0:0:
387,343,87400,1,0,0:0:0:0:
286,319,87552,1,2,1:2:0:0:
472,179,87703,1,10,1:3:0:0:
254,134,87855,1,14,0:0:0:0:
