osu file format v14

[General]
AudioFilename: audio.mp3
AudioLeadIn: 0
PreviewTime: 50961
Countdown: 0
SampleSet: Soft
StackLeniency: 0.7
Mode: 0
LetterboxInBreaks: 0
WidescreenStoryboard: 1

[Editor]
DistanceSpacing: 1
BeatDivisor: 4
GridSize: 32
TimelineZoom: 1.4

[Metadata]
Title:OveR (TV Size)
TitleUnicode:OveR (TV Size)
Artist:Tomita Miyu
ArtistUnicode:富田美憂
Creator:Sotarks
Version:Kirishima-'s Normal
Source:デート・ア・ライブⅣ
Tags:date a live iv dal season 4 pop jpop j-pop op opening anime japanese j-rock rock jrock female vocals -_ex_- kirishima- koldnoodl
BeatmapID:3623639
BeatmapSetID:1770116

[Difficulty]
HPDrainRate:3
CircleSize:3
OverallDifficulty:4
ApproachRate:5.5
SliderMultiplier:0.999999999999999
SliderTickRate:1

[Events]
//Background and Video events
0,0,"bg.jpg",0,0
//Break Periods
//Storyboard Layer 0 (Background)
//Storyboard Layer 1 (Fail)
//Storyboard Layer 2 (Pass)
//Storyboard Layer 3 (Foreground)
//Storyboard Layer 4 (Overlay)
//Storyboard Sound Samples

[TimingPoints]
734,303.030303030303,4,2,1,40,1,0
734,-100,4,2,1,40,0,0
10430,-100,4,2,1,60,0,0
20279,-100,4,2,1,60,0,0
20734,-100,4,2,1,40,0,0
29824,-100,4,2,1,50,0,0
39521,-100,4,2,1,55,0,0
46794,-100,4,2,1,65,0,0
51188,-100,4,2,1,40,0,0
51643,-100,4,2,1,70,0,1
71037,-100,4,2,1,60,0,0
78309,-100,4,2,1,65,0,0
85582,-100,4,2,1,50,0,0
87703,-100,4,2,1,60,0,0
88158,-100,4,2,1,60,0,0

[Colours]
Combo1 : 219,111,79
Combo2 : 121,0,0
Combo3 : 237,146,148
Combo4 : 228,210,82

[HitObjects]
91,50,734,6,0,P|47:26|-1:34,2,99.9999999999999,6|0|0,1:2|1:2|1:2,0:2:0:0:
163,119,1643,2,0,P|211:126|254:103,2,99.9999999999999,0|0|0,1:2|1:2|1:2,0:2:0:0:
67,149,2552,2,0,P|43:192|51:240,1,99.9999999999999,2|0,1:2|1:2,0:2:0:0:
92,331,3158,6,0,L|190:348,1,99.9999999999999,2|0,1:2|1:2,0:2:0:0:
239,357,3612,1,2,0:2:0:0:
323,232,4067,2,0,L|421:214,1,99.9999999999999,2|0,1:2|1:2,0:2:0:0:
498,150,4673,1,0,1:2:0:0:
485,50,4976,1,0,1:2:0:0:
389,21,5279,1,0,1:2:0:0:
308,80,5582,6,0,P|259:87|216:64,2,99.9999999999999,2|0|0,1:2|1:2|1:2,0:2:0:0:
373,155,6491,2,0,P|421:147|464:170,2,99.9999999999999,0|0|0,1:2|1:2|1:2,0:2:0:0:
302,225,7400,2,0,P|294:273|317:316,1,99.9999999999999,2|0,1:2|1:2,0:2:0:0:
400,374,8006,6,0,L|498:356,2,99.9999999999999,2|0|0,1:2|1:2|1:2,0:2:0:0:
318,317,8915,1,0,1:2:0:0:
240,379,9218,1,0,1:2:0:0:
154,326,9521,1,0,1:2:0:0:
174,228,9824,1,0,1:2:0:0:
371,194,10430,6,0,P|394:150|386:102,1,99.9999999999999,6|8,1:2|0:0,0:0:0:0:
338,14,11037,1,0,1:2:0:0:
242,30,11340,1,8,0:0:0:0:
242,30,11491,1,0,1:2:0:0:
208,126,11794,1,0,1:2:0:0:
208,126,11946,2,0,L|199:175,1,50,8|0,0:0|0:0,0:0:0:0:
190,224,12249,2,0,P|146:247|98:239,1,99.9999999999999,2|8,1:2|0:0,0:0:0:0:
21,174,12855,6,0,L|38:75,1,99.9999999999999,2|8,1:2|0:0,0:0:0:0:
50,27,13309,2,0,P|93:3|141:11,1,99.9999999999999,2|0,0:0|1:2,0:0:0:0:
191,37,13764,1,10,0:0:0:0:
191,37,13915,1,0,1:2:0:0:
246,126,14218,1,0,1:2:0:0:
246,126,14370,2,0,L|344:108,1,99.9999999999999,8|0,0:0|1:2,0:0:0:0:
436,147,14976,2,0,L|428:196,1,50,8|0,0:0|0:0,0:0:0:0:
419,245,15279,6,0,P|376:268|327:260,1,99.9999999999999,6|8,1:2|0:0,0:0:0:0:
263,337,15886,1,0,1:2:0:0:
170,316,16189,1,8,0:0:0:0:
170,316,16340,1,0,1:2:0:0:
146,223,16643,1,0,1:2:0:0:
146,223,16794,2,0,L|154:174,1,50,8|0,0:0|3:0,0:0:0:0:
165,124,17097,2,0,P|208:100|256:108,1,99.9999999999999,2|8,1:2|0:0,0:0:0:0:
322,183,17704,6,0,L|339:282,1,99.9999999999999,6|8,1:2|0:2,0:0:0:0:
347,330,18158,2,0,P|390:354|438:346,1,99.9999999999999,4|0,1:2|0:0,0:0:0:0:
484,326,18612,1,4,1:2:0:0:
504,231,18915,1,8,0:2:0:0:
504,231,19067,2,0,L|486:133,1,99.9999999999999,4|0,1:2|1:2,0:0:0:0:
440,111,19521,2,0,L|448:62,1,50,0|0,1:2|1:2,0:0:0:0:
462,16,19824,1,8,0:0:0:0:
462,16,19976,1,12,0:0:0:0:
362,8,20279,6,0,P|313:0|270:23,1,99.9999999999999
237,61,20734,2,0,L|246:110,2,50,2|0|2,0:0|0:0|0:0,0:0:0:0:
193,36,21188,1,2,0:0:0:0:
148,125,21491,1,2,0:0:0:0:
77,257,21946,2,0,L|28:266,2,50,2|0|2,0:0|0:0|0:0,0:0:0:0:
119,282,22400,5,2,0:0:0:0:
175,364,22703,1,2,0:0:0:0:
273,345,23006,2,0,L|291:247,1,99.9999999999999,2|0,0:0|0:0,0:0:0:0:
304,201,23461,1,2,0:0:0:0:
304,201,23612,1,2,0:0:0:0:
219,157,23915,1,2,0:0:0:0:
219,157,24067,2,0,L|201:59,1,99.9999999999999,2|0,0:0|0:0,0:0:0:0:
283,1,24673,1,0,0:0:0:0:
381,38,24976,6,0,P|405:81|397:129,1,99.9999999999999
359,221,25582,2,0,L|310:230,2,50,2|0|2,0:0|0:0|0:0,0:0:0:0:
408,215,26037,1,2,0:0:0:0:
499,255,26340,1,2,0:0:0:0:
374,334,26794,2,0,L|365:383,2,50,2|0|2,0:0|0:0|0:0,0:0:0:0:
340,296,27249,5,2,0:0:0:0:
264,361,27552,1,2,0:0:0:0:
174,315,27855,2,0,L|156:217,1,99.9999999999999,2|2,0:0|0:0,0:0:0:0:
247,176,28461,2,0,L|265:78,1,99.9999999999999,2|2,0:0|0:0,0:0:0:0:
276,32,28915,1,2,0:0:0:0:
276,32,29067,1,2,0:0:0:0:
371,0,29370,1,0,0:0:0:0:
455,64,29673,1,0,0:0:0:0:
455,64,29824,6,0,P|479:107|471:155,1,99.9999999999999,0|0,1:2|1:2,0:0:0:0:
392,216,30430,2,0,L|343:207,2,50,2|0|2,1:2|0:0|1:2,0:0:0:0:
421,255,30884,1,2,0:0:0:0:
349,324,31188,2,0,P|306:300|258:308,1,99.9999999999999,2|0,0:0|0:0,0:0:0:0:
213,331,31642,2,0,L|204:380,2,50,2|0|2,1:2|0:0|1:2,0:0:0:0:
182,291,32096,5,2,0:0:0:0:
109,222,32399,1,2,0:0:0:0:
162,137,32702,2,0,L|260:155,1,99.9999999999999,2|0,0:0|0:0,0:0:0:0:
314,165,33157,1,2,1:2:0:0:
314,165,33308,1,2,0:0:0:0:
367,256,33612,1,2,0:0:0:0:
367,256,33764,2,0,L|465:238,1,99.9999999999999,2|2,1:2|1:2,0:0:0:0:
511,149,34369,1,2,1:2:0:0:
464,67,34672,5,0,1:2:0:0:
464,67,34824,2,0,P|421:43|373:51,1,99.9999999999999
327,72,35279,2,0,L|318:121,2,50,2|0|2,1:2|0:0|1:2,0:0:0:0:
296,32,35733,1,2,0:0:0:0:
222,100,36037,2,0,P|173:108|130:84,1,99.9999999999999,2|0,0:0|0:0,0:0:0:0:
90,55,36491,2,0,L|99:6,2,50,2|0|2,1:2|0:0|1:2,0:0:0:0:
47,81,36945,5,2,0:0:0:0:
1,169,37248,1,2,0:0:0:0:
87,219,37551,2,0,L|105:317,1,99.9999999999999,2|2,0:0|0:0,0:0:0:0:
201,342,38157,2,0,L|299:360,1,99.9999999999999,2|2,0:0|0:0,0:0:0:0:
348,370,38611,1,2,1:2:0:0:
440,330,38915,1,0,1:2:0:0:
441,230,39218,1,2,1:2:0:0:
358,173,39521,6,0,P|309:164|266:188,1,99.9999999999999,6|0,1:2|0:0,0:0:0:0:
237,228,39976,1,2,1:2:0:0:
237,228,40127,1,8,0:0:0:0:
214,328,40430,1,2,0:0:0:0:
214,328,40582,2,0,P|171:352|123:344,1,99.9999999999999,0|0,1:2|1:2,0:0:0:0:
38,301,41188,1,0,1:2:0:0:
38,301,41340,1,10,0:0:0:0:
86,213,41643,1,2,0:0:0:0:
8,149,41946,6,0,L|26:50,1,99.9999999999999,2|0,1:2|0:0,0:0:0:0:
42,6,42401,1,2,1:2:0:0:
42,6,42552,1,8,0:0:0:0:
131,62,42855,1,2,0:0:0:0:
131,62,43007,2,0,L|229:44,1,99.9999999999999,0|0,1:0|1:0,0:0:0:0:
332,32,43613,1,0,1:2:0:0:
332,32,43765,1,10,0:0:0:0:
399,105,44068,1,0,0:0:0:0:
347,190,44370,6,0,P|323:233|331:281,1,99.9999999999999,6|0,1:2|0:0,0:0:0:0:
361,328,44825,1,2,1:2:0:0:
361,328,44976,1,8,0:0:0:0:
463,311,45279,1,2,0:0:0:0:
463,311,45430,2,0,P|486:268|478:219,1,99.9999999999999,0|0,1:2|1:2,0:0:0:0:
457,126,46037,1,0,1:2:0:0:
457,126,46188,2,0,L|407:117,1,50,10|2,0:0|0:0,0:0:0:0:
385,72,46491,2,0,L|335:81,1,50,2|0,1:2|1:2,0:0:0:0:
287,94,46794,6,0,L|270:193,1,99.9999999999999,6|8,1:2|0:0,0:0:0:0:
261,242,47249,1,4,1:2:0:0:
316,331,47552,1,8,0:0:0:0:
316,331,47703,1,4,1:2:0:0:
229,381,48006,2,0,L|130:364,1,99.9999999999999,6|8,1:2|0:0,0:0:0:0:
81,351,48461,1,4,1:2:0:0:
13,284,48764,1,8,0:0:0:0:
13,284,48915,1,4,1:2:0:0:
79,209,49218,6,0,P|102:166|94:117,1,99.9999999999999,6|8,1:2|0:0,0:0:0:0:
78,70,49673,1,4,1:2:0:0:
160,11,49976,1,0,1:2:0:0:
160,11,50127,1,12,0:0:0:0:
234,77,50430,2,0,L|283:68,1,50,14|2,0:0|1:2,0:0:0:0:
336,62,50733,1,10,0:0:0:0:
336,62,50885,1,6,1:2:0:0:
112,174,51643,6,0,L|129:273,1,99.9999999999999,14|10,0:2|0:0,0:0:0:0:
143,325,52097,1,2,1:2:0:0:
143,325,52249,2,0,P|186:349|234:341,1,99.9999999999999,10|10,0:0|0:0,0:0:0:0:
278,317,52703,1,6,1:2:0:0:
343,241,53006,2,0,L|326:142,1,99.9999999999999,6|6,1:2|1:2,0:0:0:0:
282,117,53461,2,0,L|295:43,2,74.9999999999999,2|2|2,0:0|0:0|0:0,0:0:0:0:
243,149,54067,6,0,P|200:173|152:165,1,99.9999999999999,14|10,0:0|0:0,0:0:0:0:
110,147,54521,1,2,1:2:0:0:
110,147,54673,1,10,0:0:0:0:
29,203,54976,1,10,0:0:0:0:
29,203,55127,1,6,1:2:0:0:
67,295,55430,2,0,P|110:319|158:311,1,99.9999999999999,6|6,1:2|1:2,0:0:0:0:
244,259,56037,2,0,L|293:268,1,50,2|2,0:0|0:0,0:0:0:0:
320,310,56340,6,0,L|419:293,1,99.9999999999999,6|0,1:2|0:0,0:0:0:0:
467,285,56794,1,10,0:0:0:0:
509,194,57097,1,8,0:0:0:0:
446,123,57400,1,10,0:0:0:0:
446,123,57552,2,0,L|348:105,1,99.9999999999999,2|0,1:2|0:0,0:0:0:0:
303,97,58006,1,10,0:0:0:0:
303,97,58158,1,2,1:2:0:0:
244,23,58461,1,2,1:2:0:0:
244,23,58612,1,8,0:0:0:0:
150,49,58915,5,10,0:0:0:0:
150,49,59067,2,0,P|126:92|134:140,1,99.9999999999999,2|2,1:2|1:2,0:0:0:0:
153,186,59521,1,8,0:0:0:0:
86,260,59824,1,8,0:0:0:0:
126,357,60127,1,10,0:0:0:0:
126,357,60279,1,10,0:0:0:0:
223,377,60582,1,6,1:2:0:0:
287,300,60885,1,6,1:2:0:0:
256,204,61188,6,0,L|273:106,1,99.9999999999999,6|0,1:2|1:2,0:0:0:0:
283,56,61643,2,0,L|332:47,1,50,10|2,0:0|0:0,0:0:0:0:
365,9,61946,1,2,1:2:0:0:
365,9,62097,2,0,L|415:18,1,50,2|10,1:2|0:0,0:0:0:0:
463,27,62400,1,2,0:0:0:0:
509,115,62703,1,2,0:0:0:0:
429,175,63006,2,0,L|412:273,1,99.9999999999999,2|0,0:0|1:2,0:0:0:0:
406,326,63461,1,8,0:0:0:0:
406,326,63612,6,0,P|363:349|314:341,1,99.9999999999999,6|0,1:2|1:2,0:0:0:0:
271,316,64067,1,10,0:0:0:0:
191,375,64370,1,2,1:2:0:0:
191,375,64521,2,0,L|142:366,1,50,2|10,1:2|0:0,0:0:0:0:
92,354,64824,2,0,P|68:311|76:263,1,99.9999999999999,2|2,0:0|0:0,0:0:0:0:
101,221,65279,1,8,0:0:0:0:
101,221,65430,1,2,0:0:0:0:
192,180,65733,2,0,L|201:131,1,50,2|10,1:2|0:0,0:0:0:0:
214,82,66037,6,0,L|313:65,1,99.9999999999999,6|0,1:2|1:2,0:0:0:0:
361,58,66491,1,10,0:0:0:0:
451,101,66794,1,0,1:2:0:0:
438,203,67097,1,10,0:0:0:0:
438,203,67249,2,0,L|420:301,1,99.9999999999999,2|0,0:0|1:0,0:0:0:0:
414,354,67703,1,10,0:0:0:0:
414,354,67855,1,2,0:0:0:0:
321,382,68158,1,2,1:2:0:0:
321,382,68309,1,8,0:0:0:0:
237,327,68612,6,0,P|213:284|221:235,1,99.9999999999999,6|8,1:2|0:0,0:0:0:0:
303,179,69218,2,0,P|311:130|287:87,1,99.9999999999999,2|8,1:2|0:0,0:0:0:0:
221,12,69824,1,10,0:2:0:0:
123,36,70127,1,8,0:0:0:0:
102,133,70430,2,0,L|93:182,1,50,10|0,0:0|1:2,0:0:0:0:
48,206,70733,2,0,L|57:255,1,50,8|8,3:0|3:0,0:0:0:0:
70,303,71037,6,0,L|168:320,2,99.9999999999999,6|0|0,1:2|1:2|1:2,0:0:0:0:
48,206,71946,1,0,1:2:0:0:
28,107,72249,1,0,1:2:0:0:
98,36,72552,2,0,L|147:45,1,50,8|8,0:0|0:0,0:0:0:0:
196,54,72855,1,0,1:2:0:0:
337,194,73461,6,0,P|380:170|428:178,2,99.9999999999999,6|0|0,1:2|1:2|1:2,0:0:0:0:
268,266,74370,1,0,1:2:0:0:
296,361,74673,1,0,1:2:0:0:
394,380,74976,2,0,L|443:371,1,50,8|8,0:0|0:0,0:0:0:0:
492,362,75279,1,0,1:2:0:0:
461,164,75885,6,0,L|363:147,1,99.9999999999999,6|0,1:2|1:2,0:0:0:0:
313,140,76339,1,2,0:0:0:0:
347,234,76643,2,0,L|396:242,2,50,0|2|8,0:0|1:2|3:0,0:0:0:0:
305,260,77097,2,0,L|322:358,1,99.9999999999999,6|0,1:2|1:0,0:0:0:0:
225,382,77703,2,0,L|127:365,1,99.9999999999999,6|0,1:2|0:0,0:0:0:0:
81,356,78158,1,0,3:0:0:0:
81,356,78309,6,0,P|57:313|65:265,1,99.9999999999999,14|8,0:0|0:0,0:0:0:0:
6,183,78915,1,8,0:0:0:0:
40,89,79218,1,8,0:0:0:0:
139,83,79521,1,8,0:0:0:0:
201,161,79824,1,8,0:0:0:0:
168,255,80127,2,0,P|159:303|183:346,1,99.9999999999999,10|8,0:0|0:0,0:0:0:0:
278,379,80733,6,0,L|377:361,1,99.9999999999999,10|8,0:0|0:0,0:0:0:0:
430,358,81188,1,2,1:2:0:0:
430,358,81340,1,8,0:0:0:0:
503,289,81643,2,0,L|485:190,1,99.9999999999999,10|8,0:0|0:0,0:0:0:0:
467,92,82249,1,8,0:0:0:0:
368,72,82552,2,0,L|318:63,1,50,8|0,0:0|1:2,0:0:0:0:
296,18,82855,2,0,L|246:27,1,50,8|0,0:0|1:2,0:0:0:0:
198,42,83158,6,0,P|174:85|182:133,1,99.9999999999999,14|8,0:0|0:0,0:0:0:0:
271,178,83764,1,8,0:0:0:0:
273,278,84067,1,8,0:0:0:0:
188,330,84370,2,0,L|138:339,1,50,8|0,0:0|0:0,0:0:0:0:
115,383,84673,2,0,L|65:374,1,50,8|0,3:0|0:0,0:0:0:0:
16,365,84976,2,0,P|-8:322|0:274,1,99.9999999999999,6|0,1:2|0:0,0:0:0:0:
1,173,85582,6,0,B|107:32|411:86|246:343|506:289,1,599.999999999999,6|0,1:2|0:0,0:0:0:0:
493,194,87703,1,10,1:3:0:0:
493,194,87855,2,0,L|475:95,1,99.9999999999999,14|0,0:0|0:0,0:0:0:0:
