osu file format v14

[General]
AudioFilename: audio.mp3
AudioLeadIn: 0
PreviewTime: 50961
Countdown: 0
SampleSet: Soft
StackLeniency: 0.7
Mode: 0
LetterboxInBreaks: 0
WidescreenStoryboard: 1

[Editor]
DistanceSpacing: 0.5
BeatDivisor: 4
GridSize: 32
TimelineZoom: 1.4

[Metadata]
Title:OveR (TV Size)
TitleUnicode:OveR (TV Size)
Artist:Tomita Miyu
ArtistUnicode:富田美憂
Creator:Sotarks
Version:Expert
Source:デート・ア・ライブⅣ
Tags:date a live iv dal season 4 pop jpop j-pop op opening anime japanese j-rock rock jrock female vocals -_ex_- kirishima- koldnoodl
BeatmapID:3623625
BeatmapSetID:1770116

[Difficulty]
HPDrainRate:6
CircleSize:4
OverallDifficulty:9
ApproachRate:9.2
SliderMultiplier:1.92
SliderTickRate:1

[Events]
//Background and Video events
0,0,"bg.jpg",0,0
//Break Periods
2,20734,29218
//Storyboard Layer 0 (Background)
//Storyboard Layer 1 (Fail)
//Storyboard Layer 2 (Pass)
//Storyboard Layer 3 (Foreground)
//Storyboard Layer 4 (Overlay)
//Storyboard Sound Samples

[TimingPoints]
734,303.030303030303,4,2,1,40,1,0
10430,-98.0392156862745,4,2,1,60,0,0
20734,-98.0392156862745,4,2,1,40,0,0
29824,-138.888888888889,4,2,1,50,0,0
39521,-108.695652173913,4,2,1,55,0,0
46794,-98.0392156862745,4,2,1,65,0,0
51188,-98.0392156862745,4,2,1,40,0,0
51643,-98.0392156862745,4,2,1,70,0,0
71037,-98.0392156862745,4,2,1,60,0,0
71340,-121.951219512195,4,2,1,60,0,0
72855,-98.0392156862745,4,2,1,60,0,0
73764,-121.951219512195,4,2,1,60,0,0
75279,-98.0392156862745,4,2,1,60,0,0
76188,-108.695652173913,4,2,1,60,0,0
78309,-108.695652173913,4,2,1,65,0,0
84976,-138.888888888889,4,2,1,65,0,0
85582,-121.951219512195,4,2,1,50,0,0
87703,-121.951219512195,4,2,1,60,0,0

[Colours]
Combo1 : 219,111,79
Combo2 : 121,0,0
Combo3 : 237,146,148
Combo4 : 228,210,82

[HitObjects]
256,192,8006,12,0,9521,0:0:0:0:
142,93,9824,5,0,3:0:0:0:
256,192,9976,1,0,3:0:0:0:
259,178,10051,1,0,3:0:0:0:
262,164,10127,1,0,3:0:0:0:
142,264,10279,1,0,3:0:0:0:
145,278,10355,1,0,3:0:0:0:
148,292,10430,6,0,P|217:318|290:282,1,146.880000896484,6|0,1:2|0:0,0:0:0:0:
351,214,10734,2,0,P|300:203|252:190,1,97.9200005976563,8|0,0:0|0:0,0:0:0:0:
397,331,11037,1,0,1:2:0:0:
310,120,11188,1,0,1:2:0:0:
218,342,11340,1,8,0:0:0:0:
39,234,11491,6,0,B|72:221|108:205|108:205|152:231|152:231|186:218|235:199,1,195.840001195313,0|0,1:2|1:2,0:0:0:0:
405,142,11946,2,0,P|354:131|306:118,1,97.9200005976563,8|0,0:0|0:0,0:0:0:0:
168,33,12249,1,2,1:2:0:0:
281,291,12400,1,0,1:2:0:0:
84,199,12552,2,0,P|135:188|183:175,1,97.9200005976563,8|0,0:0|3:0,0:0:0:0:
201,168,12779,1,0,3:0:0:0:
201,168,12855,6,0,P|206:91|95:47,1,195.840001195313,2|8,1:2|0:0,0:0:0:0:
312,111,13309,2,0,P|363:100|411:87,1,97.9200005976563,2|0,0:0|1:0,0:0:0:0:
217,299,13612,1,0,1:2:0:0:
377,191,13764,1,10,0:0:0:0:
331,384,13915,6,0,P|308:286|281:182,1,195.840001195313,0|0,1:2|1:2,0:0:0:0:
489,305,14370,2,0,P|441:294|393:282,1,97.9200005976563,8|0,0:0|3:0,0:0:0:0:
393,282,14597,1,0,3:0:0:0:
393,282,14673,1,0,1:2:0:0:
476,91,14824,1,0,1:2:0:0:
284,193,14976,2,0,P|331:182|379:170,1,97.9200005976563,8|0,0:0|0:0,0:0:0:0:
157,7,15279,6,0,P|115:62|137:148,1,146.880000896484,6|0,1:2|0:0,0:0:0:0:
120,211,15582,2,0,P|72:200|24:188,1,97.9200005976563,8|0,0:0|0:0,0:0:0:0:
190,340,15885,1,0,1:2:0:0:
24,188,16037,1,0,1:2:0:0:
212,80,16188,1,8,0:0:0:0:
287,232,16340,6,0,P|239:244|191:254,1,97.9200005976563,0|0,1:2|0:0,0:0:0:0:
341,105,16643,1,0,1:2:0:0:
173,30,16794,2,0,P|188:76|200:123,1,97.9200005976563,8|0,0:0|3:0,0:0:0:0:
208,152,17021,1,0,3:0:0:0:
208,152,17097,2,0,P|179:159|158:165,1,48.9600002988281,2|0,1:2|3:0,0:0:0:0:
32,236,17249,2,0,P|61:243|82:249,1,48.9600002988281,0|0,1:2|1:2,0:0:0:0:
178,340,17400,1,8,0:0:0:0:
201,297,17475,1,8,3:0:0:0:
242,272,17551,1,8,3:0:0:0:
291,268,17627,1,8,3:0:0:0:
335,288,17703,6,0,P|398:308|478:259,1,146.880000896484,6|0,1:2|0:0,0:0:0:0:
486,252,18006,1,8,0:2:0:0:
349,21,18158,2,0,B|363:61|378:89|378:89|365:134|365:134|383:169|400:216,1,195.840001195313,4|0,1:2|0:0,0:0:0:0:
143,140,18612,2,0,P|195:91|267:92,1,146.880000896484,4|0,1:2|0:0,0:0:0:0:
291,105,18915,5,8,0:2:0:0:
213,276,19067,2,0,P|125:255|16:235,1,195.840001195313,4|0,1:2|1:2,0:0:0:0:
21,235,19446,1,0,1:0:0:0:
21,235,19521,1,0,1:2:0:0:
170,73,19673,1,0,1:2:0:0:
60,336,19825,1,8,0:0:0:0:
356,236,19976,1,12,0:0:0:0:
87,273,29824,6,0,P|166:262|214:308,1,138.240003375,0|0,1:2|1:2,0:0:0:0:
300,220,30279,1,0,0:0:0:0:
264,363,30430,2,0,P|297:355|331:348,1,69.1200016875,2|0,1:2|0:0,0:0:0:0:
431,275,30733,1,2,1:2:0:0:
431,275,30885,2,0,P|440:308|452:340,1,69.1200016875,2|0,0:0|1:0,0:0:0:0:
300,220,31188,2,0,P|281:135|260:74,1,138.240003375,2|0,0:0|0:0,0:0:0:0:
116,147,31643,6,0,P|149:153|183:161,1,69.1200016875,2|0,1:2|0:0,0:0:0:0:
166,313,31946,1,2,1:2:0:0:
166,313,32097,2,0,P|154:280|144:247,1,69.1200016875,2|0,0:0|1:0,0:0:0:0:
25,222,32400,2,0,P|36:254|46:287,1,69.1200016875,2|0,0:0|1:0,0:0:0:0:
116,147,32703,6,0,P|92:108|-1:106,1,138.240003375,2|0,0:0|0:0,0:0:0:0:
172,56,33158,1,2,1:2:0:0:
172,56,33309,2,0,P|205:48|239:41,1,69.1200016875,2|0,0:0|1:0,0:0:0:0:
327,106,33612,1,2,0:0:0:0:
327,106,33763,2,0,P|360:98|394:91,1,69.1200016875,2|0,1:2|0:0,0:0:0:0:
253,225,34067,2,0,P|243:191|231:159,1,69.1200016875,2|0,1:2|0:0,0:0:0:0:
332,298,34370,1,2,1:2:0:0:
382,204,34521,1,2,0:2:0:0:
332,298,34673,6,0,P|283:336|200:310,1,138.240003375,0|0,1:2|1:0,0:0:0:0:
86,55,35279,2,0,P|74:87|64:120,1,69.1200016875,2|0,1:2|0:0,0:0:0:0:
193,96,35582,1,2,1:2:0:0:
116,213,35733,2,0,P|149:205|183:198,1,69.1200016875,2|0,0:0|1:0,0:0:0:0:
307,101,36037,2,0,P|290:177|278:243,1,138.240003375,2|0,0:0|0:0,0:0:0:0:
213,376,36491,6,0,P|203:342|191:310,1,69.1200016875,2|0,1:2|0:0,0:0:0:0:
330,350,36794,1,2,1:2:0:0:
279,236,36946,2,0,P|312:228|346:221,1,69.1200016875,2|0,0:0|1:2,0:0:0:0:
500,166,37249,2,0,P|466:158|432:151,1,69.1200016875,2|0,0:0|1:0,0:0:0:0:
328,67,37552,2,0,P|334:100|342:134,1,69.1200016875,2|0,0:0|1:0,0:0:0:0:
405,312,37855,2,0,P|412:278|419:244,1,69.1200016875,2|0,0:0|1:0,0:0:0:0:
234,157,38158,6,0,P|249:224|261:292,1,138.240003375,2|2,0:0|0:0,0:0:0:0:
134,114,38612,2,0,P|179:63|260:70,1,138.240003375,2|0,1:2|1:2,0:0:0:0:
342,134,39067,1,0,0:0:0:0:
416,37,39218,2,0,P|382:29|348:22,1,69.1200016875,2|0,1:2|0:0,0:0:0:0:
281,246,39521,6,0,B|311:236|344:223|344:223|384:243|384:243|416:231|454:217,1,176.639994070313,6|0,1:2|0:0,0:0:0:0:
260,384,39976,1,2,1:2:0:0:
452,338,40127,2,0,P|405:300|322:320,1,132.479995552735,8|0,0:0|0:0,0:0:0:0:
315,329,40430,1,2,0:0:0:0:
148,263,40582,6,0,P|198:250|243:233,1,88.3199970351563,0|0,1:2|0:0,0:0:0:0:
408,156,40885,2,0,P|366:141|323:130,1,88.3199970351563,0|0,1:2|0:0,0:0:0:0:
390,13,41188,1,0,1:2:0:0:
203,146,41340,2,0,P|190:103|182:60,1,88.3199970351563,10|0,0:0|0:0,0:0:0:0:
335,243,41643,2,0,P|326:286|314:328,1,88.3199970351563,2|0,0:0|0:0,0:0:0:0:
42,338,41946,6,0,P|75:286|202:302,1,176.639994070313,2|0,1:2|0:0,0:0:0:0:
293,138,42400,1,2,1:2:0:0:
433,259,42552,2,0,B|392:223|338:217|338:217|302:256|255:256,1,176.639994070313,8|2,0:0|0:0,0:0:0:0:
148,77,43006,6,0,P|156:120|168:162,1,88.3199970351563,0|0,1:0|0:0,0:0:0:0:
201,368,43309,2,0,P|192:324|180:282,1,88.3199970351563,0|0,1:0|0:0,0:0:0:0:
326,80,43612,1,0,1:2:0:0:
278,253,43764,1,10,0:0:0:0:
435,172,43915,2,0,B|399:162|375:153|375:153|331:172|331:172|288:158|246:147,1,176.639994070313,0|0,1:2|0:0,0:0:0:0:
0,108,44370,6,0,P|40:43|158:75,1,176.639994070313,6|0,1:2|0:0,0:0:0:0:
26,246,44824,1,2,1:2:0:0:
241,168,44976,2,0,P|179:154|104:141,1,132.479995552735,8|0,0:0|0:0,0:0:0:0:
86,136,45279,1,2,0:0:0:0:
164,337,45430,6,0,P|155:293|143:251,1,88.3199970351563,0|0,1:2|0:0,0:0:0:0:
261,82,45733,2,0,P|248:124|240:167,1,88.3199970351563,0|0,1:2|0:0,0:0:0:0:
322,306,46037,1,0,1:2:0:0:
441,139,46188,1,10,0:0:0:0:
333,198,46340,1,2,0:0:0:0:
479,352,46491,2,0,P|470:308|458:266,1,88.3199970351563,2|0,1:2|1:2,0:0:0:0:
450,237,46718,1,0,1:2:0:0:
450,237,46794,6,0,P|368:226|306:275,1,146.880000896484,6|0,1:2|0:0,0:0:0:0:
297,282,47097,1,8,0:0:0:0:
81,195,47249,2,0,P|101:266|122:352,1,146.880000896484,4|0,1:2|0:0,0:0:0:0:
126,367,47552,1,8,0:0:0:0:
271,182,47703,2,0,P|224:157|167:152,1,97.9200005976563,4|0,1:2|0:0,0:0:0:0:
0,85,48006,6,0,B|53:65|53:65|86:80|86:80|146:59,1,146.880000896484,6|0,1:2|0:0,0:0:0:0:
166,50,48309,1,8,0:0:0:0:
384,126,48461,2,0,P|344:181|248:165,1,146.880000896484,4|0,1:2|0:0,0:0:0:0:
241,165,48764,1,8,0:0:0:0:
104,313,48915,2,0,P|154:312|202:287,1,97.9200005976563,4|0,1:2|0:0,0:0:0:0:
394,384,49218,6,0,P|411:312|431:242,1,146.880000896484,6|0,1:2|0:0,0:0:0:0:
439,215,49521,1,8,0:0:0:0:
253,49,49673,2,0,P|236:123|289:194,1,146.880000896484,4|0,1:2|0:0,0:0:0:0:
294,200,49976,1,0,1:2:0:0:
477,92,50127,2,0,P|429:65|377:57,1,97.9200005976563,12|0,0:0|0:0,0:0:0:0:
229,331,50430,5,14,0:0:0:0:
439,215,50582,1,2,1:2:0:0:
253,49,50733,1,10,0:0:0:0:
115,240,50885,2,0,B|147:225|179:209|179:209|234:228|234:228|267:213|306:193,1,195.840001195313,6|0,1:2|0:0,0:0:0:0:
293,199,51491,2,0,P|288:233|284:258,1,48.9600002988281,2|2,0:0|0:0,0:0:0:0:
331,332,51643,5,14,0:2:0:0:
274,97,51794,1,2,0:0:0:0:
330,342,51946,1,10,0:0:0:0:
278,90,52097,1,2,1:2:0:0:
409,258,52249,2,0,P|361:235|297:230,1,97.9200005976563,10|0,0:0|1:2,0:0:0:0:
140,122,52552,1,10,0:0:0:0:
199,347,52703,6,0,P|214:285|228:246,1,97.9200005976563,6|0,1:2|0:0,0:0:0:0:
0,187,53006,2,0,P|46:230|72:262,1,97.9200005976563,6|0,1:2|0:0,0:0:0:0:
234,97,53309,2,0,P|172:115|132:122,1,97.9200005976563,6|2,1:2|0:0,0:0:0:0:
139,121,54067,5,14,0:0:0:0:
375,172,54218,1,2,1:2:0:0:
130,115,54370,1,10,0:0:0:0:
379,179,54521,1,2,1:2:0:0:
254,2,54673,2,0,P|236:47|233:96,1,97.9200005976563,10|0,0:0|1:2,0:0:0:0:
340,335,54976,1,10,0:0:0:0:
103,274,55127,6,0,P|150:264|197:249,1,97.9200005976563,6|0,1:2|0:0,0:0:0:0:
129,32,55430,2,0,P|113:78|102:126,1,97.9200005976563,6|0,1:2|0:0,0:0:0:0:
301,166,55733,2,0,P|268:129|232:96,1,97.9200005976563,6|0,1:2|0:0,0:0:0:0:
356,96,56037,1,2,0:0:0:0:
241,244,56188,1,2,0:0:0:0:
373,384,56340,6,0,B|379:356|393:316|393:316|373:277|373:277|384:241|397:185,1,195.840001195313,6|0,1:2|0:0,0:0:0:0:
211,361,56794,1,10,0:0:0:0:
335,284,56946,1,2,1:2:0:0:
208,100,57097,2,0,P|224:173|250:283,1,146.880000896484,8|0,0:0|0:0,0:0:0:0:
247,271,57400,1,10,0:0:0:0:
350,99,57552,1,2,1:2:0:0:
186,213,57703,6,0,P|116:174|40:199,1,146.880000896484,8|0,0:0|0:0,0:0:0:0:
25,209,58006,1,10,0:0:0:0:
144,63,58158,1,2,1:2:0:0:
78,308,58309,1,8,0:0:0:0:
278,189,58461,1,2,1:2:0:0:
278,189,58537,1,0,1:0:0:0:
278,189,58612,2,0,P|230:178|183:163,1,97.9200005976563,8|0,0:0|0:0,0:0:0:0:
320,375,58915,5,10,0:0:0:0:
198,271,59067,1,2,1:2:0:0:
378,130,59218,1,8,0:0:0:0:
318,275,59370,1,2,1:2:0:0:
318,275,59446,1,0,1:0:0:0:
318,275,59521,2,0,P|307:227|293:180,1,97.9200005976563,8|0,0:0|1:2,0:0:0:0:
486,81,59824,2,0,P|472:127|461:175,1,97.9200005976563,8|0,0:0|1:2,0:0:0:0:
307,20,60127,5,10,0:0:0:0:
168,210,60279,1,10,0:0:0:0:
191,167,60354,1,8,0:0:0:0:
233,142,60430,1,8,0:0:0:0:
281,141,60506,1,8,0:0:0:0:
324,163,60582,1,6,1:2:0:0:
114,1,60885,1,6,1:2:0:0:
310,319,61188,6,0,B|275:306|239:294|239:294|192:321|192:321|155:309|128:302,1,195.840001195313,6|0,1:2|1:2,0:0:0:0:
324,163,61643,1,10,0:0:0:0:
186,68,61794,1,2,0:0:0:0:
310,319,61946,1,2,1:2:0:0:
156,208,62097,1,2,1:2:0:0:
179,200,62172,1,0,1:0:0:0:
202,193,62248,1,10,0:0:0:0:
397,79,62400,6,0,P|349:68|302:53,1,97.9200005976563,2|0,0:0|1:0,0:0:0:0:
409,258,62703,2,0,P|455:243|503:232,1,97.9200005976563,2|8,0:0|0:0,0:0:0:0:
324,163,63006,1,2,0:0:0:0:
419,384,63158,1,0,1:2:0:0:
258,258,63309,1,0,1:2:0:0:
418,107,63461,1,8,0:0:0:0:
306,328,63612,6,0,B|251:289|199:284|199:284|171:323|113:331,1,195.840001195313,6|0,1:2|1:2,0:0:0:0:
246,85,64067,2,0,P|256:132|270:179,1,97.9200005976563,10|0,0:0|0:0,0:0:0:0:
87,54,64370,1,2,1:2:0:0:
195,261,64521,1,2,1:2:0:0:
91,49,64673,1,10,0:0:0:0:
20,238,64824,6,0,P|66:223|114:212,1,97.9200005976563,2|0,0:0|1:0,0:0:0:0:
246,85,65127,1,2,0:0:0:0:
139,329,65279,1,8,0:0:0:0:
270,179,65430,2,0,P|280:226|294:273,1,97.9200005976563,2|0,0:0|1:2,0:0:0:0:
415,92,65733,1,2,1:2:0:0:
415,92,65809,1,0,1:0:0:0:
415,92,65885,1,10,0:0:0:0:
466,355,66037,6,0,P|403:323|424:192,1,195.840001195313,6|0,1:2|1:2,0:0:0:0:
242,358,66491,1,10,0:0:0:0:
403,209,66643,2,0,P|356:193|308:182,1,97.9200005976563,2|0,0:0|1:2,0:0:0:0:
156,67,66946,1,0,0:0:0:0:
282,276,67097,1,10,0:0:0:0:
108,153,67249,6,0,P|98:200|84:247,1,97.9200005976563,2|0,0:0|1:2,0:0:0:0:
250,110,67552,1,0,1:0:0:0:
250,110,67627,1,0,1:0:0:0:
250,110,67703,1,10,0:0:0:0:
153,316,67855,1,2,0:0:0:0:
306,186,68006,1,0,1:0:0:0:
350,378,68158,1,2,1:2:0:0:
171,232,68309,2,0,P|199:224|227:215,1,48.9600002988281,8|0,0:0|3:0,0:0:0:0:
408,107,68461,2,0,P|380:99|352:90,1,48.9600002988281,0|0,3:0|3:0,0:0:0:0:
258,14,68612,6,0,P|254:96|304:174,1,146.880000896484,6|0,1:2|0:0,0:0:0:0:
308,182,68915,1,8,0:0:0:0:
143,96,69067,1,0,0:0:0:0:
259,309,69218,1,2,1:2:0:0:
72,256,69370,1,0,1:2:0:0:
72,256,69446,1,0,1:0:0:0:
72,256,69521,2,0,P|119:240|167:229,1,97.9200005976563,8|0,0:0|0:0,0:0:0:0:
459,81,69824,5,10,0:2:0:0:
429,290,69976,1,0,1:2:0:0:
330,63,70127,5,8,0:0:0:0:
357,306,70279,1,0,1:2:0:0:
197,97,70430,5,10,0:0:0:0:
291,338,70582,2,0,P|292:315|296:277,1,48.9600002988281,0|0,1:2|1:2,0:0:0:0:
302,169,70733,1,8,3:0:0:0:
302,169,70809,1,8,3:0:0:0:
302,169,70885,1,8,3:0:0:0:
302,169,70961,1,8,3:0:0:0:
302,169,71037,6,0,P|377:199|460:113,1,195.840001195313,6|0,1:2|1:2,0:0:0:0:
380,20,71491,2,0,P|372:65|361:109,1,78.7200012011719,2|0,0:0|1:2,0:0:0:0:
253,72,71794,2,0,P|261:117|272:161,1,78.7200012011719,2|0,0:0|1:2,0:0:0:0:
147,19,72097,2,0,P|139:64|128:108,1,78.7200012011719,2|0,0:0|1:2,0:0:0:0:
48,201,72400,1,8,0:0:0:0:
48,201,72476,1,8,0:0:0:0:
48,201,72552,1,8,0:0:0:0:
253,72,72703,1,8,0:0:0:0:
156,290,72855,6,0,P|146:250|132:204,1,65.2800003984375,0|0,1:2|0:0,0:0:0:0:
227,146,73057,2,0,P|258:155|289:163,1,65.2800003984375,8|0,0:0|0:0,0:0:0:0:
322,273,73259,2,0,P|298:295|275:319,1,65.2800003984375,8|0,0:0|0:0,0:0:0:0:
228,234,73461,6,0,B|260:221|294:206|294:206|343:232|343:232|380:217|426:197,1,195.840001195313,6|0,1:2|1:2,0:0:0:0:
512,134,73915,2,0,P|469:118|425:105,1,78.7200012011719,2|0,0:0|1:2,0:0:0:0:
350,33,74218,2,0,P|312:44|275:57,1,78.7200012011719,2|0,0:0|1:2,0:0:0:0:
180,114,74521,2,0,P|143:100|105:89,1,78.7200012011719,2|0,0:0|1:2,0:0:0:0:
228,234,74824,1,8,0:0:0:0:
228,234,74900,1,8,0:0:0:0:
228,234,74976,1,8,0:0:0:0:
89,59,75127,1,8,0:0:0:0:
33,223,75279,6,0,P|68:211|100:198,1,65.2800003984375,0|0,1:2|0:0,0:0:0:0:
218,115,75481,2,0,P|210:151|206:185,1,65.2800003984375,8|0,0:0|0:0,0:0:0:0:
199,328,75683,2,0,P|171:303|143:282,1,65.2800003984375,8|0,0:0|0:0,0:0:0:0:
322,191,75885,6,0,P|305:295|289:399,1,195.840001195313,6|0,1:2|1:2,0:0:0:0:
424,235,76340,1,2,0:0:0:0:
483,374,76491,2,0,P|434:357|381:343,1,88.3199970351563,4|0,1:2|0:0,0:0:0:0:
501,148,76794,1,2,1:2:0:0:
334,270,76946,1,8,3:0:0:0:
334,270,77021,1,8,3:0:0:0:
334,270,77097,6,0,B|241:255|258:329|158:308,1,176.639994070313,6|0,1:2|1:0,0:0:0:0:
278,146,77552,1,0,0:0:0:0:
139,40,77703,2,0,P|165:130|191:221,1,176.639994070313,6|0,1:2|0:0,0:0:0:0:
56,347,78158,1,0,3:0:0:0:
56,347,78233,1,0,3:0:0:0:
56,347,78309,6,0,P|66:300|81:255,1,88.3199970351563,14|0,0:0|0:2,0:0:0:0:
0,79,78612,2,0,P|13:121|22:164,1,88.3199970351563,8|0,0:0|0:2,0:0:0:0:
178,31,78915,1,8,0:0:0:0:
78,261,79067,1,0,1:2:0:0:
274,139,79218,2,0,P|228:124|181:114,1,88.3199970351563,8|0,0:0|0:2,0:0:0:0:
289,334,79521,6,0,P|367:353|440:266,1,176.639994070313,8|8,0:0|0:0,0:0:0:0:
423,94,79976,1,0,1:2:0:0:
423,94,80052,1,0,1:0:0:0:
423,94,80127,2,0,P|409:136|400:179,1,88.3199970351563,10|0,0:0|2:2,0:0:0:0:
249,43,80430,1,8,0:0:0:0:
342,261,80582,1,0,1:2:0:0:
113,196,80733,6,0,P|160:158|263:177,1,132.479995552735,10|0,0:0|0:0,0:0:0:0:
256,170,81037,1,8,0:0:0:0:
135,384,81188,1,2,1:2:0:0:
313,292,81340,2,0,P|267:277|220:267,1,88.3199970351563,8|0,0:0|2:2,0:0:0:0:
27,113,81643,2,0,P|68:99|111:89,1,88.3199970351563,10|0,0:0|1:0,0:0:0:0:
137,84,81870,1,0,1:0:0:0:
137,84,81946,6,0,P|123:126|114:169,1,88.3199970351563,8|0,0:0|2:2,0:0:0:0:
313,292,82249,2,0,P|303:248|289:206,1,88.3199970351563,8|0,0:0|2:2,0:0:0:0:
176,334,82552,1,8,0:0:0:0:
370,144,82703,1,0,1:2:0:0:
190,232,82855,1,8,0:0:0:0:
386,357,83006,1,0,1:2:0:0:
386,357,83082,1,0,1:0:0:0:
386,357,83158,6,0,P|432:342|479:332,1,88.3199970351563,14|0,0:0|2:0,0:0:0:0:
190,232,83461,2,0,P|144:217|97:207,1,88.3199970351563,8|0,0:0|2:2,0:0:0:0:
314,67,83764,1,8,0:0:0:0:
254,333,83915,1,0,1:2:0:0:
409,163,84067,2,0,P|422:204|432:247,1,88.3199970351563,8|0,0:0|2:2,0:0:0:0:
186,111,84370,6,0,P|196:82|207:43,1,58.8799980234376,8|8,0:0|0:0,0:0:0:0:
288,145,84572,1,8,0:0:0:0:
307,198,84673,1,8,3:0:0:0:
282,250,84774,1,8,3:0:0:0:
256,301,84875,1,8,3:0:0:0:
276,355,84976,6,0,B|316:340|351:325|351:325|402:357|402:357|437:343|479:326,1,207.3600050625,6|0,1:2|0:0,0:0:0:0:
427,159,85582,6,0,P|413:204|408:250,1,78.7200012011719,6|0,1:2|0:0,0:0:0:0:
353,78,85885,2,0,P|398:67|441:48,1,78.7200012011719,2|0,0:0|0:0,0:0:0:0:
311,172,86188,1,2,0:0:0:0:
311,172,86340,2,0,P|272:163|235:149,1,78.7200012011719,2|0,0:0|0:0,0:0:0:0:
129,71,86643,1,2,0:0:0:0:
183,258,86794,5,2,0:0:0:0:
105,206,86946,1,0,0:0:0:0:
105,206,87097,1,0,0:0:0:0:
148,334,87249,1,2,0:0:0:0:
224,176,87400,1,0,0:0:0:0:
75,289,87552,1,2,1:2:0:0:
217,384,87703,1,10,1:3:0:0:
79,122,87855,1,14,0:0:0:0:
