osu file format v14

[General]
AudioFilename: audio.ogg
AudioLeadIn: 0
PreviewTime: 50968
Countdown: 0
SampleSet: Normal
StackLeniency: 0.7
Mode: 1
LetterboxInBreaks: 0
WidescreenStoryboard: 0

[Editor]
Bookmarks: 10286,19983,39377,51499,78165,80589
DistanceSpacing: 1
BeatDivisor: 6
GridSize: 32
TimelineZoom: 2.1

[Metadata]
Title:OveR (TV Size)
TitleUnicode:OveR (TV Size)
Artist:Tomita Miyu
ArtistUnicode:富田美憂
Creator:Faputa
Version:Inner Oni
Source:デート・ア・ライブⅣ
Tags:Nardoxyribonucleic Date a live 4 IV four season op opening Jpop J-pop pop Jrock J-rock rock Japanese Anime
BeatmapID:3552589
BeatmapSetID:1738133

[Difficulty]
HPDrainRate:6
CircleSize:2
OverallDifficulty:6
ApproachRate:10
SliderMultiplier:1.4
SliderTickRate:1

[Events]
//Background and Video events
0,0,"date.jpg",0,0
//Break Periods
//Storyboard Layer 0 (Background)
//Storyboard Layer 1 (Fail)
//Storyboard Layer 2 (Pass)
//Storyboard Layer 3 (Foreground)
//Storyboard Layer 4 (Overlay)
//Storyboard Sound Samples

[TimingPoints]
590,303.030303030303,4,1,0,60,1,0
590,-125,4,1,0,60,0,0
5362,-125,4,1,0,65,0,0
5589,-123.809570975075,4,1,0,65,0,0
5741,-122.641451584221,4,1,0,65,0,0
6044,-120.370403806594,4,1,0,65,0,0
6196,-119.265989394868,4,1,0,65,0,0
6347,-118.181796694219,4,1,0,65,0,0
6650,-116.071490752584,4,1,0,65,0,0
6802,-115.044217244898,4,1,0,65,0,0
6953,-114.035097722377,4,1,0,65,0,0
7256,-112.068926872784,4,1,0,65,0,0
7408,-111.111111111111,4,1,0,65,0,0
7559,-110.169528871027,4,1,0,65,0,0
7862,-108.333324305556,4,1,0,65,0,0
8165,-106.557324643939,4,1,0,65,0,0
8317,-105.691039725034,4,1,0,65,0,0
8468,-104.838726586891,4,1,0,65,0,0
8771,-103.174578609227,4,1,0,65,0,0
9074,-101.562539672867,4,1,0,65,0,0
9377,-100,4,1,0,65,0,0
9605,-100,4,1,0,75,0,0
9832,-98.7654320987654,4,1,0,75,0,0
9908,-98.159509202454,4,1,0,75,0,0
9983,-97.5609756097561,4,1,0,75,0,0
10135,-96.3855421686747,4,1,0,75,0,0
10211,-95.2380952380952,4,1,0,85,0,0
20135,-125,4,1,0,60,0,0
29605,-121.212121212121,4,1,0,70,0,0
38696,-120.481927710843,4,1,0,70,0,0
38847,-119.760479041916,4,1,0,70,0,0
38999,-119.047619047619,4,1,0,70,0,0
39150,-118.343195266272,4,1,0,70,0,0
39302,-117.647058823529,4,1,0,80,0,0
45968,-116.959064327485,4,1,0,80,0,0
46120,-116.279069767442,4,1,0,80,0,0
46271,-115.606936416185,4,1,0,80,0,0
46423,-114.942528735632,4,1,0,80,0,0
46574,-114.285714285714,4,1,0,85,0,0
46953,-112.876626975482,4,1,0,85,0,0
47105,-112.184970579491,4,1,0,85,0,0
47408,-110.826901678806,4,1,0,85,0,0
47559,-110.160062570916,4,1,0,85,0,0
47862,-108.850290575851,4,1,0,85,0,0
48165,-107.571298256484,4,1,0,85,0,0
48317,-106.942950213779,4,1,0,85,0,0
48620,-105.708133500916,4,1,0,85,0,0
48771,-105.101301889827,4,1,0,85,0,0
49074,-103.908410970234,4,1,0,85,0,0
49377,-102.742294584762,4,1,0,85,0,0
49529,-102.168944523285,4,1,0,85,0,0
49832,-101.041331967255,4,1,0,85,0,0
49983,-100.48675785505,4,1,0,85,0,0
50135,-99.9382381688117,4,1,0,85,0,0
50286,-99.3957730953533,4,1,0,85,0,0
50438,-98.8590675019599,4,1,0,85,0,0
50514,-98.592882382635,4,1,0,85,0,0
50589,-98.3281268590161,4,1,0,85,0,0
50665,-98.0648856122142,4,1,0,85,0,0
50741,-97.8029544316475,4,1,0,85,0,0
51044,-96.7690741522061,4,1,0,85,0,0
51196,-96.2603804787799,4,1,0,85,0,0
51347,-95.7569153250325,4,1,0,85,0,0
51423,-95.2380952380952,4,1,0,90,0,0
51499,-95.2380952380952,4,1,0,90,0,1
70893,-95.2380952380952,4,1,0,90,0,0
71044,-100,4,1,0,75,0,0
77408,-97.5609756097561,4,1,0,75,0,0
77862,-95.6937799043062,4,1,0,75,0,0
78089,-95.2380952380952,4,1,0,85,0,0
84207,303.030303030303,4,1,0,85,1,0
84207,-95.2380952380952,4,1,0,85,0,0
85286,-100,4,1,0,85,0,0
85514,-100,4,1,0,40,0,0
85589,303.030303030303,4,1,0,40,1,8
86650,303.030303030303,4,1,0,40,1,0
87483,-95.2380952380952,4,1,0,90,0,0

[HitObjects]
256,192,590,5,0,0:0:0:0:
256,192,893,1,0,0:0:0:0:
256,192,1196,1,0,0:0:0:0:
256,192,1499,1,0,0:0:0:0:
256,192,1802,1,0,0:0:0:0:
256,192,2105,1,0,0:0:0:0:
256,192,2408,1,8,0:0:0:0:
256,192,2711,1,0,0:0:0:0:
256,192,3014,1,8,0:0:0:0:
256,192,3317,1,0,0:0:0:0:
256,192,3468,1,8,0:0:0:0:
256,192,3620,1,0,0:0:0:0:
256,192,3923,1,8,0:0:0:0:
256,192,4226,1,0,0:0:0:0:
256,192,4529,1,0,0:0:0:0:
256,192,4832,1,0,0:0:0:0:
256,192,5135,1,0,0:0:0:0:
256,192,5286,1,0,0:0:0:0:
256,192,5438,1,8,0:0:0:0:
256,192,5589,1,0,0:0:0:0:
256,192,5741,1,0,0:0:0:0:
256,192,6044,1,0,0:0:0:0:
256,192,6196,1,0,0:0:0:0:
256,192,6347,1,0,0:0:0:0:
256,192,6650,1,0,0:0:0:0:
256,192,6802,1,0,0:0:0:0:
256,192,6953,1,0,0:0:0:0:
256,192,7256,1,8,0:0:0:0:
256,192,7408,1,0,0:0:0:0:
256,192,7559,1,0,0:0:0:0:
256,192,7862,1,8,0:0:0:0:
256,192,8165,1,0,0:0:0:0:
256,192,8317,1,0,0:0:0:0:
256,192,8468,1,0,0:0:0:0:
256,192,8771,1,0,0:0:0:0:
256,192,9074,1,8,0:0:0:0:
256,192,9377,1,0,0:0:0:0:
256,192,9680,1,8,0:0:0:0:
256,192,9832,1,8,0:0:0:0:
256,192,9908,1,8,0:0:0:0:
256,192,9983,1,8,0:0:0:0:
256,192,10135,1,0,0:0:0:0:
256,192,10286,1,12,0:0:0:0:
256,192,10438,1,0,0:0:0:0:
256,192,10589,1,8,0:0:0:0:
256,192,10741,1,0,0:0:0:0:
256,192,10817,1,0,0:0:0:0:
256,192,10893,1,8,0:0:0:0:
256,192,10968,1,8,0:0:0:0:
256,192,11044,1,0,0:0:0:0:
256,192,11196,1,8,0:0:0:0:
256,192,11347,1,8,0:0:0:0:
256,192,11423,1,8,0:0:0:0:
256,192,11499,1,0,0:0:0:0:
256,192,11650,1,0,0:0:0:0:
256,192,11802,1,8,0:0:0:0:
256,192,11953,1,0,0:0:0:0:
256,192,12029,1,0,0:0:0:0:
256,192,12105,1,8,0:0:0:0:
256,192,12180,1,0,0:0:0:0:
256,192,12256,1,8,0:0:0:0:
256,192,12408,1,8,0:0:0:0:
256,192,12559,1,0,0:0:0:0:
256,192,12711,1,8,0:0:0:0:
256,192,12862,1,0,0:0:0:0:
256,192,12938,1,0,0:0:0:0:
256,192,13014,1,8,0:0:0:0:
256,192,13165,1,8,0:0:0:0:
256,192,13241,1,8,0:0:0:0:
256,192,13317,1,0,0:0:0:0:
256,192,13468,1,0,0:0:0:0:
256,192,13620,1,8,0:0:0:0:
256,192,13771,1,0,0:0:0:0:
256,192,13847,1,0,0:0:0:0:
256,192,13923,1,0,0:0:0:0:
256,192,14074,1,0,0:0:0:0:
256,192,14226,1,8,0:0:0:0:
256,192,14377,1,0,0:0:0:0:
256,192,14453,1,0,0:0:0:0:
256,192,14529,1,8,0:0:0:0:
256,192,14605,1,8,0:0:0:0:
256,192,14680,1,0,0:0:0:0:
256,192,14756,1,0,0:0:0:0:
256,192,14832,1,8,0:0:0:0:
256,192,14983,1,0,0:0:0:0:
256,192,15135,1,12,0:0:0:0:
256,192,15286,1,0,0:0:0:0:
256,192,15438,1,8,0:0:0:0:
256,192,15589,1,0,0:0:0:0:
256,192,15665,1,8,0:0:0:0:
256,192,15741,1,8,0:0:0:0:
256,192,15817,1,8,0:0:0:0:
256,192,15893,1,0,0:0:0:0:
256,192,16044,1,8,0:0:0:0:
256,192,16196,1,0,0:0:0:0:
256,192,16271,1,0,0:0:0:0:
256,192,16347,1,8,0:0:0:0:
256,192,16499,1,0,0:0:0:0:
256,192,16650,1,8,0:0:0:0:
256,192,16802,1,0,0:0:0:0:
256,192,16877,1,0,0:0:0:0:
256,192,16953,1,8,0:0:0:0:
256,192,17029,1,8,0:0:0:0:
256,192,17105,1,8,0:0:0:0:
256,192,17256,1,0,0:0:0:0:
256,192,17408,1,0,0:0:0:0:
256,192,17559,1,12,0:0:0:0:
256,192,17862,1,8,0:0:0:0:
256,192,18014,1,4,0:0:0:0:
256,192,18468,1,12,0:0:0:0:
256,192,18771,1,8,0:0:0:0:
256,192,18923,1,4,0:0:0:0:
256,192,19302,1,8,0:0:0:0:
256,192,19377,1,0,0:0:0:0:
256,192,19529,1,8,0:0:0:0:
256,192,19680,1,0,0:0:0:0:
256,192,19832,1,8,0:0:0:0:
256,192,20589,1,0,0:0:0:0:
256,192,20741,1,8,0:0:0:0:
256,192,20893,1,8,0:0:0:0:
256,192,21044,1,0,0:0:0:0:
256,192,21347,1,0,0:0:0:0:
256,192,21802,1,0,0:0:0:0:
256,192,21953,1,8,0:0:0:0:
256,192,22105,1,8,0:0:0:0:
256,192,22256,1,0,0:0:0:0:
256,192,22559,1,0,0:0:0:0:
256,192,22862,1,8,0:0:0:0:
256,192,23317,1,8,0:0:0:0:
256,192,23468,1,0,0:0:0:0:
256,192,23771,1,8,0:0:0:0:
256,192,23923,1,8,0:0:0:0:
256,192,25438,1,0,0:0:0:0:
256,192,25589,1,8,0:0:0:0:
256,192,25741,1,8,0:0:0:0:
256,192,25893,1,0,0:0:0:0:
256,192,26196,1,0,0:0:0:0:
256,192,26650,1,8,0:0:0:0:
256,192,26802,1,0,0:0:0:0:
256,192,26953,1,0,0:0:0:0:
256,192,27105,1,8,0:0:0:0:
256,192,27408,1,8,0:0:0:0:
256,192,27711,1,0,0:0:0:0:
256,192,28014,1,0,0:0:0:0:
256,192,28317,1,8,0:0:0:0:
256,192,28468,1,8,0:0:0:0:
256,192,28620,1,0,0:0:0:0:
256,192,28771,1,0,0:0:0:0:
256,192,28923,1,8,0:0:0:0:
256,192,29226,1,0,0:0:0:0:
256,192,29377,1,0,0:0:0:0:
256,192,29680,1,8,0:0:0:0:
256,192,29983,1,0,0:0:0:0:
256,192,30286,1,8,0:0:0:0:
256,192,30438,1,0,0:0:0:0:
256,192,30589,1,0,0:0:0:0:
256,192,30741,1,8,0:0:0:0:
256,192,31044,1,0,0:0:0:0:
256,192,31196,1,0,0:0:0:0:
256,192,31499,1,8,0:0:0:0:
256,192,31650,1,0,0:0:0:0:
256,192,31802,1,0,0:0:0:0:
256,192,31953,1,8,0:0:0:0:
256,192,32256,1,0,0:0:0:0:
256,192,32408,1,0,0:0:0:0:
256,192,32559,1,8,0:0:0:0:
256,192,32862,1,0,0:0:0:0:
256,192,33014,1,8,0:0:0:0:
256,192,33165,1,8,0:0:0:0:
256,192,33468,1,0,0:0:0:0:
256,192,33620,1,8,0:0:0:0:
256,192,33771,1,0,0:0:0:0:
256,192,33923,1,8,0:0:0:0:
256,192,34074,1,8,0:0:0:0:
256,192,34226,1,0,0:0:0:0:
256,192,34377,1,0,0:0:0:0:
256,192,34529,1,0,0:0:0:0:
256,192,34832,1,0,0:0:0:0:
256,192,35135,1,8,0:0:0:0:
256,192,35286,1,0,0:0:0:0:
256,192,35438,1,0,0:0:0:0:
256,192,35589,1,8,0:0:0:0:
256,192,35893,1,0,0:0:0:0:
256,192,36044,1,0,0:0:0:0:
256,192,36347,1,8,0:0:0:0:
256,192,36499,1,0,0:0:0:0:
256,192,36650,1,8,0:0:0:0:
256,192,36802,1,8,0:0:0:0:
256,192,37105,1,8,0:0:0:0:
256,192,37256,1,0,0:0:0:0:
256,192,37408,1,8,0:0:0:0:
256,192,37711,1,0,0:0:0:0:
256,192,37862,1,0,0:0:0:0:
256,192,38014,1,8,0:0:0:0:
256,192,38317,1,0,0:0:0:0:
256,192,38468,1,0,0:0:0:0:
256,192,38620,1,0,0:0:0:0:
256,192,38771,1,8,0:0:0:0:
256,192,38923,1,8,0:0:0:0:
256,192,39074,1,0,0:0:0:0:
256,192,39226,1,0,0:0:0:0:
256,192,39377,1,12,0:0:0:0:
256,192,39832,1,0,0:0:0:0:
256,192,39983,1,8,0:0:0:0:
256,192,40286,1,0,0:0:0:0:
256,192,40438,1,0,0:0:0:0:
256,192,40514,1,0,0:0:0:0:
256,192,40589,1,8,0:0:0:0:
256,192,40741,1,8,0:0:0:0:
256,192,40893,1,0,0:0:0:0:
256,192,41044,1,0,0:0:0:0:
256,192,41196,1,8,0:0:0:0:
256,192,41347,1,0,0:0:0:0:
256,192,41499,1,8,0:0:0:0:
256,192,41650,1,8,0:0:0:0:
256,192,41802,1,0,0:0:0:0:
256,192,41953,1,8,0:0:0:0:
256,192,42256,1,8,0:0:0:0:
256,192,42408,1,0,0:0:0:0:
256,192,42711,1,8,0:0:0:0:
256,192,42862,1,8,0:0:0:0:
256,192,42938,1,8,0:0:0:0:
256,192,43014,1,0,0:0:0:0:
256,192,43165,1,8,0:0:0:0:
256,192,43468,1,0,0:0:0:0:
256,192,43620,1,8,0:0:0:0:
256,192,43771,1,8,0:0:0:0:
256,192,43847,1,8,0:0:0:0:
256,192,43923,1,0,0:0:0:0:
256,192,44074,1,0,0:0:0:0:
256,192,44226,1,8,0:0:0:0:
256,192,44529,1,0,0:0:0:0:
256,192,44680,1,0,0:0:0:0:
256,192,44832,1,8,0:0:0:0:
256,192,44983,1,0,0:0:0:0:
256,192,45135,1,8,0:0:0:0:
256,192,45286,1,8,0:0:0:0:
256,192,45589,1,0,0:0:0:0:
256,192,45665,1,0,0:0:0:0:
256,192,45741,1,8,0:0:0:0:
256,192,45893,1,0,0:0:0:0:
256,192,46044,1,8,0:0:0:0:
256,192,46196,1,8,0:0:0:0:
256,192,46347,1,0,0:0:0:0:
256,192,46499,1,0,0:0:0:0:
256,192,46650,1,12,0:0:0:0:
256,192,46953,1,8,0:0:0:0:
256,192,47105,1,4,0:0:0:0:
256,192,47408,1,0,0:0:0:0:
256,192,47559,1,12,0:0:0:0:
256,192,47862,1,4,0:0:0:0:
256,192,48165,1,0,0:0:0:0:
256,192,48317,1,12,0:0:0:0:
256,192,48620,1,8,0:0:0:0:
256,192,48771,1,4,0:0:0:0:
256,192,49074,1,12,0:0:0:0:
256,192,49377,1,8,0:0:0:0:
256,192,49529,1,4,0:0:0:0:
256,192,49832,1,0,0:0:0:0:
256,192,49983,1,8,0:0:0:0:
256,192,50135,1,0,0:0:0:0:
256,192,50286,1,8,0:0:0:0:
256,192,50438,1,0,0:0:0:0:
256,192,50514,1,0,0:0:0:0:
256,192,50589,1,8,0:0:0:0:
256,192,50665,1,8,0:0:0:0:
256,192,50741,1,8,0:0:0:0:
256,192,51044,1,0,0:0:0:0:
256,192,51196,1,0,0:0:0:0:
256,192,51347,1,0,0:0:0:0:
256,192,51499,1,12,0:0:0:0:
256,192,51650,1,0,0:0:0:0:
256,192,51802,1,8,0:0:0:0:
256,192,51953,1,8,0:0:0:0:
256,192,52029,1,8,0:0:0:0:
256,192,52105,1,0,0:0:0:0:
256,192,52256,1,0,0:0:0:0:
256,192,52332,1,8,0:0:0:0:
256,192,52408,1,0,0:0:0:0:
256,192,52559,1,12,0:0:0:0:
256,192,52862,1,12,0:0:0:0:
256,192,53165,1,4,0:0:0:0:
256,192,53468,1,0,0:0:0:0:
256,192,53620,1,8,0:0:0:0:
256,192,53771,1,0,0:0:0:0:
256,192,53923,1,12,0:0:0:0:
256,192,54074,1,0,0:0:0:0:
256,192,54150,1,0,0:0:0:0:
256,192,54226,1,8,0:0:0:0:
256,192,54377,1,8,0:0:0:0:
256,192,54529,1,0,0:0:0:0:
256,192,54605,1,8,0:0:0:0:
256,192,54680,1,8,0:0:0:0:
256,192,54756,1,0,0:0:0:0:
256,192,54832,1,8,0:0:0:0:
256,192,54983,1,4,0:0:0:0:
256,192,55286,1,12,0:0:0:0:
256,192,55589,1,4,0:0:0:0:
256,192,55893,1,8,0:0:0:0:
256,192,56044,1,0,0:0:0:0:
256,192,56196,1,12,0:0:0:0:
256,192,56499,1,0,0:0:0:0:
256,192,56574,1,0,0:0:0:0:
256,192,56650,1,8,0:0:0:0:
256,192,56802,1,8,0:0:0:0:
256,192,56953,1,0,0:0:0:0:
256,192,57105,1,0,0:0:0:0:
256,192,57256,1,8,0:0:0:0:
256,192,57408,1,0,0:0:0:0:
256,192,57483,1,0,0:0:0:0:
256,192,57559,1,8,0:0:0:0:
256,192,57635,1,8,0:0:0:0:
256,192,57711,1,0,0:0:0:0:
256,192,57862,1,8,0:0:0:0:
256,192,58014,1,8,0:0:0:0:
256,192,58165,1,0,0:0:0:0:
256,192,58241,1,0,0:0:0:0:
256,192,58317,1,8,0:0:0:0:
256,192,58468,1,0,0:0:0:0:
256,192,58620,1,0,0:0:0:0:
256,192,58771,1,8,0:0:0:0:
256,192,58923,1,8,0:0:0:0:
256,192,58999,1,8,0:0:0:0:
256,192,59074,1,0,0:0:0:0:
256,192,59226,1,8,0:0:0:0:
256,192,59377,1,0,0:0:0:0:
256,192,59529,1,0,0:0:0:0:
256,192,59680,1,8,0:0:0:0:
256,192,59832,1,0,0:0:0:0:
256,192,59908,1,0,0:0:0:0:
256,192,59983,1,8,0:0:0:0:
256,192,60135,1,8,0:0:0:0:
256,192,60211,1,8,0:0:0:0:
256,192,60286,1,0,0:0:0:0:
256,192,60438,1,12,0:0:0:0:
256,192,60741,1,4,0:0:0:0:
256,192,61044,1,12,0:0:0:0:
256,192,61347,1,0,0:0:0:0:
256,192,61423,1,0,0:0:0:0:
256,192,61499,1,8,0:0:0:0:
256,192,61650,1,0,0:0:0:0:
256,192,61802,1,8,0:0:0:0:
256,192,61953,1,8,0:0:0:0:
256,192,62029,1,8,0:0:0:0:
256,192,62105,1,0,0:0:0:0:
256,192,62256,1,8,0:0:0:0:
256,192,62408,1,0,0:0:0:0:
256,192,62559,1,8,0:0:0:0:
256,192,62711,1,0,0:0:0:0:
256,192,62862,1,8,0:0:0:0:
256,192,62938,1,8,0:0:0:0:
256,192,63014,1,0,0:0:0:0:
256,192,63089,1,8,0:0:0:0:
256,192,63165,1,0,0:0:0:0:
256,192,63317,1,0,0:0:0:0:
256,192,63468,1,12,0:0:0:0:
256,192,63771,1,0,0:0:0:0:
256,192,63847,1,0,0:0:0:0:
256,192,63923,1,8,0:0:0:0:
256,192,64074,1,0,0:0:0:0:
256,192,64226,1,8,0:0:0:0:
256,192,64302,1,0,0:0:0:0:
256,192,64377,1,8,0:0:0:0:
256,192,64529,1,8,0:0:0:0:
256,192,64680,1,0,0:0:0:0:
256,192,64832,1,0,0:0:0:0:
256,192,64983,1,8,0:0:0:0:
256,192,65135,1,8,0:0:0:0:
256,192,65286,1,0,0:0:0:0:
256,192,65362,1,0,0:0:0:0:
256,192,65438,1,8,0:0:0:0:
256,192,65514,1,8,0:0:0:0:
256,192,65590,1,0,0:0:0:0:
256,192,65741,1,0,0:0:0:0:
256,192,65893,1,12,0:0:0:0:
256,192,66196,1,0,0:0:0:0:
256,192,66347,1,8,0:0:0:0:
256,192,66499,1,8,0:0:0:0:
256,192,66650,1,0,0:0:0:0:
256,192,66802,1,0,0:0:0:0:
256,192,66877,1,0,0:0:0:0:
256,192,66953,1,8,0:0:0:0:
256,192,67105,1,8,0:0:0:0:
256,192,67256,1,0,0:0:0:0:
256,192,67408,1,0,0:0:0:0:
256,192,67559,1,8,0:0:0:0:
256,192,67711,1,8,0:0:0:0:
256,192,67786,1,8,0:0:0:0:
256,192,67862,1,0,0:0:0:0:
256,192,68014,1,0,0:0:0:0:
256,192,68165,1,8,0:0:0:0:
256,192,68317,1,0,0:0:0:0:
256,192,68468,1,12,0:0:0:0:
256,192,68771,1,8,0:0:0:0:
256,192,68923,1,0,0:0:0:0:
256,192,68999,1,0,0:0:0:0:
256,192,69074,1,8,0:0:0:0:
256,192,69226,1,8,0:0:0:0:
256,192,69377,1,0,0:0:0:0:
256,192,69529,1,0,0:0:0:0:
256,192,69680,1,8,0:0:0:0:
256,192,69832,1,0,0:0:0:0:
256,192,69983,1,8,0:0:0:0:
256,192,70135,1,0,0:0:0:0:
256,192,70211,1,0,0:0:0:0:
256,192,70286,1,8,0:0:0:0:
256,192,70362,1,8,0:0:0:0:
256,192,70438,1,0,0:0:0:0:
256,192,70589,1,8,0:0:0:0:
256,192,70691,1,0,0:0:0:0:
256,192,70792,1,0,0:0:0:0:
256,192,70893,1,8,0:0:0:0:
256,192,71347,1,8,0:0:0:0:
256,192,71650,1,8,0:0:0:0:
256,192,71953,1,8,0:0:0:0:
256,192,72105,1,0,0:0:0:0:
256,192,72256,1,8,0:0:0:0:
256,192,72332,1,8,0:0:0:0:
256,192,72408,1,8,0:0:0:0:
256,192,72559,1,0,0:0:0:0:
256,192,72711,1,8,0:0:0:0:
256,192,72913,1,0,0:0:0:0:
256,192,73115,1,0,0:0:0:0:
256,192,73317,1,12,0:0:0:0:
256,192,73620,1,0,0:0:0:0:
256,192,73771,1,8,0:0:0:0:
256,192,73847,1,8,0:0:0:0:
256,192,73923,1,0,0:0:0:0:
256,192,74074,1,8,0:0:0:0:
256,192,74226,1,0,0:0:0:0:
256,192,74377,1,8,0:0:0:0:
256,192,74680,1,8,0:0:0:0:
256,192,74756,1,8,0:0:0:0:
256,192,74832,1,0,0:0:0:0:
256,192,74983,1,0,0:0:0:0:
256,192,75135,1,8,0:0:0:0:
256,192,75236,1,0,0:0:0:0:
256,192,75337,1,8,0:0:0:0:
256,192,75438,1,8,0:0:0:0:
256,192,75539,1,0,0:0:0:0:
256,192,75640,1,0,0:0:0:0:
256,192,75741,1,12,0:0:0:0:
256,192,76044,1,0,0:0:0:0:
256,192,76196,1,0,0:0:0:0:
256,192,76347,1,12,0:0:0:0:
256,192,76650,1,8,0:0:0:0:
256,192,76802,1,8,0:0:0:0:
256,192,76953,1,4,0:0:0:0:
256,192,77559,1,12,0:0:0:0:
256,192,78014,1,8,0:0:0:0:
256,192,78165,1,4,0:0:0:0:
256,192,78317,1,0,0:0:0:0:
256,192,78468,1,8,0:0:0:0:
256,192,78620,1,0,0:0:0:0:
256,192,78696,1,0,0:0:0:0:
256,192,78771,1,8,0:0:0:0:
256,192,78923,1,0,0:0:0:0:
256,192,79074,1,8,0:0:0:0:
256,192,79226,1,0,0:0:0:0:
256,192,79302,1,0,0:0:0:0:
256,192,79377,1,8,0:0:0:0:
256,192,79453,1,8,0:0:0:0:
256,192,79529,1,0,0:0:0:0:
256,192,79680,1,8,0:0:0:0:
256,192,79832,1,0,0:0:0:0:
256,192,79983,1,8,0:0:0:0:
256,192,80059,1,8,0:0:0:0:
256,192,80135,1,0,0:0:0:0:
256,192,80286,1,8,0:0:0:0:
256,192,80438,1,0,0:0:0:0:
256,192,80589,1,8,0:0:0:0:
256,192,80741,1,0,0:0:0:0:
256,192,80817,1,0,0:0:0:0:
256,192,80893,1,8,0:0:0:0:
256,192,81044,1,8,0:0:0:0:
256,192,81120,1,0,0:0:0:0:
256,192,81196,1,8,0:0:0:0:
256,192,81347,1,0,0:0:0:0:
256,192,81499,1,8,0:0:0:0:
256,192,81650,1,0,0:0:0:0:
256,192,81726,1,0,0:0:0:0:
256,192,81802,1,8,0:0:0:0:
256,192,81953,1,0,0:0:0:0:
256,192,82105,1,8,0:0:0:0:
256,192,82256,1,0,0:0:0:0:
256,192,82332,1,8,0:0:0:0:
256,192,82408,1,8,0:0:0:0:
256,192,82483,1,8,0:0:0:0:
256,192,82559,1,0,0:0:0:0:
256,192,82635,1,0,0:0:0:0:
256,192,82711,1,8,0:0:0:0:
256,192,82862,1,0,0:0:0:0:
256,192,83014,1,12,0:0:0:0:
256,192,83165,1,0,0:0:0:0:
256,192,83317,1,8,0:0:0:0:
256,192,83468,1,0,0:0:0:0:
256,192,83544,1,8,0:0:0:0:
256,192,83620,1,8,0:0:0:0:
256,192,83696,1,8,0:0:0:0:
256,192,83771,1,0,0:0:0:0:
256,192,83923,1,8,0:0:0:0:
256,192,84207,1,8,0:0:0:0:
256,192,84308,1,8,0:0:0:0:
256,192,84409,1,8,0:0:0:0:
256,192,84510,1,0,0:0:0:0:
256,192,84611,1,0,0:0:0:0:
256,192,84712,1,0,0:0:0:0:
256,192,84813,1,8,0:0:0:0:
256,192,85419,1,4,0:0:0:0:
256,192,85589,12,0,87407,0:0:0:0:
256,192,87559,5,12,0:0:0:0:
256,192,87710,1,12,0:0:0:0:
