osu file format v14

[General]
AudioFilename: audio.ogg
AudioLeadIn: 0
PreviewTime: 50968
Countdown: 0
SampleSet: Normal
StackLeniency: 0.7
Mode: 1
LetterboxInBreaks: 0
WidescreenStoryboard: 1

[Editor]
Bookmarks: 10286,19983,39377,51499,78165,80589
DistanceSpacing: 1
BeatDivisor: 4
GridSize: 32
TimelineZoom: 1.2

[Metadata]
Title:OveR (TV Size)
TitleUnicode:OveR (TV Size)
Artist:Tomita Miyu
ArtistUnicode:富田美憂
Creator:Faputa
Version:Futsuu
Source:デート・ア・ライブⅣ
Tags:Nardoxyribonucleic Date a live 4 IV four season op opening Jpop J-pop pop Jrock J-rock rock Japanese Anime
BeatmapID:3556902
BeatmapSetID:1738133

[Difficulty]
HPDrainRate:7
CircleSize:2
OverallDifficulty:4
ApproachRate:10
SliderMultiplier:1.4
SliderTickRate:1

[Events]
//Background and Video events
0,0,"date.jpg",0,0
//Break Periods
//Storyboard Layer 0 (Background)
//Storyboard Layer 1 (Fail)
//Storyboard Layer 2 (Pass)
//Storyboard Layer 3 (Foreground)
//Storyboard Layer 4 (Overlay)
//Storyboard Sound Samples

[TimingPoints]
590,303.030303030303,4,1,0,60,1,0
590,-105.263157894737,4,1,0,60,0,0
5362,-105.263157894737,4,1,0,65,0,0
9605,-105.263157894737,4,1,0,75,0,0
10211,-105.263157894737,4,1,0,85,0,0
20135,-105.263157894737,4,1,0,60,0,0
29605,-105.263157894737,4,1,0,70,0,0
39302,-105.263157894737,4,1,0,80,0,0
46574,-105.263157894737,4,1,0,85,0,0
51423,-105.263157894737,4,1,0,90,0,0
51499,-105.263157894737,4,1,0,90,0,1
70893,-105.263157894737,4,1,0,90,0,0
71044,-105.263157894737,4,1,0,75,0,0
78089,-105.263157894737,4,1,0,85,0,0
84207,303.030303030303,4,1,0,85,1,0
84207,-105.263157894737,4,1,0,85,0,0
85514,-105.263157894737,4,1,0,40,0,0
85589,303.030303030303,4,1,0,40,1,8
85589,-105.263157894737,4,1,0,40,0,0
86650,303.030303030303,4,1,0,40,1,0
86650,-105.263157894737,4,1,0,40,0,0
87483,-105.263157894737,4,1,0,90,0,0

[HitObjects]
256,192,590,5,0,0:0:0:0:
256,192,2408,1,0,0:0:0:0:
256,192,3014,1,8,0:0:0:0:
256,192,3468,1,8,0:0:0:0:
256,192,3923,1,8,0:0:0:0:
256,192,5438,1,0,0:0:0:0:
256,192,7256,1,0,0:0:0:0:
256,192,7862,1,8,0:0:0:0:
256,192,9680,1,8,0:0:0:0:
256,192,9832,1,8,0:0:0:0:
256,192,9983,1,0,0:0:0:0:
256,192,10286,1,12,0:0:0:0:
256,192,10589,1,8,0:0:0:0:
256,192,11044,1,0,0:0:0:0:
256,192,11196,1,8,0:0:0:0:
256,192,11347,1,0,0:0:0:0:
256,192,11650,1,0,0:0:0:0:
256,192,11802,1,8,0:0:0:0:
256,192,12105,1,8,0:0:0:0:
256,192,12408,1,0,0:0:0:0:
256,192,12711,1,8,0:0:0:0:
256,192,13014,1,0,0:0:0:0:
256,192,13165,1,8,0:0:0:0:
256,192,13468,1,0,0:0:0:0:
256,192,13620,1,8,0:0:0:0:
256,192,14226,1,8,0:0:0:0:
256,192,14529,1,0,0:0:0:0:
256,192,14680,1,0,0:0:0:0:
256,192,14832,1,8,0:0:0:0:
256,192,15135,1,12,0:0:0:0:
256,192,15438,1,8,0:0:0:0:
256,192,15893,1,0,0:0:0:0:
256,192,16044,1,8,0:0:0:0:
256,192,16196,1,0,0:0:0:0:
256,192,16499,1,0,0:0:0:0:
256,192,16650,1,8,0:0:0:0:
256,192,16953,1,8,0:0:0:0:
256,192,17105,1,8,0:0:0:0:
256,192,17256,1,0,0:0:0:0:
256,192,17559,1,12,0:0:0:0:
256,192,18014,1,4,0:0:0:0:
256,192,18468,1,12,0:0:0:0:
256,192,18923,1,4,0:0:0:0:
256,192,19377,1,0,0:0:0:0:
256,192,19529,1,0,0:0:0:0:
256,192,19680,1,0,0:0:0:0:
256,192,19832,1,8,0:0:0:0:
256,192,20590,1,8,0:0:0:0:
256,192,21196,1,0,0:0:0:0:
256,192,21499,1,0,0:0:0:0:
256,192,21802,1,8,0:0:0:0:
256,192,22408,1,8,0:0:0:0:
256,192,22711,1,0,0:0:0:0:
256,192,23014,1,8,0:0:0:0:
256,192,23620,1,0,0:0:0:0:
256,192,23923,1,0,0:0:0:0:
256,192,24226,1,8,0:0:0:0:
256,192,24529,1,8,0:0:0:0:
256,192,24832,1,0,0:0:0:0:
256,192,25438,1,8,0:0:0:0:
256,192,26044,1,0,0:0:0:0:
256,192,26347,1,0,0:0:0:0:
256,192,26650,1,8,0:0:0:0:
256,192,27256,1,8,0:0:0:0:
256,192,27559,1,0,0:0:0:0:
256,192,27862,1,8,0:0:0:0:
256,192,28468,1,0,0:0:0:0:
256,192,28771,1,0,0:0:0:0:
256,192,29074,1,8,0:0:0:0:
256,192,29377,1,8,0:0:0:0:
256,192,29680,1,0,0:0:0:0:
256,192,30286,1,8,0:0:0:0:
256,192,30590,1,8,0:0:0:0:
256,192,30893,1,0,0:0:0:0:
256,192,31196,1,0,0:0:0:0:
256,192,31499,1,8,0:0:0:0:
256,192,31802,1,8,0:0:0:0:
256,192,32105,1,0,0:0:0:0:
256,192,32711,1,8,0:0:0:0:
256,192,33014,1,8,0:0:0:0:
256,192,33317,1,0,0:0:0:0:
256,192,33620,1,0,0:0:0:0:
256,192,33923,1,8,0:0:0:0:
256,192,34226,1,0,0:0:0:0:
256,192,34529,1,8,0:0:0:0:
256,192,35135,1,8,0:0:0:0:
256,192,35438,1,8,0:0:0:0:
256,192,35741,1,0,0:0:0:0:
256,192,36044,1,0,0:0:0:0:
256,192,36347,1,8,0:0:0:0:
256,192,36650,1,8,0:0:0:0:
256,192,36953,1,0,0:0:0:0:
256,192,37559,1,8,0:0:0:0:
256,192,37862,1,0,0:0:0:0:
256,192,38165,1,8,0:0:0:0:
256,192,38468,1,8,0:0:0:0:
256,192,38771,1,0,0:0:0:0:
256,192,39074,1,0,0:0:0:0:
256,192,39377,1,12,0:0:0:0:
256,192,39983,1,8,0:0:0:0:
256,192,40438,1,0,0:0:0:0:
256,192,40741,1,8,0:0:0:0:
256,192,41044,1,0,0:0:0:0:
256,192,41196,1,8,0:0:0:0:
256,192,41499,1,8,0:0:0:0:
256,192,41802,1,0,0:0:0:0:
256,192,42256,1,0,0:0:0:0:
256,192,42408,1,8,0:0:0:0:
256,192,42711,1,0,0:0:0:0:
256,192,42862,1,8,0:0:0:0:
256,192,43165,1,8,0:0:0:0:
256,192,43468,1,0,0:0:0:0:
256,192,43620,1,8,0:0:0:0:
256,192,43923,1,0,0:0:0:0:
256,192,44226,1,8,0:0:0:0:
256,192,44832,1,8,0:0:0:0:
256,192,45286,1,0,0:0:0:0:
256,192,45589,1,8,0:0:0:0:
256,192,45893,1,0,0:0:0:0:
256,192,46044,1,8,0:0:0:0:
256,192,46347,1,0,0:0:0:0:
256,192,46650,1,12,0:0:0:0:
256,192,47105,1,4,0:0:0:0:
256,192,47559,1,12,0:0:0:0:
256,192,47862,1,4,0:0:0:0:
256,192,48317,1,12,0:0:0:0:
256,192,48771,1,4,0:0:0:0:
256,192,49074,1,12,0:0:0:0:
256,192,49529,1,4,0:0:0:0:
256,192,49983,1,8,0:0:0:0:
256,192,50286,1,8,0:0:0:0:
256,192,50438,1,0,0:0:0:0:
256,192,50589,1,0,0:0:0:0:
256,192,50741,1,8,0:0:0:0:
256,192,51499,1,12,0:0:0:0:
256,192,51802,1,8,0:0:0:0:
256,192,52105,1,8,0:0:0:0:
256,192,52256,1,0,0:0:0:0:
256,192,52408,1,0,0:0:0:0:
256,192,52559,1,12,0:0:0:0:
256,192,52862,1,12,0:0:0:0:
256,192,53165,1,4,0:0:0:0:
256,192,53923,1,12,0:0:0:0:
256,192,54226,1,8,0:0:0:0:
256,192,54529,1,8,0:0:0:0:
256,192,54680,1,0,0:0:0:0:
256,192,54832,1,8,0:0:0:0:
256,192,54983,1,4,0:0:0:0:
256,192,55286,1,12,0:0:0:0:
256,192,55589,1,4,0:0:0:0:
256,192,56044,1,0,0:0:0:0:
256,192,56196,1,12,0:0:0:0:
256,192,56650,1,8,0:0:0:0:
256,192,56802,1,8,0:0:0:0:
256,192,57256,1,0,0:0:0:0:
256,192,57408,1,0,0:0:0:0:
256,192,57862,1,8,0:0:0:0:
256,192,58014,1,8,0:0:0:0:
256,192,58317,1,0,0:0:0:0:
256,192,58771,1,8,0:0:0:0:
256,192,58923,1,0,0:0:0:0:
256,192,59226,1,8,0:0:0:0:
256,192,59983,1,8,0:0:0:0:
256,192,60135,1,8,0:0:0:0:
256,192,60438,1,12,0:0:0:0:
256,192,60741,1,4,0:0:0:0:
256,192,61044,1,12,0:0:0:0:
256,192,61499,1,8,0:0:0:0:
256,192,61802,1,8,0:0:0:0:
256,192,61953,1,0,0:0:0:0:
256,192,62105,1,0,0:0:0:0:
256,192,62256,1,8,0:0:0:0:
256,192,62559,1,8,0:0:0:0:
256,192,62862,1,8,0:0:0:0:
256,192,63468,1,12,0:0:0:0:
256,192,63771,1,0,0:0:0:0:
256,192,63923,1,8,0:0:0:0:
256,192,64226,1,8,0:0:0:0:
256,192,64377,1,0,0:0:0:0:
256,192,64529,1,0,0:0:0:0:
256,192,64680,1,8,0:0:0:0:
256,192,64983,1,8,0:0:0:0:
256,192,65286,1,0,0:0:0:0:
256,192,65590,1,0,0:0:0:0:
256,192,65741,1,0,0:0:0:0:
256,192,65893,1,12,0:0:0:0:
256,192,66347,1,8,0:0:0:0:
256,192,66499,1,8,0:0:0:0:
256,192,66953,1,0,0:0:0:0:
256,192,67105,1,0,0:0:0:0:
256,192,67559,1,8,0:0:0:0:
256,192,67711,1,0,0:0:0:0:
256,192,68014,1,8,0:0:0:0:
256,192,68468,1,12,0:0:0:0:
256,192,69074,1,0,0:0:0:0:
256,192,69377,1,8,0:0:0:0:
256,192,69680,1,0,0:0:0:0:
256,192,69832,1,0,0:0:0:0:
256,192,69983,1,8,0:0:0:0:
256,192,70286,1,8,0:0:0:0:
256,192,70438,1,8,0:0:0:0:
256,192,70589,1,0,0:0:0:0:
256,192,70893,1,8,0:0:0:0:
256,192,71347,1,8,0:0:0:0:
256,192,71650,1,8,0:0:0:0:
256,192,71953,1,8,0:0:0:0:
256,192,72711,1,0,0:0:0:0:
256,192,72913,1,0,0:0:0:0:
256,192,73115,1,0,0:0:0:0:
256,192,73317,1,12,0:0:0:0:
256,192,73771,1,8,0:0:0:0:
256,192,74074,1,0,0:0:0:0:
256,192,74377,1,8,0:0:0:0:
256,192,75135,1,0,0:0:0:0:
256,192,75337,1,0,0:0:0:0:
256,192,75539,1,0,0:0:0:0:
256,192,75741,1,12,0:0:0:0:
256,192,76347,1,12,0:0:0:0:
256,192,76953,1,4,0:0:0:0:
256,192,77559,1,12,0:0:0:0:
256,192,78165,1,4,0:0:0:0:
256,192,78468,1,8,0:0:0:0:
256,192,78771,1,8,0:0:0:0:
256,192,79075,1,8,0:0:0:0:
256,192,79226,1,0,0:0:0:0:
256,192,79377,1,0,0:0:0:0:
256,192,79681,1,8,0:0:0:0:
256,192,79984,1,8,0:0:0:0:
256,192,80287,1,0,0:0:0:0:
256,192,80590,1,8,0:0:0:0:
256,192,80893,1,0,0:0:0:0:
256,192,81044,1,8,0:0:0:0:
256,192,81347,1,0,0:0:0:0:
256,192,81499,1,8,0:0:0:0:
256,192,82105,1,8,0:0:0:0:
256,192,82408,1,0,0:0:0:0:
256,192,82559,1,0,0:0:0:0:
256,192,82711,1,8,0:0:0:0:
256,192,83014,1,12,0:0:0:0:
256,192,83317,1,8,0:0:0:0:
256,192,83620,1,0,0:0:0:0:
256,192,83923,1,8,0:0:0:0:
256,192,84207,1,0,0:0:0:0:
256,192,84510,1,0,0:0:0:0:
256,192,84813,1,8,0:0:0:0:
256,192,85419,1,4,0:0:0:0:
256,192,85589,12,0,87104,0:0:0:0:
256,192,87559,5,8,0:0:0:0:
256,192,87710,1,8,0:0:0:0:
