osu file format v14

[General]
AudioFilename: audio.mp3
AudioLeadIn: 0
PreviewTime: 58178
Countdown: 0
SampleSet: Soft
StackLeniency: 0.7
Mode: 0
LetterboxInBreaks: 0
WidescreenStoryboard: 1

[Editor]
DistanceSpacing: 1
BeatDivisor: 2
GridSize: 4
TimelineZoom: 1.2

[Metadata]
Title:Broken Sky (TV Size)
TitleUnicode:Broken Sky (TV Size)
Artist:Tomita Miyu
ArtistUnicode:富田美憂
Creator:Jeby
Version:Normal
Source:無能なナナ
Tags:no dap momoka moeka shioi bite you death byd talentless munou na nana op opening jp japanese pop jpop j-pop anime
BeatmapID:3259217
BeatmapSetID:1589186

[Difficulty]
HPDrainRate:4
CircleSize:3.3
OverallDifficulty:4
ApproachRate:5
SliderMultiplier:1.1
SliderTickRate:1

[Events]
//Background and Video events
Video,1100,"video.mp4"
0,0,"bg.jpg",0,0
//Break Periods
//Storyboard Layer 0 (Background)
//Storyboard Layer 1 (Fail)
//Storyboard Layer 2 (Pass)
//Storyboard Layer 3 (Foreground)
//Storyboard Layer 4 (Overlay)
//Storyboard Sound Samples

[TimingPoints]
-522,329.67032967033,4,2,69,30,1,0
2114,-100,4,2,69,30,0,0
2609,-100,4,2,69,35,0,0
3103,-100,4,2,69,40,0,0
3598,-100,4,2,69,45,0,0
4092,-100,4,2,69,50,0,0
4587,-117.647058823529,4,2,69,55,0,0
4752,-117.647058823529,4,2,70,55,0,0
5081,-117.647058823529,4,2,70,40,0,0
5411,-117.647058823529,4,2,70,50,0,0
5493,-117.647058823529,4,2,70,40,0,0
6730,-117.647058823529,4,2,70,50,0,0
6812,-117.647058823529,4,2,70,40,0,0
8048,-117.647058823529,4,2,70,50,0,0
8131,-117.647058823529,4,2,70,40,0,0
9367,-117.647058823529,4,2,70,50,0,0
9449,-111.111111111111,4,2,70,40,0,0
10686,-111.111111111111,4,2,70,50,0,0
10768,-111.111111111111,4,2,70,40,0,0
11345,-111.111111111111,4,2,70,45,0,0
12004,-111.111111111111,4,2,70,50,0,0
12087,-111.111111111111,4,2,70,45,0,0
12499,-105.263157894737,4,2,70,55,0,0
13323,-105.263157894737,4,2,70,50,0,0
13405,-105.263157894737,4,2,70,55,0,0
13817,-105.263157894737,4,2,70,60,0,0
14147,-105.263157894737,4,2,70,65,0,0
14477,-105.263157894737,4,2,70,70,0,0
15301,-100,4,2,69,50,0,0
16620,329.67032967033,4,2,69,70,1,0
16620,-100,4,2,69,70,0,0
27169,-100,4,2,69,50,0,0
31620,-100,4,2,69,35,0,0
32444,-100,4,2,69,50,0,0
33268,-100,4,2,69,35,0,0
33515,-100,4,2,69,50,0,0
34916,-100,4,2,69,35,0,0
35081,-100,4,2,69,50,0,0
35246,-100,4,2,69,40,0,0
37389,-100,4,2,69,50,0,0
37719,-100,4,2,69,60,0,0
49916,-100,4,2,69,50,0,0
50905,-100,4,2,69,60,0,0
53213,-100,4,2,69,80,0,0
53296,-100,4,2,69,65,0,0
54202,-100,4,2,69,65,0,0
56180,-100,4,2,69,70,0,0
58158,-100,4,2,69,75,0,0
58817,-100,4,2,69,80,0,1
77279,-100,4,2,69,70,0,1
78433,-100,4,2,69,80,0,1
79916,-100,4,2,69,70,0,0
90136,-100,4,2,69,80,0,0

[Colours]
Combo1 : 170,85,255
Combo2 : 255,149,255
Combo3 : 179,77,179
Combo4 : 255,47,151

[HitObjects]
256,192,2114,12,2,4092,0:0:0:0:
244,95,4752,6,0,P|201:122|182:159,1,93.500001783371,6|2,0:0|0:0,0:0:0:0:
135,240,5411,2,0,L|150:316,1,46.7500008916855,10|2,0:0|0:0,0:0:0:0:
236,301,5906,2,0,B|309:337|368:294,1,140.250002675057,2|2,0:0|0:0,0:0:0:0:
408,268,6565,1,2,0:0:0:0:
468,197,6895,6,0,P|479:154|470:107,1,93.500001783371,2|2,0:0|0:0,0:0:0:0:
440,69,7389,2,0,P|392:84|351:74,1,93.500001783371,6|2,0:0|0:0,0:0:0:0:
279,134,8049,2,0,L|264:210,1,46.7500008916855,10|2,0:0|0:0,0:0:0:0:
242,269,8543,2,0,P|195:277|145:260,1,93.500001783371,2|2,0:0|0:0,0:0:0:0:
118,232,9038,2,0,L|103:155,1,46.7500008916855,2|2,0:0|0:0,0:0:0:0:
100,139,9367,1,10,0:0:0:0:
180,80,9697,5,2,0:0:0:0:
275,105,10026,2,0,P|359:143|356:245,1,197.99999395752,6|10,0:0|0:0,0:0:0:0:
189,338,11345,2,0,P|104:299|107:197,1,197.99999395752,6|10,0:0|0:0,0:0:0:0:
209,89,12499,5,2,0:0:0:0:
209,89,12664,2,0,P|263:179|201:239,1,208.999994419098,6|10,0:0|0:0,0:0:0:0:
99,256,13653,1,0,0:0:0:0:
99,256,13818,2,0,P|98:297|135:344,1,104.499997209549,2|2,0:0|0:0,0:0:0:0:
235,311,14477,2,0,B|265:250|265:250|204:219|204:219|235:159|204:98,1,261.249993023873,6|8,0:0|0:0,0:0:0:0:
224,55,16620,6,0,L|106:46,1,110,12|8,0:1|0:0,0:0:0:0:
98,155,17279,2,0,P|48:186|49:244,1,110,8|8,0:1|0:0,0:0:0:0:
50,288,17774,2,0,L|158:307,1,110,8|8,0:1|0:1,0:0:0:0:
212,313,18267,1,8,0:0:0:0:
320,333,18598,2,0,P|301:273|330:213,1,110,8|8,0:1|0:0,0:0:0:0:
347,185,19092,1,8,0:1:0:0:
347,185,19257,6,0,P|400:204|459:177,1,110,8|8,0:1|0:0,0:0:0:0:
457,71,19916,2,0,L|335:48,1,110,8|8,0:1|0:0,0:0:0:0:
293,44,20411,2,0,P|243:66|219:114,1,110,8|8,0:1|0:1,0:0:0:0:
206,167,20905,1,8,0:0:0:0:
101,201,21235,2,0,L|49:169,2,55,8|8|8,0:1|0:1|0:0,0:0:0:0:
116,259,21730,1,8,0:1:0:0:
116,259,21894,6,0,L|145:396,1,110,12|8,0:1|0:0,0:0:0:0:
248,353,22554,2,0,P|279:303|337:304,1,110,8|8,0:1|0:0,0:0:0:0:
381,300,23049,2,0,L|435:204,1,110,8|8,0:1|0:1,0:0:0:0:
462,157,23542,1,8,0:0:0:0:
405,62,23872,2,0,P|354:42|302:57,1,110,8|8,0:1|0:0,0:0:0:0:
264,95,24367,1,8,0:1:0:0:
264,95,24532,6,0,P|240:146|262:207,1,110,8|8,0:1|0:0,0:0:0:0:
266,309,25191,1,8,0:1:0:0:
266,309,25356,2,0,L|288:370,2,55,8|8|8,0:1|0:0|0:1,0:0:0:0:
212,296,25850,2,0,P|179:242|175:180,1,110,12|8,0:0|0:1,0:0:0:0:
173,141,26345,2,0,P|231:118|293:124,1,110,12|8,0:0|0:1,0:0:0:0:
332,122,26839,1,12,0:0:0:0:
437,91,27169,6,0,P|452:142|453:199,1,110,14|10,0:1|0:1,0:0:0:0:
484,303,27828,2,0,P|433:318|376:319,1,110,10|10,0:1|0:1,0:0:0:0:
267,338,28488,2,0,P|252:287|251:230,1,110,10|10,0:1|0:1,0:0:0:0:
270,122,29147,2,0,P|215:122|162:138,1,110,10|10,0:1|0:1,0:0:0:0:
52,141,29806,6,0,P|52:195|68:248,1,110,10|10,0:1|0:1,0:0:0:0:
178,257,30466,2,0,P|177:311|161:364,2,110,10|10|10,0:1|0:1|0:1,0:0:0:0:
216,153,31455,1,8,0:1:0:0:
304,218,31785,2,0,P|358:217|411:201,2,110,10|8|10,0:0|0:3|0:1,0:0:0:0:
216,153,32774,1,8,0:1:0:0:
114,194,33103,6,0,P|107:140|130:89,1,110,10|4,0:1|0:3,0:0:0:0:
220,29,33763,2,0,L|333:49,1,110,10|10,0:1|0:1,0:0:0:0:
380,65,34257,1,2,0:0:0:0:
457,143,34587,2,0,P|464:197|441:248,1,110,2|10,0:0|0:0,0:0:0:0:
421,297,35081,1,8,0:1:0:0:
314,269,35411,5,10,0:1:0:0:
227,334,35741,1,10,0:1:0:0:
138,269,36070,1,10,0:1:0:0:
48,205,36400,2,0,P|24:140|33:82,1,110,10|10,0:1|0:1,0:0:0:0:
49,50,36894,2,0,P|108:30|222:71,1,165,2|10,0:0|0:1,0:0:0:0:
314,48,37719,6,0,P|317:105|279:150,1,110,12|10,0:1|0:0,0:0:0:0:
210,225,38378,2,0,L|165:160,1,55,10|8,0:1|0:1,0:0:0:0:
146,135,38708,1,10,0:0:0:0:
160,26,39037,2,0,P|102:31|64:77,1,110,10|10,0:1|0:0,0:0:0:0:
16,164,39697,2,0,L|43:236,1,55,10|8,0:1|0:1,0:0:0:0:
57,266,40027,1,10,0:0:0:0:
163,294,40356,6,0,P|158:240|189:196,1,110,10|10,0:1|0:0,0:0:0:0:
271,268,41015,2,0,L|327:302,1,55,10|8,0:1|0:1,0:0:0:0:
366,322,41345,1,10,0:0:0:0:
428,231,41675,2,0,P|455:176|460:111,1,110,10|8,0:1|0:0,0:0:0:0:
351,137,42334,6,0,P|301:152|232:139,1,110,10|8,0:1|0:0,0:0:0:0:
146,95,42993,1,14,0:1:0:0:
62,23,43323,1,8,0:0:0:0:
11,120,43653,2,0,L|70:239,1,110,10|8,0:1|0:0,0:0:0:0:
85,273,44147,1,8,0:1:0:0:
85,273,44312,6,0,P|137:304|203:292,1,110,10|10,0:1|0:0,0:0:0:0:
284,253,44971,1,10,0:0:0:0:
343,345,45301,2,0,P|397:346|442:317,1,110,14|0,0:1|0:0,0:0:0:0:
462,208,45960,6,0,L|474:127,1,55,8|8,0:0|0:1,0:0:0:0:
475,98,46290,2,0,P|447:46|358:38,1,110,0|8,0:0|0:0,0:0:0:0:
302,76,46949,2,0,L|342:137,2,55,8|8|0,0:1|0:0|0:0,0:0:0:0:
270,37,47444,1,8,0:1:0:0:
270,37,47609,2,0,P|218:55|182:95,1,110,8|8,0:0|0:0,0:0:0:0:
90,155,48268,6,0,P|90:210|116:257,1,110,14|8,0:1|0:0,0:0:0:0:
203,190,48927,2,0,P|250:177|292:100,1,110,10|8,0:1|0:0,0:0:0:0:
322,87,49422,1,10,0:1:0:0:
428,50,49752,1,8,0:1:0:0:
428,50,49916,2,0,P|434:106|434:160,1,110,10|10,0:0|0:1,0:0:0:0:
419,269,50576,1,10,0:0:0:0:
317,310,50905,6,0,B|292:247|340:199,1,110,10|8,0:1|0:0,0:0:0:0:
408,127,51565,2,0,P|368:86|298:65,1,110,10|10,0:1|0:0,0:0:0:0:
264,65,52059,1,10,0:1:0:0:
222,166,52389,1,8,0:1:0:0:
222,166,52554,2,0,P|225:212|201:280,1,110,8|8,0:0|0:0,0:0:0:0:
115,209,53213,6,0,P|23:172|21:59,1,220,14|2,0:1|0:0,0:0:0:0:
119,20,54202,1,14,0:0:0:0:
216,70,54532,1,2,0:0:0:0:
314,20,54861,2,0,P|324:73|307:125,1,110,14|10,0:0|0:1,0:0:0:0:
296,179,55356,2,0,B|219:195|219:142|134:173,1,165,10|8,0:1|0:0,0:0:0:0:
84,193,56015,1,8,0:0:0:0:
41,227,56180,6,0,P|16:271|37:335,1,110,14|8,0:1|0:1,0:0:0:0:
74,358,56675,1,14,0:0:0:0:
172,309,57004,1,14,0:0:0:0:
278,335,57334,2,0,P|253:244|165:215,1,165,14|8,0:0|0:0,0:0:0:0:
212,193,58817,6,0,L|235:77,2,110,14|10|10,0:1|0:0|0:1,0:0:0:0:
203,247,59642,1,10,0:1:0:0:
235,351,59971,2,0,P|175:364|116:335,1,110,14|8,0:1|0:1,0:0:0:0:
96,303,60466,2,0,L|107:238,1,55,10|10,0:0|0:1,0:0:0:0:
32,174,60960,1,10,0:1:0:0:
32,174,61125,2,0,L|20:106,1,55,10|10,0:0|0:1,0:0:0:0:
33,65,61455,5,14,0:1:0:0:
132,17,61785,1,10,0:0:0:0:
195,106,62114,2,0,L|183:170,1,55,10|10,0:1|0:1,0:0:0:0:
162,268,62609,2,0,P|211:302|267:295,1,110,14|8,0:1|0:1,0:0:0:0:
313,288,63103,2,0,L|350:232,1,55,10|10,0:0|0:1,0:0:0:0:
374,196,63433,1,10,0:1:0:0:
458,125,63763,1,10,0:0:0:0:
374,53,64092,6,0,P|315:45|250:58,1,110,14|8,0:1|0:0,0:0:0:0:
247,161,64752,2,0,P|188:168|123:155,1,110,10|8,0:1|0:0,0:0:0:0:
45,100,65411,2,0,P|21:151|60:233,1,110,14|10,0:1|0:0,0:0:0:0:
49,253,65905,1,10,0:1:0:0:
158,261,66235,2,0,L|213:319,1,55,10|8,0:1|0:0,0:0:0:0:
239,334,66565,2,0,P|280:285|341:292,1,110,14|2,0:1|0:1,0:0:0:0:
377,287,67059,5,10,0:0:0:0:
440,197,67389,1,10,0:1:0:0:
377,106,67719,1,10,0:0:0:0:
322,106,67883,2,0,B|237:137|237:84|144:103,1,165,14|8,0:1|0:0,0:0:0:0:
105,101,68543,2,0,P|109:181|163:209,1,110,2|10,0:0|0:1,0:0:0:0:
171,230,69037,1,10,0:0:0:0:
174,340,69367,6,0,P|228:334|269:298,2,110,14|10|10,0:1|0:0|0:1,0:0:0:0:
120,354,70191,1,10,0:1:0:0:
23,301,70521,2,0,P|10:241|39:182,1,110,14|8,0:1|0:1,0:0:0:0:
28,141,71015,2,0,L|92:129,1,55,10|10,0:0|0:1,0:0:0:0:
186,89,71510,1,10,0:1:0:0:
186,89,71675,2,0,L|253:100,1,55,10|10,0:0|0:1,0:0:0:0:
295,88,72005,5,14,0:1:0:0:
394,42,72334,1,10,0:0:0:0:
457,131,72664,2,0,L|468:198,1,55,10|10,0:1|0:1,0:0:0:0:
448,293,73158,2,0,P|399:327|343:320,1,110,14|10,0:1|0:1,0:0:0:0:
335,214,73817,2,0,P|275:209|230:243,1,110,14|8,0:1|0:1,0:0:0:0:
203,280,74312,1,10,0:0:0:0:
95,304,74642,5,14,0:1:0:0:
8,236,74971,1,8,0:0:0:0:
95,168,75301,1,10,0:0:0:0:
8,100,75631,1,8,0:0:0:0:
95,38,75960,2,0,P|151:51|203:96,1,110,14|8,0:0|0:0,0:0:0:0:
228,114,76455,1,8,0:1:0:0:
259,159,76620,2,0,P|283:215|282:284,1,110,10|8,0:0|0:0,0:0:0:0:
275,317,77114,1,2,0:0:0:0:
261,370,77279,6,0,P|366:368|432:272,1,220,14|2,0:1|0:0,0:0:0:0:
461,176,78268,1,10,0:0:0:0:
469,121,78433,2,0,P|484:69|466:18,1,110,10|10,0:1|0:1,0:0:0:0:
368,70,79092,2,0,P|312:62|256:74,1,110,14|8,0:0|0:1,0:0:0:0:
208,93,79587,1,12,0:0:0:0:
127,167,79916,6,0,P|121:222|118:276,1,110,12|8,0:1|0:0,0:0:0:0:
225,302,80576,2,0,P|270:338|333:337,1,110,8|8,0:1|0:0,0:0:0:0:
375,348,81071,2,0,L|392:239,1,110,8|8,0:1|0:1,0:0:0:0:
401,185,81565,1,8,0:0:0:0:
373,78,81894,2,0,P|311:91|266:137,1,110,8|8,0:1|0:0,0:0:0:0:
252,172,82389,1,8,0:1:0:0:
252,172,82553,6,0,P|230:231|177:268,1,110,8|8,0:1|0:0,0:0:0:0:
95,309,83213,2,0,L|51:199,1,110,8|8,0:1|0:0,0:0:0:0:
41,152,83708,2,0,P|93:136|133:99,1,110,8|8,0:1|0:1,0:0:0:0:
172,60,84202,1,8,0:0:0:0:
281,70,84532,2,0,L|249:6,2,55,8|8|8,0:1|0:1|0:0,0:0:0:0:
302,126,85026,1,8,0:1:0:0:
302,126,85191,6,0,B|289:253,1,110,12|8,0:1|0:0,0:0:0:0:
251,338,85850,2,0,P|197:342|150:313,1,110,8|8,0:1|0:0,0:0:0:0:
126,264,86345,2,0,P|113:211|120:156,1,110,8|8,0:1|0:1,0:0:0:0:
133,103,86839,1,8,0:0:0:0:
241,121,87169,2,0,P|255:178|247:231,1,110,8|8,0:1|0:0,0:0:0:0:
242,287,87664,1,8,0:1:0:0:
242,287,87828,6,0,P|300:276|361:305,1,110,8|8,0:1|0:0,0:0:0:0:
455,310,88488,1,8,0:1:0:0:
455,310,88653,2,0,L|440:363,2,55,8|8|8,0:1|0:0|0:1,0:0:0:0:
487,265,89147,2,0,B|498:208|468:208|487:149,1,110,12|8,0:1|0:1,0:0:0:0:
455,113,89642,2,0,L|396:113,1,55,8|8,0:0|0:1,0:0:0:0:
355,140,89971,2,0,L|296:140,1,55,8|8,0:0|0:1,0:0:0:0:
255,170,90301,2,0,L|196:170,1,55,8|8,0:1|0:0,0:0:0:0:
