osu file format v14

[General]
AudioFilename: SonoChoNoSadame.mp3
AudioLeadIn: 0
PreviewTime: 70884
Countdown: 0
SampleSet: Soft
StackLeniency: 0.2
Mode: 0
LetterboxInBreaks: 0
WidescreenStoryboard: 1

[Editor]
Bookmarks: 6364,11501,14172,17973,28042,44172,53830,55371,57015,59275,70063,71501,80747,81364,82186,83110,84241,85987
DistanceSpacing: 0.5
BeatDivisor: 4
GridSize: 4
TimelineZoom: 2.3

[Metadata]
Title:JoJo ~Sono Chi no Sadame~
TitleUnicode:ジョジョ 〜その血の運命〜
Artist:Tominaga Tommy Hiroaki
ArtistUnicode:富永 TOMMY 弘明
Creator:Testo
Version:Kono Dio Da
Source:ジョジョの奇妙な冒険
Tags:Jojo's Bizarre Adventure jjba Kimyou na Bouken part 1 Opening TV size Hiroaki "TOMMY" Tominaga Phantom Blood ファントムブラッド
BeatmapID:1530159
BeatmapSetID:713688

[Difficulty]
HPDrainRate:6
CircleSize:4
OverallDifficulty:8.4
ApproachRate:9.2
SliderMultiplier:3.1
SliderTickRate:1

[Events]
//Background and Video events
0,0,"47802_jojos_bizarre_adventure.jpg",0,0
//Break Periods
//Storyboard Layer 0 (Background)
//Storyboard Layer 1 (Fail)
//Storyboard Layer 2 (Pass)
//Storyboard Layer 3 (Foreground)
//Storyboard Sound Samples

[TimingPoints]
205,410.958904109589,4,2,1,65,1,0
205,-142.857142857143,4,2,1,65,0,0
2876,-100,4,2,1,65,0,0
3492,-142.857142857143,4,2,1,55,0,0
9246,-200,4,2,1,55,0,0
10068,-142.857142857143,4,2,1,55,0,0
23218,-142.857142857143,4,2,1,55,0,0
33081,-142.857142857143,4,2,1,55,0,0
46129,-142.857142857143,4,2,1,10,0,0
46232,-142.857142857143,4,2,1,55,0,0
52602,-142.857142857143,4,2,1,45,0,0
52807,-100,4,2,1,65,0,1
77465,-142.857142857143,4,2,1,55,0,0
82396,-142.857142857143,4,2,1,60,0,0
84040,-142.857142857143,4,2,1,65,0,0

[Colours]
Combo1 : 255,192,0
Combo2 : 255,0,0
Combo3 : 18,124,255
Combo4 : 128,255,255

[HitObjects]
100,92,205,5,12,3:0:0:0:
100,92,307,1,12,3:0:0:0:
250,168,513,1,12,3:0:0:0:
250,168,615,1,12,3:0:0:0:
400,104,821,1,12,3:0:0:0:
450,293,1026,2,2,P|390:254|281:274,1,162.749995033264,14|2,3:0|0:0,0:0:0:0:
256,325,1437,2,2,B|287:238|221:255|253:154,1,162.749995033264,14|2,3:0|0:0,0:0:0:0:
284,45,1848,5,12,3:0:0:0:
284,45,1951,1,12,3:0:0:0:
83,121,2157,1,12,3:0:0:0:
83,121,2259,1,12,3:0:0:0:
109,336,2465,1,12,3:0:0:0:
109,336,2876,6,2,B|144:275|116:204|116:204|149:184|149:184|111:114|153:46,1,310,14|2,3:2|0:0,0:0:0:0:
385,55,3493,6,0,P|388:87|380:116,1,54.2499983444215,4|0,3:2|0:0,0:0:0:0:
289,238,3698,2,0,P|283:211|299:115,1,108.499996688843,0|0,3:2|0:0,0:0:0:0:
385,55,4109,1,0,3:0:0:0:
262,11,4314,1,0,0:0:0:0:
156,88,4520,1,0,0:0:0:0:
151,245,4726,2,0,L|215:237,1,54.2499983444215,0|0,3:0|0:0,0:0:0:0:
292,131,4931,2,0,L|214:121,1,54.2499983444215,0|0,3:0|3:0,0:0:0:0:
71,204,5136,6,2,B|45:302|101:269|74:375,2,162.749995033264,6|2|2,0:0|0:0|3:0,0:0:0:0:
372,94,5959,2,2,B|395:152|354:200|354:200|345:249|390:311,1,216.999993377686,6|10,3:2|0:2,0:0:0:0:
372,94,6780,5,0,3:0:0:0:
356,222,6985,1,0,3:0:0:0:
372,94,7191,5,0,0:0:0:0:
365,158,7294,1,0,0:0:0:0:
356,222,7396,1,0,3:0:0:0:
167,57,7602,5,0,0:0:0:0:
183,185,7807,1,0,3:0:0:0:
167,57,8013,5,8,3:2:0:0:
174,121,8115,1,0,0:0:0:0:
183,185,8218,1,0,0:0:0:0:
335,350,8424,5,12,3:0:0:0:
367,94,8629,1,12,3:0:0:0:
192,246,9245,5,0,3:0:0:0:
173,121,9450,1,0,3:0:0:0:
173,121,9553,1,0,0:0:0:0:
173,121,9656,2,0,B|133:113|133:113|93:136,1,77.5,0|0,0:0|0:0,0:0:0:0:
188,299,10068,6,0,P|192:258|188:227,1,54.2499983444215,4|0,0:0|0:0,0:0:0:0:
90,376,10273,2,0,P|152:336|310:396,1,216.999993377686,0|0,3:0|3:0,0:0:0:0:
459,277,10888,5,0,0:0:0:0:
312,202,11094,1,0,3:0:0:0:
459,127,11299,1,8,0:0:0:0:
312,52,11505,1,0,3:0:0:0:
312,52,11608,1,0,3:0:0:0:
312,52,11711,2,0,P|305:121|307:167,1,108.499996688843,0|0,3:0|0:0,0:0:0:0:
476,291,12121,5,0,3:0:0:0:
459,127,12327,1,0,3:0:0:0:
263,355,12532,5,0,3:0:0:0:
280,191,12738,1,0,3:0:0:0:
459,127,12944,6,0,P|413:120|345:75,1,108.499996688843,8|0,0:0|0:0,0:0:0:0:
211,241,13355,2,0,P|327:262|365:186,1,216.999993377686,4|0,0:0|3:0,0:0:0:0:
247,53,13972,2,0,B|202:80|148:67|148:67|139:91|139:91|79:78|28:105,1,216.999993377686,0|0,3:0|3:0,0:0:0:0:
36,271,14587,5,8,0:0:0:0:
234,290,14794,1,0,3:0:0:0:
219,267,14896,1,0,3:0:0:0:
211,241,14999,2,0,P|216:197|245:134,2,108.499996688843,4|0|0,0:0|0:0|3:0,0:0:0:0:
44,278,15614,1,0,3:0:0:0:
44,278,15717,1,0,3:0:0:0:
44,278,15820,2,0,P|39:234|10:171,1,108.499996688843,4|0,0:0|0:0,0:0:0:0:
95,42,16231,5,8,3:2:0:0:
227,81,16436,1,0,0:0:0:0:
350,46,16643,2,0,L|346:109,1,54.2499983444214,0|0,3:0|0:0,0:0:0:0:
233,189,16848,2,0,L|224:48,1,108.499996688843,0|0,3:0|0:0,0:0:0:0:
321,257,17259,5,0,3:0:0:0:
146,245,17465,1,0,0:0:0:0:
335,258,17669,5,0,3:0:0:0:
134,152,17876,1,8,0:0:0:0:
349,259,18080,5,0,3:0:0:0:
363,260,18183,1,0,3:0:0:0:
377,261,18286,2,0,P|387:203|368:154,1,108.499996688843,4|0,0:0|0:0,0:0:0:0:
206,105,18697,5,0,3:0:0:0:
53,126,18902,1,0,3:0:0:0:
224,240,19108,5,0,0:0:0:0:
377,261,19313,1,0,3:0:0:0:
122,340,19519,6,0,P|48:348|2:362,1,108.499996688843,8|0,3:2|0:0,0:0:0:0:
339,366,19930,2,0,B|310:280|356:191|356:191|291:122|306:31|306:31|227:120|266:235,1,542.499983444214,4|0,3:2|3:0,0:0:0:0:
122,340,21163,2,0,P|126:288|117:218,1,108.499996688843,8|0,0:0|0:0,0:0:0:0:
173,85,21574,6,0,P|229:69|290:68,1,108.499996688843,6|0,3:2|0:0,0:0:0:0:
412,138,21984,1,0,3:0:0:0:
241,167,22190,2,0,P|199:126|167:74,1,108.499996688843,2|0,3:0|0:0,0:0:0:0:
424,148,22601,6,0,L|432:220,1,54.2499983444214,0|0,3:0|0:0,0:0:0:0:
229,274,22807,1,8,0:0:0:0:
241,167,23013,1,0,0:0:0:0:
398,19,23218,6,0,B|406:110|406:110|430:135|430:135|440:226,1,216.999993377686,4|0,0:0|0:0,0:0:0:0:
305,293,23834,1,0,3:0:0:0:
305,293,24040,2,0,B|249:302|208:275|208:275|170:282|144:305,1,162.749995033264,2|0,0:0|0:0,0:0:0:0:
84,345,24451,2,0,P|97:295|79:222,1,108.499996688843,8|0,0:0|3:0,0:0:0:0:
39,174,24758,5,0,3:0:0:0:
39,174,24861,2,0,B|14:123|36:68|36:68|79:84|89:122,2,162.749995033264,0|0|0,3:0|0:0|3:0,0:0:0:0:
295,259,25683,2,0,B|320:208|298:153|298:153|255:169|245:207,1,162.749995033264,0|0,3:0|0:0,0:0:0:0:
202,246,26094,1,8,0:0:0:0:
391,182,26299,1,0,0:0:0:0:
162,322,26506,6,0,B|188:193|115:247|142:110,2,216.999993377686,4|0|0,3:2|3:0|0:0,0:0:0:0:
288,375,27532,1,0,3:0:0:0:
399,166,27738,1,8,0:0:0:0:
470,278,27943,1,0,3:0:0:0:
231,74,28149,6,0,B|295:54|295:54|412:83,1,162.749995033264,4|0,0:0|0:0,0:0:0:0:
465,102,28560,1,8,3:0:0:0:
470,278,28766,6,0,B|406:298|406:298|289:269,1,162.749995033264,4|0,0:0|0:0,0:0:0:0:
236,250,29177,1,0,3:0:0:0:
184,103,29382,2,0,B|225:116|225:116|301:97,1,108.499996688843,8|0,0:0|3:0,0:0:0:0:
53,92,29793,5,12,3:2:0:0:
92,313,29998,1,12,3:2:0:0:
92,313,30409,6,0,P|175:329|250:300,1,162.749995033264,4|0,0:0|0:0,0:0:0:0:
306,247,30820,1,0,3:0:0:0:
345,110,31026,1,0,3:0:0:0:
340,83,31129,1,0,3:0:0:0:
336,56,31232,1,0,3:0:0:0:
143,217,31437,6,2,P|149:179|149:150,1,54.2499983444214,6|2,3:2|0:0,0:0:0:0:
219,311,31643,2,2,P|248:335|274:349,1,54.2499983444214,6|2,3:2|0:0,0:0:0:0:
99,329,31848,2,2,P|63:342|37:357,1,54.2499983444214,6|2,3:2|0:0,0:0:0:0:
155,224,32054,2,0,P|161:186|126:6,1,216.999993377686,4|0,3:2|3:0,0:0:0:0:
289,136,32669,5,0,0:0:0:0:
339,144,32773,1,0,3:0:0:0:
362,99,32876,1,8,3:0:0:0:
327,63,32977,1,0,3:0:0:0:
282,85,33081,6,0,P|238:95|163:67,1,108.499996688843,4|0,0:0|0:0,0:0:0:0:
58,179,33492,2,0,P|102:188|177:160,1,108.499996688843,0|0,0:0|3:0,0:0:0:0:
282,272,33903,2,0,P|237:281|162:253,1,108.499996688843,0|0,0:0|0:0,0:0:0:0:
40,360,34314,2,0,P|84:369|159:341,1,108.499996688843,8|0,0:0|3:0,0:0:0:0:
153,346,34622,1,0,3:0:0:0:
178,264,34726,6,0,B|205:143|130:170|164:34,1,216.999993377686,4|0,3:2|0:0,0:0:0:0:
339,29,35341,1,0,3:0:0:0:
370,171,35547,1,0,3:0:0:0:
178,264,35752,5,0,0:0:0:0:
209,122,35958,2,0,P|216:206|204:270,1,108.499996688843,8|0,0:0|0:0,0:0:0:0:
391,310,36369,6,0,P|380:258|444:143,1,162.749995033264,8|0,3:0|0:0,0:0:0:0:
480,104,36780,2,0,P|441:115|347:76,1,108.499996688843,0|0,0:0|3:0,0:0:0:0:
251,5,37191,1,0,0:0:0:0:
251,5,37602,5,8,0:0:0:0:
256,58,37704,1,0,0:0:0:0:
262,112,37807,1,0,3:0:0:0:
267,166,37910,1,0,3:0:0:0:
273,220,38013,6,0,B|245:236|239:263|239:263|190:221|111:236,1,162.749995033264,8|0,3:0|0:0,0:0:0:0:
76,283,38424,2,2,P|92:174|7:113,1,216.999993377686,2|2,0:0|0:0,0:0:0:0:
426,35,39246,5,8,0:0:0:0:
464,186,39451,1,0,3:0:0:0:
426,337,39657,6,0,P|374:347|303:319,1,108.499996688843,4|0,0:0|0:0,0:0:0:0:
152,257,40068,2,0,P|204:267|275:239,1,108.499996688843,0|0,0:0|3:0,0:0:0:0:
404,165,40479,2,0,P|352:175|281:147,1,108.499996688843,0|0,0:0|0:0,0:0:0:0:
131,87,40890,2,0,P|183:97|254:69,1,108.499996688843,8|0,0:0|3:0,0:0:0:0:
243,74,41198,1,0,3:0:0:0:
305,133,41301,6,0,B|358:167|411:137|411:137|419:72|358:35,1,216.999993377686,4|0,3:2|0:0,0:0:0:0:
144,45,41917,5,0,3:0:0:0:
174,203,42122,1,0,3:0:0:0:
306,293,42328,1,0,0:0:0:0:
396,161,42534,2,0,P|445:177|516:160,1,108.499996688843,8|0,0:0|3:0,0:0:0:0:
306,293,42945,6,0,B|198:340|212:251|68:307,2,216.999993377686,8|0|0,3:0|3:0|0:0,0:0:0:0:
365,157,43972,1,0,3:0:0:0:
365,157,44177,2,0,P|369:102|362:49,1,108.499996688843,8|0,0:0|0:0,0:0:0:0:
252,221,44588,1,12,3:2:0:0:
473,178,44794,1,12,3:2:0:0:
256,192,45410,12,0,46129,0:0:0:0:
394,263,46233,6,0,L|309:257,1,54.2499983444214,12|0,3:2|0:0,0:0:0:0:
260,175,46438,2,0,L|345:169,1,54.2499983444214,4|0,3:2|0:0,0:0:0:0:
381,349,46643,5,0,0:0:0:0:
326,345,46745,1,0,0:0:0:0:
272,341,46848,1,0,3:0:0:0:
211,100,47054,5,2,0:0:0:0:
266,96,47157,1,0,0:0:0:0:
320,92,47259,1,0,3:0:0:0:
84,234,47465,6,0,P|92:196|90:149,1,54.2499983444214,4|0,3:2|0:0,0:0:0:0:
201,46,47671,2,0,P|203:72|210:99,1,54.2499983444214,4|0,3:2|0:0,0:0:0:0:
394,263,47876,5,0,3:0:0:0:
403,209,47978,1,0,0:0:0:0:
395,156,48081,1,0,0:0:0:0:
188,233,48287,5,8,3:0:0:0:
180,286,48389,1,0,0:0:0:0:
189,340,48492,1,0,3:0:0:0:
319,206,48698,6,0,P|281:197|234:200,1,54.2499983444214,4|0,3:2|0:0,0:0:0:0:
135,349,48904,2,0,P|161:346|188:339,1,54.2499983444214,4|0,3:2|0:0,0:0:0:0:
54,183,49109,2,0,P|55:242|38:310,1,108.499996688843,8|0,0:0|3:0,0:0:0:0:
285,125,49520,6,0,L|230:121,1,54.2499983444214,4|0,3:2|0:0,0:0:0:0:
102,24,49726,2,0,L|156:20,1,54.2499983444214,4|0,3:2|0:0,0:0:0:0:
341,131,49931,5,0,0:0:0:0:
337,185,50034,1,0,0:0:0:0:
333,240,50136,1,0,3:0:0:0:
118,298,50341,5,0,0:0:0:0:
114,244,50444,1,0,0:0:0:0:
110,189,50548,1,0,3:0:0:0:
333,240,50753,6,0,L|329:294,1,54.2499983444214,4|0,3:2|0:0,0:0:0:0:
106,134,50958,2,0,L|112:219,1,54.2499983444214,4|0,3:2|0:0,0:0:0:0:
122,352,51163,5,12,3:2:0:0:
345,76,51369,1,12,3:2:0:0:
421,184,52602,5,0,0:0:0:0:
421,192,52704,1,0,0:0:0:0:
421,200,52807,6,0,P|392:211|313:206,1,77.5,4|0,0:0|0:0,0:0:0:0:
228,94,53013,2,0,P|252:113|287:184,1,77.5,8|0,0:0|0:0,0:0:0:0:
232,314,53218,2,0,P|236:283|280:217,1,77.5,0|0,3:0|0:0,0:0:0:0:
383,110,53423,1,8,0:0:0:0:
306,102,53525,1,0,3:0:0:0:
228,94,53629,6,0,L|144:86,1,77.5,0|0,3:0|0:0,0:0:0:0:
18,215,53834,2,0,L|102:207,1,77.5,8|0,0:0|0:0,0:0:0:0:
232,314,54040,2,0,L|148:306,1,77.5,0|0,3:0|0:0,0:0:0:0:
260,85,54245,1,8,0:0:0:0:
337,92,54347,1,0,3:0:0:0:
414,99,54451,6,0,P|424:139|417:207,1,77.5,0|0,3:0|0:0,0:0:0:0:
259,290,54656,2,0,P|259:251|269:213,1,77.5,8|0,0:0|0:0,0:0:0:0:
407,289,54862,2,0,P|417:329|410:397,1,77.5,0|0,3:0|0:0,0:0:0:0:
192,222,55068,6,0,P|234:216|277:213,1,77.5,8|0,0:0|0:0,0:0:0:0:
85,299,55274,2,0,P|69:338|50:377,1,77.5,0|0,3:0|0:0,0:0:0:0:
71,167,55479,2,0,P|42:103|59:19,1,155,8|0,0:0|3:0,0:0:0:0:
168,46,55787,1,0,0:0:0:0:
168,46,55889,2,0,P|204:59|262:57,1,77.5,8|0,0:0|3:0,0:0:0:0:
384,91,56095,6,0,L|377:200,1,77.5,0|0,3:0|0:0,0:0:0:0:
273,290,56300,2,0,L|268:212,1,77.5,8|0,0:0|0:0,0:0:0:0:
393,84,56506,2,0,L|386:193,1,77.5,0|0,3:0|0:0,0:0:0:0:
264,283,56712,2,0,L|257:174,1,77.5,8|0,0:0|0:0,0:0:0:0:
481,44,56917,5,0,3:0:0:0:
476,121,57019,1,8,3:0:0:0:
471,198,57122,1,8,0:0:0:0:
255,276,57328,5,0,3:0:0:0:
181,222,57430,1,8,3:0:0:0:
209,135,57533,1,0,3:0:0:0:
299,133,57636,1,8,3:0:0:0:
330,219,57739,6,0,P|347:261|337:324,1,77.5,4|0,0:0|0:0,0:0:0:0:
181,222,57944,2,0,P|136:215|86:175,1,77.5,8|0,0:0|0:0,0:0:0:0:
252,91,58150,2,0,P|279:55|339:32,1,77.5,0|0,3:0|0:0,0:0:0:0:
406,224,58355,6,0,P|368:224|322:216,1,77.5,8|0,0:0|0:0,0:0:0:0:
175,96,58562,2,0,P|212:96|259:88,1,77.5,0|0,3:0|0:0,0:0:0:0:
176,236,58766,2,0,P|138:236|92:228,1,77.5,8|0,0:0|0:0,0:0:0:0:
286,358,58973,6,0,P|286:320|278:274,1,77.5,0|0,3:0|0:0,0:0:0:0:
160,89,59178,1,8,0:0:0:0:
149,164,59280,1,0,3:0:0:0:
176,236,59384,2,0,P|256:248|321:210,1,155,0|8,3:0|0:0,0:0:0:0:
362,113,59692,1,0,0:0:0:0:
362,113,59795,2,0,P|358:76|362:32,1,77.5,0|0,3:0|0:0,0:0:0:0:
480,182,59999,2,0,P|483:220|479:259,1,77.5,8|0,0:0|0:0,0:0:0:0:
368,371,60206,6,0,P|329:367|290:371,1,77.5,0|0,3:0|0:0,0:0:0:0:
176,236,60410,2,0,P|214:232|253:236,1,77.5,8|0,0:0|0:0,0:0:0:0:
78,371,60615,6,0,P|73:332|77:293,1,77.5,0|0,3:0|0:0,0:0:0:0:
154,141,60822,1,8,0:0:0:0:
231,132,60924,1,0,3:0:0:0:
304,154,61026,6,0,L|390:145,1,77.5,0|0,3:0|0:0,0:0:0:0:
446,286,61233,2,0,L|360:277,1,77.5,8|0,0:0|0:0,0:0:0:0:
226,162,61437,6,0,L|312:153,1,77.5,0|0,3:0|0:0,0:0:0:0:
154,302,61644,2,0,L|68:293,1,77.5,8|0,0:0|0:0,0:0:0:0:
42,129,61848,6,0,P|57:160|54:224,1,77.5,0|0,3:0|0:0,0:0:0:0:
208,235,62055,2,0,P|209:196|225:161,1,77.5,8|0,0:0|0:0,0:0:0:0:
426,39,62259,6,0,P|442:74|443:112,1,77.5,0|0,3:0|0:0,0:0:0:0:
362,259,62465,1,8,0:0:0:0:
296,299,62568,1,0,3:0:0:0:
221,319,62670,6,0,B|180:321|154:301|154:301|110:300|72:336,2,155,0|8|0,3:0|0:0|3:0,0:0:0:0:
367,264,63185,1,0,0:0:0:0:
367,264,63288,2,0,P|365:225|349:190,1,77.5,8|0,0:0|0:0,0:0:0:0:
122,91,63493,5,0,3:0:0:0:
102,165,63595,1,0,3:0:0:0:
117,240,63698,1,8,0:0:0:0:
309,313,63903,5,0,3:0:0:0:
262,252,64007,1,8,3:0:0:0:
190,230,64108,1,0,3:0:0:0:
118,255,64211,1,8,3:0:0:0:
74,318,64314,6,0,P|36:327|-8:312,1,77.5,4|0,0:0|0:0,0:0:0:0:
28,164,64520,2,0,P|66:155|110:170,1,77.5,8|0,0:0|0:0,0:0:0:0:
262,252,64725,6,0,P|271:194|273:158,1,77.5,0|0,3:0|0:0,0:0:0:0:
405,69,64931,2,0,P|408:107|415:145,1,77.5,8|0,0:0|0:0,0:0:0:0:
485,238,65136,6,0,P|406:193|348:254,1,155,0|8,3:0|0:0,0:0:0:0:
306,335,65444,1,0,0:0:0:0:
306,335,65547,2,0,P|268:346|215:333,1,77.5,0|0,3:0|0:0,0:0:0:0:
131,236,65752,5,8,0:0:0:0:
123,159,65855,1,0,3:0:0:0:
153,89,65958,2,0,L|330:77,1,155,0|8,3:0|0:0,0:0:0:0:
408,151,66266,1,0,0:0:0:0:
408,151,66369,2,0,P|365:111|438:12,1,155,0|8,3:0|0:0,0:0:0:0:
455,296,66780,6,0,P|396:275|301:307,1,155,0|8,3:0|0:0,0:0:0:0:
264,383,67088,1,0,0:0:0:0:
264,383,67191,2,0,B|292:293|229:320|265:192,1,155,0|8,3:0|0:0,0:0:0:0:
309,175,67499,1,0,3:0:0:0:
375,80,67602,5,0,3:0:0:0:
300,96,67704,1,8,3:0:0:0:
235,50,67807,2,2,B|180:59|132:24|132:24|136:49|136:49|79:32|-24:174|42:263|42:263|99:290|155:265|155:265|256:210|212:75|99:70|59:189|89:246|155:265|155:265|225:331|300:252|300:252|272:229|272:229|331:171|433:219|433:219|430:196|430:196|455:203|455:203|412:150|438:97|438:97|372:138|311:106,1,1550,14|0,0:0|3:0,0:0:0:0:
250,369,70068,6,4,B|210:292|280:185|280:185|203:224|203:224|266:126|225:20,1,465,4|0,3:2|0:0,0:0:0:0:
99,215,70889,6,0,B|152:197|202:223|202:223|281:185|281:185|355:231|426:211,6,310,4|0|0|0|0|0|0,3:2|0:0|0:0|0:0|0:0|0:0|0:0,0:0:0:0:
182,140,74177,6,0,P|195:191|187:268,2,103.333333333333,2|0|0,0:0|0:0|0:0,0:0:0:0:
289,317,74588,2,0,P|345:289|399:238,2,103.333333333333,2|0|0,0:0|0:0|0:0,0:0:0:0:
82,300,74999,6,2,B|93:249|74:202|74:202|98:205|98:205|71:123|155:-28|331:-8|337:106|337:106|315:179|262:171|189:86|295:44|374:84|374:84|474:241|289:317|289:317|335:277|340:220|340:220|280:224|220:226|182:139|182:139|209:203|184:276|184:276|203:300|203:300|189:325|189:325|214:357|214:357|187:350|132:374,1,1705,2|2,3:2|0:0,0:0:0:0:
82,300,77465,6,0,P|79:268|87:239,1,54.2499983444215,4|0,3:2|0:0,0:0:0:0:
182,139,77670,2,0,P|195:189|187:263,1,108.499996688843,0|0,3:0|0:0,0:0:0:0:
10,170,78082,1,8,3:0:0:0:
6,116,78184,1,0,3:0:0:0:
19,63,78287,1,0,3:0:0:0:
194,4,78492,1,0,3:0:0:0:
337,120,78698,2,0,L|345:184,1,54.2499983444215,8|0,3:0|0:0,0:0:0:0:
450,279,78903,2,0,L|456:225,1,54.2499983444215,8|0,3:0|0:0,0:0:0:0:
302,345,79109,6,0,P|241:329|142:366,2,162.749995033264,4|0|0,0:0|0:0|3:0,0:0:0:0:
212,126,79931,2,0,B|289:175|372:142|372:142|378:87|336:52,1,216.999993377686,8|8,3:0|0:0,0:0:0:0:
366,93,80752,5,0,3:0:0:0:
350,221,80958,1,0,3:0:0:0:
366,93,81164,5,0,0:0:0:0:
359,157,81267,1,0,0:0:0:0:
350,221,81369,1,0,3:0:0:0:
101,339,81575,5,0,3:0:0:0:
85,211,81780,1,0,3:0:0:0:
101,339,81986,5,8,3:2:0:0:
94,275,82087,1,0,0:0:0:0:
85,211,82191,1,0,3:0:0:0:
350,221,82397,5,4,3:2:0:0:
349,274,82499,1,0,0:0:0:0:
325,322,82602,1,0,3:0:0:0:
276,145,82808,5,4,3:2:0:0:
230,117,82910,1,0,0:0:0:0:
201,72,83013,1,0,3:0:0:0:
378,118,83219,5,4,3:2:0:0:
426,93,83321,1,0,3:0:0:0:
479,90,83424,1,0,3:0:0:0:
337,218,83629,6,0,P|333:278|298:343,1,108.499996688843,12|0,0:0|0:0,0:0:0:0:
119,108,84041,5,4,3:2:0:0:
201,72,84143,1,8,3:0:0:0:
284,105,84246,1,8,3:0:0:0:
337,218,84452,5,4,3:2:0:0:
255,254,84554,1,0,3:0:0:0:
172,221,84657,1,0,3:0:0:0:
124,95,84862,5,4,3:2:0:0:
206,59,84964,1,4,3:0:0:0:
289,92,85067,1,4,3:0:0:0:
41,325,85478,5,12,3:2:0:0:
211,46,85684,1,12,3:2:0:0:
421,293,85889,1,14,3:2:0:0:
