osu file format v14

[General]
AudioFilename: audio.ogg
AudioLeadIn: 0
PreviewTime: 52918
Countdown: 0
SampleSet: Soft
StackLeniency: 0.7
Mode: 2
LetterboxInBreaks: 0
WidescreenStoryboard: 1

[Editor]
DistanceSpacing: 1.4
BeatDivisor: 4
GridSize: 32
TimelineZoom: 2

[Metadata]
Title:JoJo ~Sono Chi no Sadame~ (TV Size)
TitleUnicode:ジョジョ 〜その血の運命〜 (TV Size)
Artist:TOMINAGA TOMMY HIROAKI
ArtistUnicode:富永TOMMY弘明
Creator:Secre
Version:Rain
Source:ジョジョの奇妙な冒険
Tags:chickenbible testo Jojo's Bizarre Adventure jjba Kimyou na Bouken part 1 Opening Phantom Blood ファントムブラッド japanese rock jrock j-rock anime
BeatmapID:3624833
BeatmapSetID:1684050

[Difficulty]
HPDrainRate:6
CircleSize:3.9
OverallDifficulty:9.1
ApproachRate:9.1
SliderMultiplier:2.4
SliderTickRate:2

[Events]
//Background and Video events
0,0,"dio is male mel.jpg",0,0
Video,-550,"video.m4v"
//Break Periods
//Storyboard Layer 0 (Background)
//Storyboard Layer 1 (Fail)
//Storyboard Layer 2 (Pass)
//Storyboard Layer 3 (Foreground)
//Storyboard Layer 4 (Overlay)
//Storyboard Sound Samples

[TimingPoints]
550,410.958904109589,4,2,1,65,1,0
550,-100,4,2,1,65,0,0
960,405.405405405405,4,2,1,65,1,0
1278,-100,4,2,1,65,0,0
1365,416.666666666667,4,2,1,65,1,0
1782,410.958904109589,4,2,1,65,1,0
2192,410.958904109589,4,2,1,65,1,0
2603,405.405405405405,4,2,1,65,1,0
3211,416.666666666667,4,2,1,65,1,0
3211,-100,4,2,1,65,0,0
3837,408.163265306122,4,2,1,55,1,0
3837,-100,4,2,1,55,0,0
8734,419.58041958042,4,2,1,55,1,0
9573,-100,4,2,1,55,0,0
10412,409.556313993174,4,2,1,55,1,0
10412,-100,4,2,1,55,0,0
21454,-100,4,2,1,55,0,0
23517,412.371134020619,4,2,1,55,1,0
23517,-100,4,2,1,55,0,0
26498,-100,4,2,1,55,0,0
30114,409.556313993174,4,2,1,55,1,0
32366,422.535211267606,4,2,1,55,1,0
33422,410.958904109589,4,2,1,55,1,0
33422,-100,4,2,1,55,0,0
38353,408.163265306122,4,2,1,55,1,0
44883,416.666666666667,4,2,1,55,1,0
46445,-100,4,2,1,10,0,0
46549,410.958904109589,4,2,1,55,1,0
46549,-100,4,2,1,55,0,0
46675,-100,4,2,1,55,0,0
51719,-100,4,2,1,55,0,0
52918,-100,4,2,1,45,0,0
53124,-86.9565217391304,4,2,1,85,0,1
56412,416.666666666667,4,2,1,85,1,1
56412,-86.9565217391304,4,2,1,85,0,1
56763,-86.9565217391304,4,2,1,85,0,1
58078,410.958904109589,4,2,1,85,1,1
58078,-86.9565217391304,4,2,1,85,0,1
61807,-86.9565217391304,4,2,1,85,0,1
64653,-86.9565217391304,4,2,1,75,0,0
66851,-86.9565217391304,4,2,1,75,0,0
69584,408.163265306122,4,2,1,55,1,0
71216,410.958904109589,4,2,1,55,1,0
76940,-100,4,2,1,55,0,0
77791,-100,4,2,1,55,0,0
81984,-100,4,2,1,55,0,0
82722,-100,4,2,1,60,0,0
84366,408.163265306122,4,2,1,65,1,0
84366,-100,4,2,1,65,0,0
85590,461.538461538462,4,2,1,55,1,0
85820,461.538461538462,4,2,1,55,1,0
89550,-100,4,2,1,55,0,0

[Colours]
Combo1 : 179,164,62
Combo2 : 221,96,13
Combo3 : 55,74,125
Combo4 : 81,60,123
Combo5 : 141,56,82
Combo6 : 255,6,6
Combo7 : 227,222,9
Combo8 : 147,147,149

[HitObjects]
309,186,550,5,12,3:0:0:0:
190,187,652,1,12,3:0:0:0:
349,90,858,1,12,3:0:0:0:
230,91,960,1,12,3:0:0:0:
389,143,1162,1,12,3:0:0:0:
110,219,1365,6,0,P|51:190|120:116,1,180,14|0,3:0|0:0,0:0:0:0:
304,160,1782,2,0,L|106:162,1,180,14|0,3:0|0:0,0:0:0:0:
332,220,2192,6,0,L|438:216,1,60,12|12,3:0|3:0,0:0:0:0:
226,89,2500,2,0,L|306:90,1,60,12|12,3:0|3:0,0:0:0:0:
127,127,2805,1,12,3:0:0:0:
431,253,3211,6,0,L|108:237,1,300,14|0,3:2|0:0,0:0:0:0:
316,176,3837,6,0,L|322:102,1,60,4|0,3:2|0:0,0:0:0:0:
207,95,4041,2,0,L|201:21,1,60,0|0,3:2|0:0,0:0:0:0:
445,118,4449,2,0,L|321:117,2,120,0|0|0,3:0|0:0|0:0,0:0:0:0:
167,189,5061,2,0,L|161:113,1,60,0|0,3:0|0:0,0:0:0:0:
273,97,5265,2,0,L|280:25,1,60,0|0,3:0|3:0,0:0:0:0:
89,156,5469,6,0,L|243:156,1,120,6|0,0:0|0:0,0:0:0:0:
96,93,5775,2,0,P|63:33|102:10,1,120,2|0,0:0|0:0,0:0:0:0:
206,42,6081,2,0,L|285:38,1,60,2|0,3:0|0:0,0:0:0:0:
86,211,6285,6,0,L|78:123,1,60,6|0,3:2|0:0,0:0:0:0:
191,120,6490,2,0,L|197:44,1,60
20,63,6694,1,10,0:2:0:0:
331,194,7102,6,0,L|159:195,1,120,0|0,3:0|3:0,0:0:0:0:
406,108,7510,1,0,0:0:0:0:
324,106,7612,1,0,0:0:0:0:
406,108,7714,1,0,3:0:0:0:
205,221,7918,6,0,L|377:222,1,120,0|0,0:0|3:0,0:0:0:0:
130,135,8326,1,8,3:2:0:0:
212,132,8428,1,0,0:0:0:0:
130,135,8530,1,0,0:0:0:0:
446,186,8734,5,12,3:0:0:0:
284,151,8943,2,0,P|287:88|442:17,1,240,12|0,3:0|0:0,0:0:0:0:
218,191,9573,2,0,L|97:186,1,120,0|0,3:0|3:0,0:0:0:0:
386,189,10412,5,4,0:0:0:0:
227,173,10616,2,0,L|227:42,1,120,0|0,3:0|0:0,0:0:0:0:
416,65,11026,2,0,L|280:64,2,120,0|0|0,3:0|0:0|3:0,0:0:0:0:
229,207,11640,2,0,L|93:208,1,120,8|0,0:0|3:0,0:0:0:0:
171,152,11947,1,0,3:0:0:0:
288,120,12050,6,0,P|351:142|366:228,1,120,0|0,3:0|0:0,0:0:0:0:
205,274,12459,2,0,L|340:268,1,120,0|0,3:0|3:0,0:0:0:0:
152,190,12869,2,0,L|29:186,1,120,0|0,3:0|3:0,0:0:0:0:
210,116,13278,2,0,L|75:113,1,120,8|0,0:0|0:0,0:0:0:0:
396,242,13688,6,0,P|451:212|379:131,1,180,4|0,0:0|0:0,0:0:0:0:
287,86,14098,2,0,L|164:81,1,120,0|0,3:0|3:0,0:0:0:0:
323,170,14507,2,0,L|328:314,1,120,0|0,0:0|3:0,0:0:0:0:
159,229,14917,2,0,L|29:225,1,120,8|0,0:0|3:0,0:0:0:0:
100,170,15224,1,0,3:0:0:0:
215,145,15326,6,0,L|345:147,2,120,4|0|0,0:0|0:0|3:0,0:0:0:0:
391,152,15941,2,0,L|396:225,1,60,0|0,3:0|0:0,0:0:0:0:
283,254,16145,2,0,L|154:253,1,120
320,195,16555,2,0,L|320:68,1,120,8|0,3:2|0:0,0:0:0:0:
36,130,16964,5,0,3:0:0:0:
184,134,17169,2,0,P|186:197|22:274,1,240,0|0,3:0|3:0,0:0:0:0:
217,282,17784,2,0,L|342:282,1,120,0|0,0:0|3:0,0:0:0:0:
177,188,18193,2,0,L|34:184,1,120,8|0,0:0|0:0,0:0:0:0:
117,132,18500,1,0,3:0:0:0:
235,103,18603,6,0,L|235:252,1,120,4|0,0:0|0:0,0:0:0:0:
74,273,19012,2,0,L|207:277,1,120,0|0,3:0|3:0,0:0:0:0:
365,279,19422,2,0,L|230:281,1,120
420,208,19831,2,0,L|298:207,1,120,8|0,3:2|0:0,0:0:0:0:
20,204,20241,5,4,3:2:0:0:
189,182,20446,2,0,L|64:181,1,120
240,116,20855,2,0,L|103:119,2,120,0|0|0,3:0|0:0|3:0,0:0:0:0:
419,110,21470,2,0,L|425:271,1,120,8|0,0:0|0:0,0:0:0:0:
363,251,21777,1,0,0:0:0:0:
249,156,21879,6,0,L|110:157,1,120,6|0,3:2|0:0,0:0:0:0:
291,77,22289,1,0,3:0:0:0:
129,156,22493,2,0,L|124:7,1,120,2|0,3:0|0:0,0:0:0:0:
291,77,22903,1,0,3:0:0:0:
15,196,23108,2,0,L|140:197,1,120,8|0,0:0|0:0,0:0:0:0:
444,271,23517,6,0,L|231:259,1,180,4|0,0:0|0:0,0:0:0:0:
375,214,23929,2,0,P|402:142|373:96,1,120,0|0,0:0|3:0,0:0:0:0:
200,164,24341,2,0,L|392:162,2,180,2|0|0,0:0|0:0|3:0,0:0:0:0:
139,163,25063,1,0,3:0:0:0:
336,232,25166,6,0,P|398:224|455:122,2,180,0|0|0,3:0|0:0|3:0,0:0:0:0:
153,116,25991,2,0,L|348:111,2,180,0|0|0,3:0|0:0|0:0,0:0:0:0:
440,252,26815,6,0,P|466:183|429:140,1,120,4|0,3:2|0:0,0:0:0:0:
274,142,27228,1,0,3:0:0:0:
447,113,27434,2,0,L|315:100,1,120
158,167,27846,1,0,3:0:0:0:
335,114,28053,2,0,L|333:243,1,120,8|0,0:0|3:0,0:0:0:0:
31,286,28465,6,0,P|25:218|167:128,1,240,4|8,0:0|3:0,0:0:0:0:
441,272,29084,2,0,L|175:257,1,240,4|0,0:0|3:0,0:0:0:0:
375,174,29702,2,0,L|387:37,1,120,8|0,0:0|3:0,0:0:0:0:
89,122,30114,6,0,L|239:118,1,120,4|8,0:0|3:0,0:0:0:0:
493,261,30728,2,0,L|216:249,1,240,4|0,0:0|3:0,0:0:0:0:
427,159,31342,2,0,L|506:157,2,60,0|0|0,3:0|3:0|3:0,0:0:0:0:
91,187,31752,5,6,3:2:0:0:
250,183,31957,1,6,3:2:0:0:
91,187,32161,1,6,3:2:0:0:
411,239,32366,2,0,P|480:207|390:99,1,240,4|0,3:2|3:0,0:0:0:0:
205,131,32999,2,0,L|297:121,1,60,0|0,0:0|3:0,0:0:0:0:
377,109,33211,2,0,L|383:38,1,60,8|0,3:0|0:0,0:0:0:0:
213,47,33422,6,0,L|71:52,1,120,4|0,0:0|0:0,0:0:0:0:
400,244,33832,2,0,L|146:236,2,240,0|0|8,0:0|0:0|0:0,0:0:0:0:
221,153,34860,2,0,L|133:148,1,60,0|0,3:0|3:0,0:0:0:0:
340,229,35065,6,0,P|394:205|321:79,1,240,4|0,3:2|0:0,0:0:0:0:
158,87,35682,1,0,3:0:0:0:
329,67,35887,2,0,L|331:190,1,120,0|0,3:0|0:0,0:0:0:0:
158,87,36298,2,0,L|33:86,1,120,8|0,0:0|0:0,0:0:0:0:
361,227,36709,6,0,L|378:104,1,120,8|0,3:0|0:0,0:0:0:0:
207,95,37120,2,0,L|343:86,1,120,0|0,0:0|3:0,0:0:0:0:
158,218,37531,2,0,P|76:158|177:93,1,240,0|8,0:0|0:0,0:0:0:0:
243,92,38045,1,0,0:0:0:0:
157,86,38148,2,0,L|90:89,1,60,0|0,3:0|3:0,0:0:0:0:
305,179,38353,6,0,L|441:177,1,120,8|0,3:0|0:0,0:0:0:0:
100,272,38761,2,0,P|40:255|122:157,1,240,2|2,0:0|0:0,0:0:0:0:
325,214,39577,2,0,L|189:206,1,120,8|0,0:0|3:0,0:0:0:0:
492,268,39985,6,0,L|502:138,1,120,4|0,0:0|0:0,0:0:0:0:
322,124,40393,2,0,L|194:122,1,120
379,206,40801,2,0,L|501:207,1,120
324,284,41210,2,0,L|465:287,1,120,8|0,0:0|3:0,0:0:0:0:
382,225,41516,1,0,3:0:0:0:
173,223,41618,6,0,P|110:207|183:98,1,240,4|0,3:2|0:0,0:0:0:0:
335,88,42230,1,0,3:0:0:0:
47,137,42434,2,0,L|187:127,1,120,0|0,3:0|0:0,0:0:0:0:
330,139,42842,2,0,L|191:136,1,120,8|0,0:0|3:0,0:0:0:0:
502,222,43250,6,0,P|506:146|361:77,1,240,8|0,3:0|3:0,0:0:0:0:
202,181,43863,2,0,L|469:174,1,240,0|0,0:0|3:0,0:0:0:0:
269,102,44475,2,0,L|401:103,1,120,8|0,0:0|0:0,0:0:0:0:
75,252,44883,5,12,3:2:0:0:
229,250,45091,2,0,P|226:180|226:107,1,120,12|0,3:2|0:0,0:0:0:0:
97,207,45716,2,0,L|225:173,1,120
109,209,46133,2,0,L|102:83,1,120
421,168,46549,6,0,L|436:93,1,60,12|0,3:2|0:0,0:0:0:0:
320,90,46754,2,0,L|316:11,1,60,4|0,3:2|0:0,0:0:0:0:
489,38,46959,2,0,L|410:34,2,60,2|0|0,0:0|0:0|3:0,0:0:0:0:
324,192,47370,2,0,L|392:191,2,60,2|0|0,0:0|0:0|3:0,0:0:0:0:
52,158,47781,2,0,L|46:79,1,60,4|0,3:2|0:0,0:0:0:0:
162,92,47987,1,4,3:2:0:0:
6,29,48192,6,0,L|74:29,2,60,2|0|0,3:0|0:0|0:0,0:0:0:0:
176,160,48603,2,0,L|105:160,2,60,8|0|0,3:0|0:0|3:0,0:0:0:0:
468,181,49014,2,0,L|356:172,1,60,4|0,3:2|0:0,0:0:0:0:
299,132,49220,1,4,3:2:0:0:
464,68,49425,2,0,L|316:67,1,120,8|0,0:0|3:0,0:0:0:0:
61,181,49836,6,0,L|51:107,1,60,4|0,3:2|0:0,0:0:0:0:
163,98,50042,2,0,L|171:21,1,60,4|0,3:2|0:0,0:0:0:0:
8,31,50247,2,0,L|79:31,2,60,2|0|0,0:0|0:0|3:0,0:0:0:0:
171,182,50658,2,0,L|70:182,2,60,2|0|0,0:0|0:0|0:0,0:0:0:0:
472,192,51069,2,0,L|478:121,1,60,4|0,3:2|0:0,0:0:0:0:
367,100,51275,2,0,L|357:32,1,60,4|0,3:2|0:0,0:0:0:0:
462,18,51480,5,12,3:2:0:0:
158,46,51685,1,12,3:2:0:0:
273,45,51891,2,0,L|275:170,1,120
86,174,52302,1,0,0:0:0:0:
314,215,52918,2,0,L|231:250,1,60
473,241,53124,6,0,L|480:158,1,69.0000013160706,4|0,0:0|0:0,0:0:0:0:
369,131,53329,2,0,L|296:130,1,69.0000013160706,8|0,0:0|0:0,0:0:0:0:
411,85,53535,2,0,L|416:177,1,69.0000013160706,0|0,3:0|0:0,0:0:0:0:
301,207,53740,2,0,L|219:203,1,69.0000013160706,8|0,0:0|0:0,0:0:0:0:
440,206,53946,6,0,L|452:125,1,69.0000013160706,0|0,3:0|0:0,0:0:0:0:
347,100,54151,2,0,L|424:95,1,69.0000013160706,8|0,0:0|0:0,0:0:0:0:
224,130,54357,2,0,L|67:129,1,138.000002632141,0|8,3:0|0:0,0:0:0:0:
154,195,54665,1,0,0:0:0:0:
355,197,54768,6,0,L|362:111,1,69.0000013160706,0|0,3:0|0:0,0:0:0:0:
244,112,54973,2,0,L|165:114,1,69.0000013160706,8|0,0:0|0:0,0:0:0:0:
293,98,55179,2,0,L|382:96,1,69.0000013160706,0|0,3:0|0:0,0:0:0:0:
244,112,55384,2,0,L|148:113,1,69.0000013160706,8|0,0:0|0:0,0:0:0:0:
293,98,55590,6,0,L|367:97,1,69.0000013160706,0|0,3:0|0:0,0:0:0:0:
153,237,55795,2,0,P|80:208|159:141,1,207.000003948212,8|0,0:0|0:0,0:0:0:0:
270,143,56206,2,0,L|330:186,1,69.0000013160706,8|0,0:0|3:0,0:0:0:0:
150,77,56412,5,0,3:0:0:0:
81,77,56516,1,0,0:0:0:0:
12,78,56620,1,8,0:0:0:0:
248,196,56828,1,0,3:0:0:0:
179,196,56932,1,0,0:0:0:0:
110,197,57036,1,8,0:0:0:0:
338,131,57245,6,0,L|243:127,1,69.0000013160706,0|8,3:0|3:0,0:0:0:0:
372,68,57453,1,8,0:0:0:0:
196,59,57662,2,0,L|105:101,1,69.0000013160706,0|8,3:0|3:0,0:0:0:0:
245,115,57870,2,0,L|331:113,1,69.0000013160706,0|8,3:0|3:0,0:0:0:0:
101,213,58078,6,0,L|96:121,1,69.0000013160706,4|0,0:0|0:0,0:0:0:0:
217,113,58283,2,0,L|302:108,1,69.0000013160706,8|0,0:0|0:0,0:0:0:0:
166,157,58488,2,0,L|157:82,1,69.0000013160706,0|0,3:0|0:0,0:0:0:0:
269,58,58694,2,0,L|198:85,1,69.0000013160706,8|0,0:0|0:0,0:0:0:0:
401,151,58899,6,0,L|482:151,1,69.0000013160706,0|0,3:0|0:0,0:0:0:0:
350,101,59105,2,0,L|348:24,1,69.0000013160706,8|0,0:0|0:0,0:0:0:0:
461,32,59310,2,0,L|377:30,1,69.0000013160706,0|0,3:0|0:0,0:0:0:0:
282,67,59516,2,0,L|380:65,1,69.0000013160706,8|0,0:0|3:0,0:0:0:0:
146,171,59721,6,0,L|60:168,2,69.0000013160706,0|0|8,3:0|0:0|0:0,0:0:0:0:
347,226,60132,2,0,L|242:220,2,69.0000013160706,0|0|8,3:0|0:0|0:0,0:0:0:0:
140,121,60543,6,0,L|232:118,2,69.0000013160706,0|0|8,0:0|0:0|0:0,0:0:0:0:
338,103,60954,1,0,3:0:0:0:
144,54,61160,2,0,L|214:83,1,69.0000013160706,8|0,0:0|3:0,0:0:0:0:
416,107,61365,6,0,L|425:17,1,69.0000013160706,0|0,3:0|0:0,0:0:0:0:
315,28,61571,2,0,L|229:46,1,69.0000013160706,8|0,0:0|0:0,0:0:0:0:
363,35,61776,2,0,L|360:121,1,69.0000013160706,0|0,3:0|0:0,0:0:0:0:
251,147,61982,2,0,L|337:167,1,69.0000013160706,8|0,0:0|0:0,0:0:0:0:
127,203,62187,6,0,L|125:113,1,69.0000013160706,0|0,3:0|0:0,0:0:0:0:
243,96,62393,2,0,L|319:84,1,69.0000013160706,8|0,0:0|0:0,0:0:0:0:
201,44,62598,2,0,L|198:-35,1,69.0000013160706,0|0,3:0|0:0,0:0:0:0:
311,17,62804,2,0,L|378:43,1,69.0000013160706,8|0,0:0|3:0,0:0:0:0:
162,147,63009,6,0,L|89:202,1,69.0000013160706,0|0,3:0|0:0,0:0:0:0:
316,121,63214,1,8,0:0:0:0:
443,127,63420,2,0,L|490:191,1,69.0000013160706,0|0,3:0|0:0,0:0:0:0:
269,208,63625,1,8,0:0:0:0:
149,120,63831,6,0,L|238:166,1,69.0000013160706,0|0,3:0|3:0,0:0:0:0:
420,202,64036,1,8,0:0:0:0:
310,129,64242,2,0,L|388:82,3,69.0000013160706,0|8|0|8,3:0|3:0|3:0|3:0,0:0:0:0:
163,188,64653,6,0,L|79:237,1,69.0000013160706,4|0,0:0|0:0,0:0:0:0:
217,126,64858,2,0,L|226:45,1,69.0000013160706,8|0,0:0|0:0,0:0:0:0:
111,126,65064,2,0,L|101:49,1,69.0000013160706,0|0,3:0|0:0,0:0:0:0:
213,117,65269,2,0,L|133:167,1,69.0000013160706,8|0,0:0|0:0,0:0:0:0:
360,174,65475,6,0,L|429:226,1,69.0000013160706,0|0,3:0|0:0,0:0:0:0:
214,219,65680,2,0,L|336:149,1,138.000002632141,8|0,0:0|3:0,0:0:0:0:
134,117,66091,2,0,L|221:84,1,69.0000013160706,8|0,0:0|3:0,0:0:0:0:
403,133,66297,6,0,L|261:202,1,138.000002632141,0|8,3:0|0:0,0:0:0:0:
482,199,66708,1,0,3:0:0:0:
489,130,66810,1,0,0:0:0:0:
496,61,66913,1,8,0:0:0:0:
284,202,67119,6,0,L|427:201,1,138.000002632141,0|8,3:0|0:0,0:0:0:0:
106,113,67530,2,0,L|16:115,2,69.0000013160706,0|0|8,3:0|0:0|0:0,0:0:0:0:
426,183,67941,6,0,L|345:177,1,69.0000013160706,0|8,3:0|3:0,0:0:0:0:
153,117,68146,1,14,0:0:0:0:
255,66,68351,2,0,L|336:28,3,69.0000013160706,8|0|8|0,3:0|0:0|3:0|0:0,0:0:0:0:
131,187,68762,6,0,P|56:191|14:243,1,138.000002632141,0|0,3:0|0:0,0:0:0:0:
212,247,69173,2,0,L|139:292,3,69.0000013160706,8|0|8|0,3:0|0:0|3:0|0:0,0:0:0:0:
335,199,69584,6,4,L|403:157,1,60,8|0,3:0|0:0,0:0:0:0:
284,105,69788,2,0,L|216:147,1,60
414,70,69992,2,0,L|484:37,3,60,0|0|0|0,0:0|0:0|3:0|0:0,0:0:0:0:
262,39,70400,6,0,P|192:37|31:258,1,360,4|0,3:2|0:0,0:0:0:0:
401,257,71216,6,0,L|426:12,1,240,4|0,3:2|0:0,0:0:0:0:
90,152,72037,2,0,L|44:407,1,240
365,269,72859,6,0,L|119:277,1,240
460,268,73681,2,0,P|505:225|380:-25,1,360
253,125,74503,6,0,L|171:127,2,80,2|0|0,0:0|0:0|0:0,0:0:0:0:
382,116,74914,2,0,L|464:118,2,80,2|0|0,0:0|0:0|0:0,0:0:0:0:
171,55,75325,6,0,P|83:58|11:227,1,240,2|0,3:2|0:0,0:0:0:0:
74,184,75873,1,0,0:0:0:0:
1,174,76010,1,0,0:0:0:0:
134,132,76147,6,0,L|225:129,2,80,2|0|0,0:0|0:0|0:0,0:0:0:0:
256,201,76558,2,0,L|359:199,2,80,2|0|0,0:0|0:0|0:0,0:0:0:0:
132,141,76969,6,0,L|128:40,1,80,2|0,3:2|0:0,0:0:0:0:
204,30,77243,1,0,0:0:0:0:
325,150,77380,2,0,L|329:49,1,80
253,39,77654,1,0,0:0:0:0:
25,204,77791,6,0,L|123:197,1,60,4|0,3:2|0:0,0:0:0:0:
197,192,77996,1,0,3:0:0:0:
364,195,78202,1,0,0:0:0:0:
197,192,78407,2,0,L|191:106,1,60,8|0,3:0|3:0,0:0:0:0:
305,86,78613,6,0,L|434:79,1,120,0|0,3:0|3:0,0:0:0:0:
133,141,79024,2,0,L|128:54,1,60,8|0,3:0|0:0,0:0:0:0:
236,55,79229,2,0,L|249:-28,1,60,8|0,3:0|0:0,0:0:0:0:
61,62,79435,6,0,L|192:61,1,120,4|0,0:0|0:0,0:0:0:0:
74,159,79743,2,0,P|41:105|67:48,1,120
156,58,80051,2,0,L|78:86,1,60,0|0,3:0|0:0,0:0:0:0:
285,164,80257,6,0,L|291:98,1,60,8|0,3:0|0:0,0:0:0:0:
179,80,80462,2,0,L|170:6,1,60
364,47,80668,2,0,L|495:47,1,120,8|0,0:0|0:0,0:0:0:0:
194,217,81079,6,0,L|191:140,1,60,0|0,3:0|0:0,0:0:0:0:
299,125,81284,2,0,L|310:53,1,60,0|0,3:0|0:0,0:0:0:0:
82,83,81489,2,0,L|153:82,2,60,0|0|0,0:0|0:0|3:0,0:0:0:0:
289,201,81900,6,0,L|151:198,1,120,0|0,3:0|3:0,0:0:0:0:
441,200,82311,2,0,L|450:131,1,60,8|0,3:2|0:0,0:0:0:0:
334,124,82517,2,0,L|327:54,1,60,0|0,3:0|0:0,0:0:0:0:
504,61,82722,6,0,L|436:62,2,60,4|0|0,3:2|0:0|3:0,0:0:0:0:
332,178,83133,2,0,L|424:179,2,60,4|0|0,3:2|0:0|3:0,0:0:0:0:
40,110,83544,6,0,L|31:31,2,60,4|0|0,3:2|3:0|3:0,0:0:0:0:
321,230,83955,2,0,L|153:229,1,120,12|0,0:0|0:0,0:0:0:0:
495,122,84366,5,4,3:2:0:0:
409,103,84468,1,8,3:0:0:0:
323,86,84570,1,8,3:0:0:0:
123,191,84774,1,4,3:2:0:0:
209,172,84876,1,0,3:0:0:0:
295,155,84978,1,0,3:0:0:0:
94,107,85182,5,4,3:2:0:0:
178,104,85284,1,4,3:0:0:0:
94,107,85386,1,4,3:0:0:0:
365,218,85820,5,12,3:2:0:0:
149,157,86050,1,12,3:2:0:0:
465,145,86281,5,14,3:2:0:0:
