osu file format v14

[General]
AudioFilename: audio.ogg
AudioLeadIn: 0
PreviewTime: 52918
Countdown: 0
SampleSet: Soft
StackLeniency: 0.7
Mode: 2
LetterboxInBreaks: 0
WidescreenStoryboard: 1

[Editor]
DistanceSpacing: 1.4
BeatDivisor: 4
GridSize: 32
TimelineZoom: 2

[Metadata]
Title:JoJo ~Sono Chi no Sadame~ (TV Size)
TitleUnicode:ジョジョ 〜その血の運命〜 (TV Size)
Artist:TOMINAGA TOMMY HIROAKI
ArtistUnicode:富永TOMMY弘明
Creator:Secre
Version:Platter
Source:ジョジョの奇妙な冒険
Tags:chickenbible testo Jojo's Bizarre Adventure jjba Kimyou na Bouken part 1 Opening Phantom Blood ファントムブラッド japanese rock jrock j-rock anime
BeatmapID:3695876
BeatmapSetID:1684050

[Difficulty]
HPDrainRate:5
CircleSize:3.7
OverallDifficulty:8.1
ApproachRate:8.1
SliderMultiplier:2.22
SliderTickRate:2

[Events]
//Background and Video events
0,0,"dio is male mel.jpg",0,0
Video,-550,"video.m4v"
//Break Periods
//Storyboard Layer 0 (Background)
//Storyboard Layer 1 (Fail)
//Storyboard Layer 2 (Pass)
//Storyboard Layer 3 (Foreground)
//Storyboard Layer 4 (Overlay)
//Storyboard Sound Samples

[TimingPoints]
550,410.958904109589,4,2,1,65,1,0
550,-100,4,2,1,65,0,0
960,405.405405405405,4,2,1,65,1,0
1278,-100,4,2,1,65,0,0
1365,416.666666666667,4,2,1,65,1,0
1782,410.958904109589,4,2,1,65,1,0
2192,410.958904109589,4,2,1,65,1,0
2603,405.405405405405,4,2,1,65,1,0
3211,416.666666666667,4,2,1,65,1,0
3211,-100,4,2,1,65,0,0
3837,408.163265306122,4,2,1,55,1,0
3837,-100,4,2,1,55,0,0
8734,419.58041958042,4,2,1,55,1,0
9573,-100,4,2,1,55,0,0
10412,409.556313993174,4,2,1,55,1,0
10412,-100,4,2,1,55,0,0
21454,-100,4,2,1,55,0,0
23517,412.371134020619,4,2,1,55,1,0
23517,-100,4,2,1,55,0,0
26498,-100,4,2,1,55,0,0
30114,409.556313993174,4,2,1,55,1,0
32366,422.535211267606,4,2,1,55,1,0
33422,410.958904109589,4,2,1,55,1,0
33422,-100,4,2,1,55,0,0
38353,408.163265306122,4,2,1,55,1,0
44883,416.666666666667,4,2,1,55,1,0
46445,-100,4,2,1,10,0,0
46549,410.958904109589,4,2,1,55,1,0
46549,-100,4,2,1,55,0,0
46675,-100,4,2,1,55,0,0
51719,-100,4,2,1,55,0,0
52918,-100,4,2,1,45,0,0
53124,-100,4,2,1,85,0,1
56412,416.666666666667,4,2,1,85,1,1
56412,-100,4,2,1,85,0,1
56763,-100,4,2,1,85,0,1
58078,410.958904109589,4,2,1,85,1,1
58078,-100,4,2,1,85,0,1
61807,-100,4,2,1,85,0,1
64653,-100,4,2,1,75,0,0
66851,-100,4,2,1,75,0,0
69584,408.163265306122,4,2,1,55,1,0
71216,410.958904109589,4,2,1,55,1,0
76940,-100,4,2,1,55,0,0
77791,-100,4,2,1,55,0,0
81984,-100,4,2,1,55,0,0
82722,-100,4,2,1,60,0,0
84366,408.163265306122,4,2,1,65,1,0
84366,-100,4,2,1,65,0,0
85590,461.538461538462,4,2,1,55,1,0
85820,461.538461538462,4,2,1,55,1,0
89550,-100,4,2,1,55,0,0

[Colours]
Combo1 : 179,164,62
Combo2 : 221,96,13
Combo3 : 55,74,125
Combo4 : 81,60,123
Combo5 : 141,56,82
Combo6 : 255,6,6
Combo7 : 227,222,9
Combo8 : 147,147,149

[HitObjects]
322,217,550,6,0,L|329:136,1,55.5,12|0,3:0|0:0,0:0:0:0:
149,132,858,1,0,0:0:0:0:
140,77,960,1,0,0:0:0:0:
301,50,1162,1,12,3:0:0:0:
98,229,1365,6,0,P|43:207|122:115,1,222,14|14,3:0|3:0,0:0:0:0:
314,124,2192,6,0,L|323:50,1,55.5,12|12,3:0|3:0,0:0:0:0:
140,67,2500,2,0,L|130:3,1,55.5,12|12,3:0|3:0,0:0:0:0:
301,155,2805,1,12,3:0:0:0:
43,234,3211,6,0,P|31:167|160:93,1,222,14|0,3:2|0:0,0:0:0:0:
432,175,3837,6,0,L|441:33,1,111,4|0,3:2|3:2,0:0:0:0:
249,155,4449,2,0,L|368:151,2,111,0|0|0,3:0|0:0|0:0,0:0:0:0:
73,173,5061,2,0,L|67:55,1,111,0|0,3:0|3:0,0:0:0:0:
338,95,5469,6,0,L|507:94,2,166.5,6|2|2,0:0|0:0|3:0,0:0:0:0:
152,201,6285,2,0,P|160:137|326:93,1,222,6|10,3:2|0:2,0:0:0:0:
90,142,7102,6,0,L|74:24,1,111,0|0,3:0|3:0,0:0:0:0:
248,42,7510,2,0,L|322:40,2,55.5,0|0|0,0:0|0:0|3:0,0:0:0:0:
90,130,7918,2,0,L|86:4,1,111,0|0,0:0|3:0,0:0:0:0:
254,39,8326,1,8,3:2:0:0:
198,37,8428,1,0,0:0:0:0:
143,36,8530,1,0,0:0:0:0:
343,168,8734,5,12,3:0:0:0:
143,36,8943,2,0,P|84:52|134:175,1,222,12|0,3:0|0:0,0:0:0:0:
298,173,9573,2,0,L|437:170,1,111,0|0,3:0|3:0,0:0:0:0:
168,213,10412,5,4,0:0:0:0:
328,175,10616,2,0,L|330:50,1,111,0|0,3:0|0:0,0:0:0:0:
171,62,11026,2,0,L|294:63,2,111,0|0|0,3:0|0:0|3:0,0:0:0:0:
337,106,11640,2,0,L|344:230,1,111,8|0,0:0|3:0,0:0:0:0:
282,241,11947,1,0,3:0:0:0:
161,156,12050,6,0,L|36:156,1,111,0|0,3:0|0:0,0:0:0:0:
230,112,12459,2,0,L|236:-1,1,111,0|0,3:0|3:0,0:0:0:0:
61,58,12869,2,0,L|56:-54,1,111,0|0,3:0|3:0,0:0:0:0:
217,57,13278,2,0,L|97:58,1,111,8|0,0:0|0:0,0:0:0:0:
396,247,13688,6,0,P|456:226|379:142,1,222,4|0,0:0|3:0,0:0:0:0:
197,167,14302,2,0,L|423:154,1,222,0|0,3:0|3:0,0:0:0:0:
245,99,14917,2,0,L|244:-18,1,111,8|0,0:0|3:0,0:0:0:0:
307,8,15224,1,0,3:0:0:0:
430,148,15326,6,0,P|485:129|408:24,1,222,4|0,0:0|3:0,0:0:0:0:
255,128,15941,2,0,L|31:127,1,222,0|0,3:0|0:0,0:0:0:0:
209,220,16555,2,0,L|74:218,1,111,8|0,3:2|0:0,0:0:0:0:
396,210,16964,6,0,L|401:89,1,111,0|0,3:0|3:0,0:0:0:0:
245,100,17579,2,0,L|402:93,2,111,0|0|0,3:0|0:0|3:0,0:0:0:0:
69,205,18193,2,0,L|64:87,1,111,8|0,0:0|0:0,0:0:0:0:
127,63,18500,1,0,3:0:0:0:
257,91,18603,6,0,L|377:92,1,111,4|0,0:0|0:0,0:0:0:0:
186,186,19012,2,0,L|70:181,1,111,0|0,3:0|3:0,0:0:0:0:
253,119,19422,2,0,L|129:118,1,111
322,153,19831,2,0,L|433:152,1,111,8|0,3:2|0:0,0:0:0:0:
155,266,20241,6,0,P|96:246|182:158,1,222,4|0,3:2|0:0,0:0:0:0:
323,163,20855,2,0,L|89:171,1,222,0|0,3:0|3:0,0:0:0:0:
280,255,21470,2,0,L|394:245,1,111,8|0,0:0|0:0,0:0:0:0:
331,187,21777,1,0,0:0:0:0:
211,148,21879,6,0,P|146:146|68:273,1,222,6|0,3:2|3:0,0:0:0:0:
235,272,22493,2,0,P|301:243|226:145,1,222,2|0,3:0|3:0,0:0:0:0:
63,140,23108,2,0,L|55:-7,1,111,8|0,0:0|0:0,0:0:0:0:
329,63,23517,6,0,P|401:69|480:216,1,222,4|0,0:0|0:0,0:0:0:0:
181,261,24341,2,0,L|358:263,2,166.5,2|0|0,0:0|0:0|3:0,0:0:0:0:
364,168,25166,6,0,L|197:168,2,166.5,0|0|0,3:0|0:0|3:0,0:0:0:0:
189,78,25991,2,0,L|13:80,2,166.5,0|0|0,3:0|0:0|0:0,0:0:0:0:
480,226,26815,6,0,P|493:161|348:92,1,222,4|0,3:2|3:0,0:0:0:0:
220,154,27434,2,0,P|161:136|226:38,1,222,0|0,0:0|3:0,0:0:0:0:
400,66,28053,2,0,L|402:186,1,111,8|0,0:0|3:0,0:0:0:0:
112,261,28465,6,0,P|49:232|131:140,1,222,4|8,0:0|3:0,0:0:0:0:
388,161,29084,2,0,P|448:137|354:42,1,222,4|0,0:0|3:0,0:0:0:0:
209,64,29702,2,0,L|90:62,1,111,8|0,0:0|3:0,0:0:0:0:
373,119,30114,6,0,L|496:121,2,111,4|8|8,0:0|3:0|0:0,0:0:0:0:
95,266,30728,2,0,P|34:232|120:145,1,222,4|0,0:0|3:0,0:0:0:0:
275,140,31342,1,0,3:0:0:0:
219,140,31444,1,0,3:0:0:0:
164,141,31546,1,0,3:0:0:0:
446,204,31752,6,0,L|327:196,2,111,6|6|6,3:2|3:2|3:2,0:0:0:0:
148,261,32366,2,0,P|81:236|172:151,1,222,4|0,3:2|3:0,0:0:0:0:
331,129,32999,2,0,L|408:128,2,55.5,0|0|8,0:0|3:0|3:0,0:0:0:0:
34,150,33422,6,0,P|26:69|144:8,1,222,4|0,0:0|0:0,0:0:0:0:
412,180,34243,2,0,L|171:178,1,222,0|8,0:0|0:0,0:0:0:0:
190,178,34860,1,0,3:0:0:0:
381,219,35065,6,0,P|430:192|356:80,1,222,4|0,3:2|0:0,0:0:0:0:
258,70,35682,1,0,3:0:0:0:
442,55,35887,2,0,L|446:177,1,111,0|0,3:0|0:0,0:0:0:0:
291,217,36298,2,0,L|437:212,1,111,8|0,0:0|0:0,0:0:0:0:
107,270,36709,6,0,P|51:248|134:160,1,222,8|0,3:0|0:0,0:0:0:0:
229,157,37326,1,0,3:0:0:0:
65,158,37531,2,0,L|194:158,2,111,0|0|8,0:0|0:0|0:0,0:0:0:0:
121,106,38045,1,0,0:0:0:0:
176,158,38148,1,0,3:0:0:0:
453,193,38353,6,0,L|461:72,1,111,8|0,3:0|0:0,0:0:0:0:
188,51,38761,2,0,P|107:55|39:208,1,222,2|2,0:0|0:0,0:0:0:0:
228,207,39577,2,0,L|92:207,1,111,8|0,0:0|3:0,0:0:0:0:
407,299,39985,6,0,P|458:275|389:163,1,222,4|0,0:0|0:0,0:0:0:0:
138,198,40801,2,0,L|394:193,1,222,0|8,0:0|0:0,0:0:0:0:
359,193,41414,1,0,3:0:0:0:
79,274,41618,6,0,P|12:245|96:156,1,222,4|0,3:2|0:0,0:0:0:0:
196,142,42230,1,0,3:0:0:0:
380,152,42434,2,0,L|385:36,1,111,0|0,3:0|0:0,0:0:0:0:
196,142,42842,2,0,L|68:139,1,111,8|0,0:0|3:0,0:0:0:0:
262,112,43250,6,0,P|336:123|396:276,1,222,8|0,3:0|3:0,0:0:0:0:
224,258,43863,2,0,L|465:243,1,222,0|0,0:0|3:0,0:0:0:0:
280,183,44475,2,0,L|160:183,1,111,8|0,0:0|0:0,0:0:0:0:
462,184,44883,6,0,L|471:59,1,111,12|12,3:2|3:2,0:0:0:0:
294,118,45716,6,0,L|181:164,1,111
294,118,46133,2,0,L|397:68,1,111
162,192,46549,6,0,L|43:193,1,111,12|4,3:2|3:2,0:0:0:0:
222,155,46959,1,2,0:0:0:0:
223,99,47061,1,0,0:0:0:0:
225,44,47164,1,0,3:0:0:0:
124,72,47370,1,2,0:0:0:0:
122,16,47472,1,0,0:0:0:0:
121,0,47575,1,0,3:0:0:0:
389,189,47781,2,0,L|503:192,1,111,4|4,3:2|3:2,0:0:0:0:
322,143,48192,5,2,3:0:0:0:
321,87,48294,1,0,0:0:0:0:
320,32,48397,1,0,0:0:0:0:
422,94,48603,1,8,3:0:0:0:
424,38,48705,1,0,0:0:0:0:
427,0,48808,1,0,3:0:0:0:
154,204,49014,2,0,L|13:203,1,111,4|4,3:2|3:2,0:0:0:0:
221,137,49425,2,0,L|350:137,1,111,8|0,0:0|3:0,0:0:0:0:
64,108,49836,6,0,L|61:-22,1,111,4|4,3:2|3:2,0:0:0:0:
224,50,50247,1,2,0:0:0:0:
279,50,50349,1,0,0:0:0:0:
334,50,50452,1,0,3:0:0:0:
224,50,50658,1,2,0:0:0:0:
168,50,50760,1,0,0:0:0:0:
113,50,50863,1,0,0:0:0:0:
400,212,51069,2,0,L|405:86,1,111,4|4,3:2|3:2,0:0:0:0:
230,117,51480,5,12,3:2:0:0:
119,116,51685,1,12,3:2:0:0:
267,217,51891,2,0,L|396:218,1,111
218,117,52302,2,0,P|141:121|86:252,1,222
186,248,52918,1,0,0:0:0:0:
481,259,53124,6,0,L|484:138,1,111,4|8,0:0|0:0,0:0:0:0:
372,149,53535,2,0,L|482:148,1,111,0|8,3:0|0:0,0:0:0:0:
304,219,53946,2,0,L|188:217,2,111,0|8|0,3:0|0:0|3:0,0:0:0:0:
406,214,54562,2,0,L|408:124,1,55.5,8|0,0:0|0:0,0:0:0:0:
288,130,54768,6,0,L|164:124,4,111,0|8|0|8|0,3:0|0:0|3:0|0:0|3:0,0:0:0:0:
113,247,55795,2,0,P|55:221|137:127,1,222,8|8,0:0|0:0,0:0:0:0:
288,140,56412,6,0,L|375:136,2,55.5,0|0|8,3:0|0:0|0:0,0:0:0:0:
184,61,56828,2,0,L|125:58,2,55.5,0|0|8,3:0|0:0|0:0,0:0:0:0:
282,182,57245,1,0,3:0:0:0:
226,178,57349,1,8,3:0:0:0:
171,175,57453,1,8,0:0:0:0:
334,110,57662,2,0,L|431:107,2,55.5,0|8|0,3:0|3:0|3:0,0:0:0:0:
56,215,58078,6,0,L|53:70,1,111,4|8,0:0|0:0,0:0:0:0:
164,100,58488,2,0,L|30:104,1,111,0|8,3:0|0:0,0:0:0:0:
214,180,58899,2,0,L|334:184,1,111,0|8,3:0|0:0,0:0:0:0:
162,128,59310,2,0,L|159:17,1,111,0|8,3:0|0:0,0:0:0:0:
334,68,59721,6,0,L|410:68,2,55.5,0|0|8,3:0|0:0|0:0,0:0:0:0:
228,99,60132,2,0,L|152:99,2,55.5,0|0|8,3:0|0:0|0:0,0:0:0:0:
323,178,60543,1,0,0:0:0:0:
267,176,60645,1,0,0:0:0:0:
212,174,60748,1,8,0:0:0:0:
323,178,60954,1,0,3:0:0:0:
212,174,61160,2,0,L|211:103,1,55.5,8|0,0:0|3:0,0:0:0:0:
329,92,61365,6,0,L|468:91,1,111,0|8,3:0|0:0,0:0:0:0:
263,132,61776,2,0,L|262:5,1,111,0|8,3:0|0:0,0:0:0:0:
443,42,62187,2,0,L|447:179,1,111,0|8,3:0|0:0,0:0:0:0:
277,239,62598,2,0,L|424:241,1,111,0|8,3:0|0:0,0:0:0:0:
215,117,63009,6,0,L|149:115,2,55.5,0|0|8,3:0|0:0|0:0,0:0:0:0:
390,123,63420,2,0,L|394:45,1,55.5,0|0,3:0|0:0,0:0:0:0:
332,48,63625,1,8,0:0:0:0:
63,126,63831,2,0,L|8:127,2,55.5,0|0|8,3:0|3:0|0:0,0:0:0:0:
234,124,64242,1,0,3:0:0:0:
178,121,64344,1,8,3:0:0:0:
123,119,64447,1,0,3:0:0:0:
401,215,64653,6,0,L|410:98,1,111,4|8,0:0|0:0,0:0:0:0:
242,69,65064,2,0,L|111:70,1,111,0|8,3:0|0:0,0:0:0:0:
312,207,65475,2,0,P|376:179|300:90,1,222,0|0,3:0|3:0,0:0:0:0:
203,96,66091,2,0,L|203:12,1,55.5,8|0,0:0|3:0,0:0:0:0:
329,30,66297,6,0,P|401:39|471:183,1,222,0|0,3:0|3:0,0:0:0:0:
200,238,67119,2,0,L|430:233,1,222,0|0,3:0|3:0,0:0:0:0:
308,171,67735,1,8,0:0:0:0:
129,201,67941,6,0,P|61:181|138:100,1,222,0|8,3:0|3:0,0:0:0:0:
237,88,68557,2,0,L|237:161,1,55.5,8|0,3:0|0:0,0:0:0:0:
118,182,68762,2,0,L|116:58,1,111,0|0,3:0|0:0,0:0:0:0:
293,58,69173,2,0,L|418:59,1,111,8|8,3:0|3:0,0:0:0:0:
119,170,69584,6,4,L|1:170,1,111,8|0,3:0|0:0,0:0:0:0:
312,140,69992,2,0,L|389:138,2,55.5,0|0|0,0:0|0:0|3:0,0:0:0:0:
35,256,70400,2,0,P|15:175|181:7,1,333,4|0,3:2|0:0,0:0:0:0:
466,207,71216,6,0,L|481:-24,1,222,4|0,3:2|0:0,0:0:0:0:
281,38,72037,2,0,L|497:155,1,222
163,218,72859,6,0,P|93:195|182:119,1,222
371,159,73681,2,0,P|431:145|348:-37,1,333
256,113,74503,6,0,L|180:112,2,74,2|0|0,0:0|0:0|0:0,0:0:0:0:
331,115,74914,2,0,L|422:114,2,74,2|0|0,0:0|0:0|0:0,0:0:0:0:
114,258,75325,2,0,P|43:228|133:151,1,222,2|0,3:2|0:0,0:0:0:0:
281,148,76147,5,2,0:0:0:0:
207,148,76283,1,0,0:0:0:0:
133,149,76420,1,0,0:0:0:0:
207,148,76558,1,2,0:0:0:0:
281,148,76694,1,0,0:0:0:0:
355,148,76831,1,0,0:0:0:0:
281,148,76969,2,0,P|203:150|134:283,1,222,2|0,3:2|0:0,0:0:0:0:
457,263,77791,6,0,L|466:136,1,111,4|0,3:2|3:0,0:0:0:0:
275,134,78407,2,0,L|418:128,2,111,8|0|0,3:0|3:0|3:0,0:0:0:0:
90,183,79024,2,0,L|84:61,1,111,8|8,3:0|3:0,0:0:0:0:
265,69,79435,6,0,L|80:69,2,166.5,4|0|0,0:0|0:0|3:0,0:0:0:0:
439,233,80257,2,0,P|496:208|405:103,1,222,8|8,3:0|0:0,0:0:0:0:
136,180,81079,6,0,L|127:55,1,111,0|0,3:0|3:0,0:0:0:0:
240,54,81489,1,0,0:0:0:0:
295,53,81591,1,0,0:0:0:0:
350,52,81694,1,0,3:0:0:0:
174,157,81900,2,0,L|172:28,1,111,0|0,3:0|3:0,0:0:0:0:
282,83,82311,1,8,3:2:0:0:
337,83,82413,1,0,0:0:0:0:
393,83,82516,1,0,3:0:0:0:
204,228,82722,6,0,L|125:224,2,55.5,4|0|0,3:2|0:0|3:0,0:0:0:0:
306,170,83133,2,0,L|391:167,2,55.5,4|0|0,3:2|0:0|3:0,0:0:0:0:
204,228,83544,2,0,L|125:224,2,55.5,4|0|0,3:2|3:0|3:0,0:0:0:0:
377,217,83955,2,0,L|383:83,1,111,12|0,0:0|0:0,0:0:0:0:
104,82,84366,6,0,L|26:82,2,55.5,4|8|8,3:2|3:0|3:0,0:0:0:0:
275,144,84774,1,4,3:2:0:0:
330,144,84876,1,0,3:0:0:0:
386,144,84978,1,0,3:0:0:0:
217,89,85182,5,4,3:2:0:0:
161,89,85284,1,4,3:0:0:0:
106,89,85386,1,4,3:0:0:0:
295,190,85820,5,12,3:2:0:0:
119,187,86050,1,12,3:2:0:0:
295,190,86281,5,14,3:2:0:0:
