osu file format v14

[General]
AudioFilename: audio.mp3
AudioLeadIn: 0
PreviewTime: 52311
Countdown: 0
SampleSet: Soft
StackLeniency: 0.7
Mode: 0
LetterboxInBreaks: 0
WidescreenStoryboard: 0

[Editor]
DistanceSpacing: 1.2
BeatDivisor: 4
GridSize: 4
TimelineZoom: 2.1

[Metadata]
Title:JoJo ~Sono Chi no Sadame~ (TV Size)
TitleUnicode:ジョジョ 〜その血の運命〜 (TV Size)
Artist:Tominaga Tommy Hiroaki
ArtistUnicode:富永 TOMMY 弘明
Creator:-Aerith-
Version:Hard
Source:ジョジョの奇妙な冒険
Tags:JoJo's Bizarre Adventure phantom blood ~ That Blood Fate ~ Shoko Fujibayashi Kohei Tanaka Otani Sachi jonathan joestar Dio Brando Erina Pendleton Modem Janssen Atsuro Hytex Deppyforce
BeatmapID:1448790
BeatmapSetID:684579

[Difficulty]
HPDrainRate:6
CircleSize:4
OverallDifficulty:6
ApproachRate:8
SliderMultiplier:1.6
SliderTickRate:2

[Events]
//Background and Video events
0,0,"BG.jpg",0,0
Video,-553,"OP.avi"
//Break Periods
2,46244,51181
//Storyboard Layer 0 (Background)
//Storyboard Layer 1 (Fail)
//Storyboard Layer 2 (Pass)
//Storyboard Layer 3 (Foreground)
//Storyboard Layer 4 (Overlay)
//Storyboard Sound Samples

[TimingPoints]
17,410.958904109589,4,2,1,60,1,0
15016,-100,4,2,3,60,0,0
15222,-100,4,2,1,60,0,0
16660,-100,4,2,3,60,0,0
16866,-100,4,2,1,60,0,0
32277,-100,4,2,3,60,0,0
32482,-100,4,2,1,60,0,0
33715,-100,4,2,3,60,0,0
33921,-100,4,2,1,5,0,0
34126,-100,4,2,1,60,0,0
52619,-83.3333333333333,4,2,1,60,0,1
69880,-133.333333333333,4,2,1,60,0,1
70701,-133.333333333333,4,2,1,60,0,0
70907,-133.333333333333,4,2,0,60,0,0
77277,-100,4,2,1,60,0,0
79332,-100,4,2,2,60,0,0
79537,-100,4,2,1,60,0,0

[Colours]
Combo1 : 128,0,128
Combo2 : 192,192,192
Combo3 : 0,0,187

[HitObjects]
51,91,9880,5,6,0:0:0:0:
51,91,10085,2,0,P|119:59|191:123,1,160,2|2,0:0|0:0,0:0:0:0:
227,197,10701,2,0,L|147:201,1,80,2|2,0:0|0:0,0:0:0:0:
22,290,11112,2,0,L|103:287,1,80,8|2,0:0|0:0,0:0:0:0:
188,352,11523,1,2,0:0:0:0:
188,352,11934,6,0,L|277:350,1,80,8|2,0:0|0:0,0:0:0:0:
413,269,12345,2,0,L|332:272,2,80,2|2|8,0:0|0:0|0:0,0:0:0:0:
494,197,12962,1,2,0:0:0:0:
494,197,13167,6,0,P|516:120|459:53,1,160,2|8,0:0|0:0,0:0:0:0:
424,136,13784,2,0,B|369:131|369:131|324:151|324:151|268:146,1,160,2|2,0:0|0:0,0:0:0:0:
173,134,14400,1,8,0:0:0:0:
92,187,14606,1,2,0:0:0:0:
92,187,14811,6,0,P|46:258|75:331,1,160,2|8,0:0|0:0,0:0:0:0:
146,267,15427,2,0,B|201:262|201:262|249:282|249:282|302:277,1,160,2|2,0:0|0:0,0:0:0:0:
398,270,16044,1,8,0:0:0:0:
488,302,16249,1,2,0:0:0:0:
508,208,16455,6,0,L|504:28,1,160,2|8,0:0|0:0,0:0:0:0:
400,24,17071,1,2,0:0:0:0:
343,114,17277,2,0,P|301:122|257:113,1,80,2|2,0:0|0:0,0:0:0:0:
87,56,17688,2,0,P|125:46|165:52,1,80,8|2,0:0|0:0,0:0:0:0:
92,168,18099,1,2,0:0:0:0:
92,168,18510,6,0,P|45:172|9:174,2,80,8|2|2,0:0|0:0|0:0,0:0:0:0:
168,244,19126,1,2,0:0:0:0:
100,320,19332,2,0,P|60:324|11:326,1,80,8|2,0:0|0:0,0:0:0:0:
168,244,19743,6,0,B|232:238|232:238|269:262|269:262|337:258,1,160,2|8,0:0|0:0,0:0:0:0:
396,328,20359,2,0,P|370:249|428:181,1,160,2|2,0:0|0:0,0:0:0:0:
468,264,20975,1,8,0:0:0:0:
344,123,21181,1,2,0:0:0:0:
409,189,21386,6,0,P|435:110|377:42,1,160,2|8,0:0|0:0,0:0:0:0:
344,123,22003,2,0,B|284:120|284:120|245:140|245:140|182:136,1,160,2|2,0:0|0:0,0:0:0:0:
93,129,22619,1,8,0:0:0:0:
17,61,22825,1,2,0:0:0:0:
33,203,23030,6,0,P|-9:274|19:348,1,160,6|8,0:0|0:0,0:0:0:0:
91,285,23647,1,2,0:0:0:0:
162,341,23852,2,0,P|233:344|287:338,2,120,2|8|2,0:0|0:0|0:0,0:0:0:0:
338,243,24674,2,0,P|278:242|218:246,2,120,2|8|2,0:0|0:0|0:0,0:0:0:0:
414,185,25496,2,0,P|435:239|417:295,2,120,2|8|2,0:0|0:0|0:0,0:0:0:0:
337,121,26318,6,0,P|411:144|480:108,1,160,2|8,0:0|0:0,0:0:0:0:
356,29,26934,2,0,B|296:32|296:32|258:62|258:62|192:60,1,160,2|2,0:0|0:0,0:0:0:0:
108,64,27551,1,8,0:0:0:0:
8,112,27756,1,2,0:0:0:0:
162,175,27962,6,0,P|86:179|67:251,1,160,6|8,0:0|0:0,0:0:0:0:
12,336,28578,2,0,P|70:291|142:327,1,160,6|2,0:0|0:0,0:0:0:0:
236,356,29195,2,0,L|331:348,1,80,8|2,0:0|0:0,0:0:0:0:
384,276,29606,1,6,0:0:0:0:
384,276,29811,1,8,0:0:0:0:
469,110,30222,6,0,P|406:76|331:121,1,160,6|2,0:0|0:0,0:0:0:0:
247,62,30838,2,0,L|248:14,2,40,8|2|2,0:0|0:0|0:0,0:0:0:0:
197,161,31249,1,6,0:0:0:0:
128,64,31455,1,6,0:0:0:0:
68,169,31660,1,6,0:0:0:0:
0,270,31866,6,0,B|120:229|90:359|229:319,1,240,6|8,0:0|0:0,0:0:0:0:
243,311,32585,1,8,0:0:0:0:
268,301,32688,1,4,3:0:0:0:
396,351,32893,6,0,P|370:275|427:216,1,160,6|8,0:0|0:0,0:0:0:0:
483,149,33510,2,0,P|415:183|336:147,1,160,2|2,0:0|0:0,0:0:0:0:
338,57,34126,2,0,L|260:85,1,80,8|2,0:0|0:0,0:0:0:0:
135,43,34537,6,0,P|186:24|264:92,1,160,2|8,0:0|0:0,0:0:0:0:
179,131,35153,1,2,0:0:0:0:
111,199,35359,2,0,P|67:202|27:201,1,80,2|2,0:0|0:0,0:0:0:0:
74,302,35770,2,0,P|113:302|153:299,1,80,8|2,0:0|0:0,0:0:0:0:
300,226,36181,6,0,P|244:285|271:360,2,160,2|8|2,0:0|0:0|0:0,0:0:0:0:
349,308,37208,1,2,0:0:0:0:
390,219,37414,2,0,P|390:173|391:132,1,80,8|2,0:0|0:0,0:0:0:0:
456,68,37825,6,0,P|387:31|318:77,1,160,2|8,0:0|0:0,0:0:0:0:
268,148,38441,2,0,B|205:139|205:139|165:158|165:158|95:146,1,160,2|2,0:0|0:0,0:0:0:0:
116,36,39058,1,8,0:0:0:0:
8,88,39263,1,2,0:0:0:0:
113,149,39469,6,0,P|176:228|144:288,1,160,6|8,0:0|0:0,0:0:0:0:
112,360,40085,1,2,0:0:0:0:
208,348,40290,2,0,P|256:340|300:332,1,80,2|2,0:0|0:0,0:0:0:0:
384,348,40701,2,0,P|428:344|480:340,1,80,8|2,0:0|0:0,0:0:0:0:
512,260,41112,6,0,L|508:88,1,160,2|8,0:0|0:0,0:0:0:0:
420,48,41729,1,2,0:0:0:0:
360,128,41934,2,0,P|313:138|268:127,1,80,2|2,0:0|0:0,0:0:0:0:
200,68,42345,2,0,P|155:63|123:79,1,80,8|2,0:0|0:0,0:0:0:0:
64,161,42756,6,0,L|76:329,1,160,2|8,0:0|0:0,0:0:0:0:
172,358,43373,1,2,0:0:0:0:
256,304,43578,2,0,L|256:218,1,80,2|2,0:0|0:0,0:0:0:0:
361,269,43989,2,0,L|368:356,1,80,8|2,0:0|0:0,0:0:0:0:
447,196,44400,5,6,0:0:0:0:
447,196,44606,1,6,0:0:0:0:
256,192,44708,12,6,46044,0:0:0:0:
436,75,52414,5,2,0:0:0:0:
424,94,52516,1,2,0:0:0:0:
414,115,52619,6,0,L|410:223,1,95.9999970703126,6|8,0:0|0:0,0:0:0:0:
336,312,53030,1,2,0:0:0:0:
324,296,53133,1,2,0:0:0:0:
313,275,53236,2,0,L|305:175,1,95.9999970703126,8|2,0:0|0:0,0:0:0:0:
256,64,53647,1,8,0:0:0:0:
240,80,53749,1,2,0:0:0:0:
221,95,53852,2,0,P|174:85|126:106,1,95.9999970703126,2|8,0:0|0:0,0:0:0:0:
15,218,54263,6,0,P|61:229|105:214,1,95.9999970703126,2|8,0:0|0:0,0:0:0:0:
218,236,54674,1,2,0:0:0:0:
229,251,54777,1,2,0:0:0:0:
240,265,54880,2,0,L|246:368,1,95.9999970703126,8|2,0:0|0:0,0:0:0:0:
356,324,55290,1,8,0:0:0:0:
372,304,55393,1,2,0:0:0:0:
384,284,55496,2,0,L|387:180,1,95.9999970703126,2|8,0:0|0:0,0:0:0:0:
435,80,55907,6,0,P|386:65|343:80,1,95.9999970703126,2|8,0:0|0:0,0:0:0:0:
270,166,56318,2,0,P|226:182|166:167,1,95.9999970703126,2|8,0:0|0:0,0:0:0:0:
76,92,56729,2,0,L|60:192,1,95.9999970703126,2|8,0:0|0:0,0:0:0:0:
100,344,57140,2,0,L|96:288,1,47.9999985351563,2|2,0:0|0:0,0:0:0:0:
116,280,57345,2,0,L|168:272,1,47.9999985351563,8|2,0:0|0:0,0:0:0:0:
192,264,57551,6,0,P|216:216|264:192,1,95.9999970703126,6|8,0:0|0:0,0:0:0:0:
300,300,57962,2,0,P|340:324|400:312,1,95.9999970703126,2|8,0:0|0:0,0:0:0:0:
476,252,58373,2,0,L|484:148,1,95.9999970703126,2|8,0:0|0:0,0:0:0:0:
372,46,58784,2,0,L|378:158,1,95.9999970703126,2|8,0:0|0:0,0:0:0:0:
362,166,59092,1,2,0:0:0:0:
348,186,59195,6,0,P|302:169|248:183,1,95.9999970703126,2|8,0:0|0:0,0:0:0:0:
156,108,59606,2,0,L|148:12,1,95.9999970703126,2|8,0:0|0:0,0:0:0:0:
40,92,60016,2,0,L|32:192,1,95.9999970703126,2|8,0:0|0:0,0:0:0:0:
136,244,60427,2,0,B|123:279|123:279|130:344,1,95.9999970703126,2|8,0:0|0:0,0:0:0:0:
152,348,60736,1,2,0:0:0:0:
180,356,60838,6,0,L|282:351,1,95.9999970703126,2|8,0:0|0:0,0:0:0:0:
368,276,61249,2,0,B|374:217|374:217|361:182,1,95.9999970703126,2|8,0:0|0:0,0:0:0:0:
273,95,61660,2,0,L|177:97,1,95.9999970703126,2|8,0:0|0:0,0:0:0:0:
361,182,62071,2,0,B|375:217|375:217|368:279,1,95.9999970703126,2|8,0:0|0:0,0:0:0:0:
350,295,62380,1,2,0:0:0:0:
328,311,62482,6,0,L|228:300,1,95.9999970703126,2|8,0:0|0:0,0:0:0:0:
124,328,62893,2,0,P|120:276|118:225,1,95.9999970703126,2|8,0:0|0:0,0:0:0:0:
204,156,63304,2,0,L|200:96,1,47.9999985351563,8|8,0:0|0:0,0:0:0:0:
232,60,63510,2,0,P|280:44|336:64,1,95.9999970703126,8|8,0:0|0:0,0:0:0:0:
384,144,63921,2,0,L|385:194,1,47.9999985351563,8|8,0:0|0:0,0:0:0:0:
420,300,64126,6,0,P|372:288|324:280,1,95.9999970703126,6|8,0:0|0:0,0:0:0:0:
212,240,64537,2,0,L|220:340,1,95.9999970703126,2|8,0:0|0:0,0:0:0:0:
111,207,64948,2,0,L|103:109,1,95.9999970703126,2|8,0:0|0:0,0:0:0:0:
204,36,65359,2,0,B|241:25|241:25|315:36,1,95.9999970703126,2|8,0:0|0:0,0:0:0:0:
320,48,65667,1,2,0:0:0:0:
336,68,65770,6,0,L|338:170,1,95.9999970703126,2|8,0:0|0:0,0:0:0:0:
437,235,66181,2,0,P|449:280|434:325,1,95.9999970703126,2|8,0:0|0:0,0:0:0:0:
320,348,66592,2,0,B|224:340,1,95.9999970703126,2|8,0:0|0:0,0:0:0:0:
204,324,66900,1,2,0:0:0:0:
184,312,67003,2,0,L|88:323,1,95.9999970703126,2|8,0:0|0:0,0:0:0:0:
248,216,67414,6,0,P|268:196|280:176,1,47.9999985351563,8|8,0:0|0:0,0:0:0:0:
300,124,67619,2,0,L|288:12,1,95.9999970703126,8|2,0:0|0:0,0:0:0:0:
104,16,68030,2,0,P|120:40|136:56,1,47.9999985351563,8|8,0:0|0:0,0:0:0:0:
164,104,68236,2,0,L|156:200,1,95.9999970703126,8|2,0:0|0:0,0:0:0:0:
276,308,68647,6,0,P|280:276|288:252,1,47.9999985351563,8|8,0:0|0:0,0:0:0:0:
328,224,68852,2,0,L|424:220,1,95.9999970703126,8|2,0:0|0:0,0:0:0:0:
460,108,69263,2,0,L|410:111,1,47.9999985351563,8|8,0:0|0:0,0:0:0:0:
364,77,69469,2,0,L|312:80,1,47.9999985351563,8|8,0:0|0:0,0:0:0:0:
266,51,69674,2,0,L|206:53,1,47.9999985351563,8|8,3:0|3:0,0:0:0:0:
161,36,69880,6,0,P|79:50|62:162,1,210.000008010865,6|0,0:0|0:0,0:0:0:0:
86,210,70701,6,0,P|137:213|210:207,1,120.000004577637,6|2,0:0|0:0,0:0:0:0:
295,320,71523,2,0,P|346:323|419:317,1,120.000004577637,2|2,0:0|0:0,0:0:0:0:
497,199,72345,2,0,B|510:171|510:171|505:65,2,120.000004577637,2|2|2,0:0|0:0|0:0,0:0:0:0:
362,146,73578,5,0,0:0:0:0:
362,146,73989,2,0,B|345:107|345:107|348:29,2,120.000004577637,2|0|2,0:0|0:0|0:0,0:0:0:0:
256,192,74914,12,6,77277,0:0:0:0:
159,108,78510,5,8,0:0:0:0:
159,108,78715,1,2,0:0:0:0:
159,108,78921,6,0,P|100:88|40:120,2,120,2|2|2,0:0|0:0|0:0,0:0:0:0:
211,190,79743,2,0,P|199:233|208:269,1,80,2|2,0:0|0:0,0:0:0:0:
272,345,80153,2,0,L|352:344,1,80,8|2,0:0|0:0,0:0:0:0:
474,341,80564,5,8,0:0:0:0:
474,341,80770,1,2,0:0:0:0:
411,211,80975,2,0,L|412:252,2,40,8|2|2,0:0|0:0|0:0,0:0:0:0:
322,132,81386,5,8,0:0:0:0:
322,132,81592,1,2,0:0:0:0:
408,51,81797,2,0,L|453:50,2,40,8|2|2,0:0|0:0|0:0,0:0:0:0:
322,132,82208,6,0,L|278:132,2,40,8|2|2,0:0|0:0|0:0,0:0:0:0:
411,211,82619,2,0,L|463:210,2,40,8|2|2,0:0|0:0|0:0,0:0:0:0:
323,274,83030,2,0,L|268:274,2,40,8|2|2,0:0|0:0|0:0,0:0:0:0:
411,211,83441,6,0,L|408:40,1,160,12|8,0:0|0:0,0:0:0:0:
396,27,83955,1,2,0:0:0:0:
372,17,84058,1,2,0:0:0:0:
291,116,84263,5,8,0:0:0:0:
292,142,84366,1,2,0:0:0:0:
293,165,84469,1,2,0:0:0:0:
191,241,84674,5,8,0:0:0:0:
191,213,84777,1,2,0:0:0:0:
191,186,84880,1,2,0:0:0:0:
16,188,85290,5,8,0:0:0:0:
102,25,85496,1,6,0:0:0:0:
191,186,85701,1,6,0:0:0:0:
