osu file format v14

[General]
AudioFilename: audio.mp3
AudioLeadIn: 0
PreviewTime: 52311
Countdown: 0
SampleSet: Soft
StackLeniency: 0.7
Mode: 0
LetterboxInBreaks: 0
WidescreenStoryboard: 0

[Editor]
Bookmarks: 62174
DistanceSpacing: 1.4
BeatDivisor: 4
GridSize: 8
TimelineZoom: 1.6

[Metadata]
Title:JoJo ~Sono Chi no Sadame~ (TV Size)
TitleUnicode:ジョジョ 〜その血の運命〜 (TV Size)
Artist:Tominaga Tommy Hiroaki
ArtistUnicode:富永 TOMMY 弘明
Creator:-Aerith-
Version:Easy
Source:ジョジョの奇妙な冒険
Tags:JoJo's Bizarre Adventure phantom blood ~ That Blood Fate ~ Shoko Fujibayashi Kohei Tanaka Otani Sachi jonathan joestar Dio Brando Erina Pendleton Modem Janssen Atsuro Hytex Deppyforce
BeatmapID:1449066
BeatmapSetID:684579

[Difficulty]
HPDrainRate:3
CircleSize:3
OverallDifficulty:3
ApproachRate:4
SliderMultiplier:0.8
SliderTickRate:1

[Events]
//Background and Video events
0,0,"BG.jpg",0,0
Video,-553,"OP.avi"
//Break Periods
2,46249,51181
//Storyboard Layer 0 (Background)
//Storyboard Layer 1 (Fail)
//Storyboard Layer 2 (Pass)
//Storyboard Layer 3 (Foreground)
//Storyboard Layer 4 (Overlay)
//Storyboard Sound Samples

[TimingPoints]
17,410.958904109589,4,2,1,60,1,0
10290,-100,4,2,2,60,0,0
10701,-100,4,2,1,60,0,0
11934,-100,4,2,2,60,0,0
12345,-100,4,2,1,60,0,0
13578,-100,4,2,2,60,0,0
13784,-100,4,2,1,60,0,0
15222,-100,4,2,2,60,0,0
15427,-100,4,2,1,60,0,0
16866,-100,4,2,2,60,0,0
17277,-100,4,2,1,60,0,0
18510,-100,4,2,2,60,0,0
18921,-100,4,2,1,60,0,0
20153,-100,4,2,2,60,0,0
20359,-100,4,2,1,60,0,0
21797,-100,4,2,2,60,0,0
22003,-100,4,2,1,60,0,0
25085,-100,4,2,2,60,0,0
25496,-100,4,2,3,60,0,0
25907,-100,4,2,1,60,0,0
26729,-100,4,2,2,60,0,0
26934,-100,4,2,1,60,0,0
28373,-100,4,2,2,60,0,0
28578,-100,4,2,1,60,0,0
30016,-100,4,2,2,60,0,0
30222,-100,4,2,1,60,0,0
31660,-100,4,2,2,60,0,0
31866,-100,4,2,1,60,0,0
33304,-100,4,2,2,60,0,0
33715,-100,4,2,3,60,0,0
34126,-100,4,2,1,60,0,0
34948,-100,4,2,2,60,0,0
35359,-100,4,2,3,60,0,0
35770,-100,4,2,1,60,0,0
36592,-100,4,2,2,60,0,0
37003,-100,4,2,3,60,0,0
37414,-100,4,2,1,60,0,0
39880,-100,4,2,2,60,0,0
40290,-100,4,2,3,60,0,0
40701,-100,4,2,1,60,0,0
41523,-100,4,2,2,60,0,0
41934,-100,4,2,3,60,0,0
42345,-100,4,2,1,60,0,0
52619,-100,4,2,1,65,0,1
53030,-100,4,2,2,65,0,1
53441,-100,4,2,3,65,0,1
53852,-100,4,2,1,65,0,1
56318,-100,4,2,2,65,0,1
56729,-100,4,2,3,65,0,1
57140,-100,4,2,1,65,0,1
57962,-100,4,2,2,65,0,1
58373,-100,4,2,3,65,0,1
58784,-100,4,2,1,65,0,1
61249,-100,4,2,2,65,0,1
61660,-100,4,2,3,65,0,1
62071,-100,4,2,1,65,0,1
64537,-100,4,2,2,65,0,1
64948,-100,4,2,1,65,0,1
73989,-100,4,2,0,60,0,0
74914,-100,4,2,1,60,0,0
80975,-100,4,2,2,60,0,0
81386,-100,4,2,3,60,0,0
81797,-100,4,2,1,60,0,0

[Colours]
Combo1 : 128,0,128
Combo2 : 192,192,192
Combo3 : 0,0,187

[HitObjects]
45,72,9880,6,0,L|59:246,1,160,6|2,0:0|0:0,0:0:0:0:
127,318,11112,1,8,0:0:0:0:
198,231,11523,2,0,L|207:58,1,160,2|2,0:0|0:0,0:0:0:0:
307,23,12756,1,8,0:0:0:0:
314,135,13167,6,0,P|368:163|432:157,2,120,2|2|8,0:0|0:0|0:0,0:0:0:0:
226,64,14811,2,0,L|98:73,2,120,2|2|8,0:0|0:0|0:0,0:0:0:0:
314,135,16455,6,0,L|316:305,1,160,2|2,0:0|0:0,0:0:0:0:
221,356,17688,1,8,0:0:0:0:
119,308,18099,2,0,L|112:138,1,160,2|2,0:0|0:0,0:0:0:0:
189,66,19332,1,8,0:0:0:0:
235,168,19743,6,0,P|287:187|356:167,2,120,2|2|8,0:0|0:0|0:0,0:0:0:0:
130,126,21386,2,0,L|120:-4,2,120,2|2|8,0:0|0:0|0:0,0:0:0:0:
55,209,23030,6,0,L|63:298,1,80,6|8,0:0|0:0,0:0:0:0:
155,350,23852,2,0,L|163:263,1,80,2|8,0:0|0:0,0:0:0:0:
254,205,24674,2,0,B|387:172|335:297|477:265,1,240,2|8,0:0|0:0,0:0:0:0:
438,158,26318,2,0,L|448:24,2,120,2|2|8,0:0|0:0|0:0,0:0:0:0:
374,250,27962,6,0,P|427:274|484:260,2,120,6|6|8,0:0|0:0|0:0,0:0:0:0:
281,185,29606,2,0,L|271:65,2,120,6|6|8,0:0|0:0|0:0,0:0:0:0:
243,290,31249,2,0,P|177:296|118:293,1,120,6|6,0:0|0:0,0:0:0:0:
13,166,32482,1,8,0:0:0:0:
61,65,32893,6,0,B|189:25|153:140|287:108,1,240,6|8,0:0|0:0,0:0:0:0:
367,32,34537,2,0,B|321:97|321:97|325:259,1,240,2|8,0:0|0:0,0:0:0:0:
240,330,36181,6,0,L|235:83,1,240,2|8,0:0|0:0,0:0:0:0:
333,35,37825,2,0,L|336:121,1,80,2|8,0:0|0:0,0:0:0:0:
443,145,38647,2,0,L|430:224,1,80,2|8,0:0|0:0,0:0:0:0:
337,286,39469,6,0,B|224:264|245:387|97:333,1,240,6|8,0:0|0:0,0:0:0:0:
157,235,41112,2,0,P|105:129|184:44,1,240,2|8,0:0|0:0,0:0:0:0:
226,146,42756,6,0,L|319:142,1,80,2|8,0:0|0:0,0:0:0:0:
384,224,43578,2,0,L|473:220,1,80,2|8,0:0|0:0,0:0:0:0:
256,192,44400,12,6,46044,0:0:0:0:
445,62,52619,6,0,B|408:113|408:113|411:300,1,240,6|8,0:0|0:0,0:0:0:0:
310,339,54263,2,0,L|306:248,1,80,2|8,0:0|0:0,0:0:0:0:
201,300,55085,2,0,L|191:219,1,80,2|8,0:0|0:0,0:0:0:0:
141,119,55907,2,0,B|253:68|250:210|377:164,1,240,2|8,0:0|0:0,0:0:0:0:
425,77,57551,6,0,L|422:320,1,240,6|8,0:0|0:0,0:0:0:0:
314,286,59195,2,0,L|311:199,1,80,2|8,0:0|0:0,0:0:0:0:
203,236,60016,2,0,L|197:149,1,80,2|8,0:0|0:0,0:0:0:0:
95,109,60838,6,0,P|190:40|291:92,1,240,2|8,0:0|0:0,0:0:0:0:
337,190,62482,2,0,L|334:274,1,80,2|8,0:0|0:0,0:0:0:0:
242,334,63304,2,0,L|234:254,1,80,8|8,0:0|0:0,0:0:0:0:
129,294,64126,6,0,B|111:127,1,160,6|2,0:0|0:0,0:0:0:0:
164,36,65359,1,8,0:0:0:0:
237,120,65770,2,0,L|246:211,1,80,2|8,0:0|0:0,0:0:0:0:
347,245,66592,2,0,L|355:156,1,80,2|8,0:0|0:0,0:0:0:0:
256,192,67414,12,6,70701,0:0:0:0:
256,192,73989,6,0,L|264:280,2,80,2|0|2,0:0|0:0|0:0,0:0:0:0:
256,192,74914,12,6,77277,0:0:0:0:
211,55,78921,6,0,L|213:137,1,80,2|8,0:0|0:0,0:0:0:0:
315,180,79743,2,0,L|314:91,1,80,2|8,0:0|0:0,0:0:0:0:
415,53,80564,2,0,L|420:296,1,240,2|8,0:0|0:0,0:0:0:0:
321,347,82208,6,0,L|319:252,1,80,2|8,0:0|0:0,0:0:0:0:
218,317,83030,2,0,L|217:236,1,80,2|12,0:0|0:0,0:0:0:0:
148,148,83852,6,0,L|69:149,2,80,8|8|2,0:0|0:0|0:0,0:0:0:0:
316,148,85290,2,0,L|317:194,2,40,8|6|6,0:0|0:0|0:0,0:0:0:0:
