osu file format v14

[General]
AudioFilename: SonoChoNoSadame.mp3
AudioLeadIn: 0
PreviewTime: 70884
Countdown: 0
SampleSet: Soft
StackLeniency: 0.2
Mode: 0
LetterboxInBreaks: 0
WidescreenStoryboard: 1

[Editor]
Bookmarks: 6364,11501,14172,17973,28042,31021,44172,53830,55371,57015,59275,70063,71501,80747,81364,82186,83110,84241,85987
DistanceSpacing: 0.3
BeatDivisor: 4
GridSize: 4
TimelineZoom: 2.3

[Metadata]
Title:JoJo ~Sono Chi no Sadame~
TitleUnicode:ジョジョ 〜その血の運命〜
Artist:Tominaga Tommy Hiroaki
ArtistUnicode:富永 TOMMY 弘明
Creator:Testo
Version:Insane
Source:ジョジョの奇妙な冒険
Tags:Jojo's Bizarre Adventure jjba Kimyou na Bouken part 1 Opening TV size Hiroaki "TOMMY" Tominaga Phantom Blood ファントムブラッド
BeatmapID:1509285
BeatmapSetID:713688

[Difficulty]
HPDrainRate:5
CircleSize:3.8
OverallDifficulty:7
ApproachRate:8
SliderMultiplier:2.7
SliderTickRate:1

[Events]
//Background and Video events
0,0,"47802_jojos_bizarre_adventure.jpg",0,0
//Break Periods
//Storyboard Layer 0 (Background)
//Storyboard Layer 1 (Fail)
//Storyboard Layer 2 (Pass)
//Storyboard Layer 3 (Foreground)
//Storyboard Sound Samples

[TimingPoints]
205,410.958904109589,4,2,1,65,1,0
205,-142.857142857143,4,2,1,65,0,0
2876,-100,4,2,1,65,0,0
3492,-142.857142857143,4,2,1,55,0,0
9246,-200,4,2,1,55,0,0
10068,-142.857142857143,4,2,1,55,0,0
23218,-142.857142857143,4,2,1,55,0,0
33081,-142.857142857143,4,2,1,55,0,0
46232,-142.857142857143,4,2,1,55,0,0
52602,-142.857142857143,4,2,1,45,0,0
52807,-100,4,2,1,65,0,1
70889,-142.857142857143,4,2,1,65,0,1
77465,-142.857142857143,4,2,1,55,0,0
82396,-142.857142857143,4,2,1,55,0,0
84040,-142.857142857143,4,2,1,60,0,0

[Colours]
Combo1 : 255,192,0
Combo2 : 255,0,0
Combo3 : 18,124,255
Combo4 : 128,255,255

[HitObjects]
232,81,205,5,12,3:0:0:0:
232,81,307,1,12,3:0:0:0:
242,178,513,1,12,3:0:0:0:
242,178,615,1,12,3:0:0:0:
252,275,821,1,12,3:0:0:0:
388,336,1026,2,2,L|415:171,1,141.749995674133,14|2,3:0|0:0,0:0:0:0:
458,137,1437,2,2,P|397:161|311:95,1,141.749995674133,14|2,3:0|0:0,0:0:0:0:
282,72,1848,5,12,3:0:0:0:
282,72,1951,1,12,3:0:0:0:
144,136,2157,1,12,3:0:0:0:
144,136,2259,1,12,3:0:0:0:
29,24,2465,1,12,3:0:0:0:
14,279,2876,6,0,B|90:224|208:250|208:250|186:297|115:317,1,270,14|2,3:2|0:0,0:0:0:0:
327,363,3492,5,4,3:2:0:0:
327,363,3698,2,0,P|354:369|459:244,1,188.999994232178,0|0,3:2|3:0,0:0:0:0:
406,132,4314,2,0,P|365:120|312:132,1,94.4999971160889,0|0,0:0|0:0,0:0:0:0:
184,207,4725,1,0,3:0:0:0:
119,272,4931,1,0,3:0:0:0:
119,272,5033,1,0,3:0:0:0:
119,272,5136,6,2,B|182:300|182:300|287:258,2,141.749995674133,6|2|2,0:0|0:0|3:0,0:0:0:0:
274,195,5958,2,0,P|331:262|279:351,1,188.999994232178,6|10,3:2|0:2,0:0:0:0:
292,344,6780,5,0,3:0:0:0:
423,315,6985,1,0,3:0:0:0:
329,213,7191,1,0,0:0:0:0:
329,213,7294,1,0,0:0:0:0:
329,213,7396,1,0,3:0:0:0:
161,373,7602,5,0,0:0:0:0:
292,344,7807,1,0,3:0:0:0:
198,242,8013,1,8,3:2:0:0:
198,242,8115,1,0,0:0:0:0:
198,242,8218,1,0,0:0:0:0:
305,353,8424,5,12,3:0:0:0:
436,180,8629,1,12,3:0:0:0:
436,180,9246,5,0,3:0:0:0:
361,132,9451,1,0,3:0:0:0:
292,186,9657,2,0,B|255:187|255:187|212:171,1,67.5,0|0,0:0|0:0,0:0:0:0:
91,102,10068,5,4,0:0:0:0:
91,102,10273,2,0,B|64:217|139:165|112:295,1,188.999994232178,0|0,3:0|3:0,0:0:0:0:
210,359,10889,5,0,0:0:0:0:
210,359,11095,1,0,3:0:0:0:
368,296,11300,1,8,0:0:0:0:
278,187,11506,1,0,3:0:0:0:
278,187,11609,1,0,3:0:0:0:
278,187,11711,2,0,P|272:243|274:292,1,94.4999971160889,0|0,3:0|0:0,0:0:0:0:
391,310,12122,5,0,3:0:0:0:
411,188,12328,1,0,3:0:0:0:
272,281,12533,2,0,L|287:374,1,94.4999971160889,0|0,3:0|3:0,0:0:0:0:
411,188,12944,6,0,P|354:190|306:166,1,94.4999971160889,8|0,0:0|0:0,0:0:0:0:
205,114,13355,2,0,P|321:135|352:57,1,188.999994232178,4|0,0:0|3:0,0:0:0:0:
234,245,13972,2,0,P|118:266|87:188,1,188.999994232178,0|0,3:0|3:0,0:0:0:0:
24,333,14588,5,8,0:0:0:0:
184,375,14794,1,0,3:0:0:0:
184,375,14896,1,0,3:0:0:0:
184,375,14999,2,0,P|233:361|301:364,2,94.4999971160889,4|0|0,0:0|0:0|3:0,0:0:0:0:
141,229,15615,1,0,3:0:0:0:
141,229,15718,1,0,3:0:0:0:
141,229,15821,2,0,P|190:243|258:240,1,94.4999971160889,4|0,0:0|0:0,0:0:0:0:
376,154,16232,6,0,P|365:190|383:263,1,94.4999971160889,8|0,3:2|0:0,0:0:0:0:
456,88,16643,1,0,3:0:0:0:
456,88,16848,2,0,P|394:120|291:62,1,188.999994232178,0|0,3:0|3:0,0:0:0:0:
183,15,17465,1,0,0:0:0:0:
181,136,17670,1,0,3:0:0:0:
175,259,17876,1,8,0:0:0:0:
282,199,18081,5,0,3:0:0:0:
282,199,18184,1,0,3:0:0:0:
282,199,18287,2,0,P|335:188|385:192,1,94.4999971160889,4|0,0:0|0:0,0:0:0:0:
422,375,18698,1,0,3:0:0:0:
264,357,18903,1,0,3:0:0:0:
282,199,19109,1,0,0:0:0:0:
440,217,19314,1,0,3:0:0:0:
264,357,19520,6,0,P|213:368|142:349,1,94.4999971160889,8|0,3:2|0:0,0:0:0:0:
28,223,19931,2,0,B|156:128|154:23|154:23|156:128|292:204,1,472.499985580445,4|0,3:2|3:0,0:0:0:0:
416,261,21163,2,0,P|405:210|424:139,1,94.4999971160889,8|0,0:0|0:0,0:0:0:0:
373,365,21574,6,0,P|323:349|260:346,1,94.4999971160889,6|0,3:2|0:0,0:0:0:0:
126,353,21985,1,0,3:0:0:0:
126,353,22191,2,0,P|142:303|145:240,1,94.4999971160889,2|0,3:0|0:0,0:0:0:0:
199,134,22602,1,0,3:0:0:0:
261,253,22807,2,0,P|266:299|281:344,1,94.4999971160889,8|0,0:0|0:0,0:0:0:0:
376,102,23218,6,0,B|330:119|289:107|289:107|269:128|269:128|226:119|169:144,1,188.999994232178,4|0,0:0|0:0,0:0:0:0:
79,163,23835,1,0,3:0:0:0:
79,163,24040,2,0,B|69:225|69:225|101:327,1,141.749995674133,2|0,0:0|0:0,0:0:0:0:
139,338,24451,1,8,0:0:0:0:
287,310,24657,5,0,3:0:0:0:
287,310,24759,1,0,3:0:0:0:
287,310,24862,2,0,B|346:332|393:307|393:307|378:324|377:346,2,141.749995674133,0|0|0,3:0|0:0|3:0,0:0:0:0:
226,175,25684,2,0,B|167:197|120:172|120:172|135:189|136:211,1,141.749995674133,0|0,3:0|0:0,0:0:0:0:
135,255,26095,1,8,0:0:0:0:
318,167,26300,1,0,0:0:0:0:
380,287,26506,6,0,P|360:208|415:80,2,188.999994232178,4|0|0,3:2|3:0|0:0,0:0:0:0:
479,376,27533,1,0,3:0:0:0:
380,287,27739,1,8,0:0:0:0:
279,384,27944,1,0,3:0:0:0:
178,287,28150,6,0,B|195:217|196:154|196:154|204:181|221:207,1,188.999994232178,4|8,0:0|3:0,0:0:0:0:
380,287,28766,2,0,B|363:217|362:154|362:154|354:181|337:207,1,188.999994232178,4|0,0:0|3:0,0:0:0:0:
215,363,29383,2,0,P|164:368|117:344,1,94.4999971160889,8|0,0:0|3:0,0:0:0:0:
40,164,29794,5,12,3:2:0:0:
258,122,29999,1,12,3:2:0:0:
258,122,30410,6,0,P|308:195|255:296,1,188.999994232178,4|0,0:0|3:0,0:0:0:0:
98,343,31026,1,0,3:0:0:0:
98,343,31129,1,0,3:0:0:0:
98,343,31232,1,0,3:0:0:0:
75,127,31437,5,6,3:2:0:0:
239,221,31643,1,6,3:2:0:0:
98,343,31848,1,6,3:2:0:0:
254,216,32054,2,0,P|331:197|462:233,1,188.999994232178,4|0,3:2|3:0,0:0:0:0:
285,370,32670,1,0,0:0:0:0:
271,373,32773,1,0,3:0:0:0:
257,373,32876,1,8,3:0:0:0:
243,372,32978,1,0,3:0:0:0:
229,368,33081,6,0,P|185:358|110:386,1,94.4999971160889,4|0,0:0|0:0,0:0:0:0:
24,259,33492,2,0,P|68:269|143:241,1,94.4999971160889,0|0,0:0|3:0,0:0:0:0:
207,158,33903,2,0,P|286:114|361:176,1,188.999994232178,0|8,0:0|0:0,0:0:0:0:
472,254,34520,1,0,3:0:0:0:
472,254,34622,1,0,3:0:0:0:
472,254,34725,6,0,P|458:195|489:54,1,188.999994232178,4|0,3:2|0:0,0:0:0:0:
330,11,35341,1,0,3:0:0:0:
185,83,35547,1,0,3:0:0:0:
344,180,35752,5,0,0:0:0:0:
185,83,35958,2,0,P|191:142|180:194,1,94.4999971160889,8|0,0:0|0:0,0:0:0:0:
343,273,36369,2,0,P|337:226|343:179,1,94.4999971160889,8|0,3:0|0:0,0:0:0:0:
212,372,36780,2,0,P|217:325|211:278,1,94.4999971160889,0|0,0:0|3:0,0:0:0:0:
130,147,37191,1,0,0:0:0:0:
130,147,37602,5,8,0:0:0:0:
143,144,37705,1,0,0:0:0:0:
158,143,37807,1,0,3:0:0:0:
172,145,37910,1,0,3:0:0:0:
186,149,38013,6,0,P|230:159|305:131,1,94.4999971160889,8|0,3:0|0:0,0:0:0:0:
357,70,38424,2,0,P|320:139|355:253,1,188.999994232178,2|2,0:0|0:0,0:0:0:0:
345,242,39246,5,8,0:0:0:0:
250,334,39451,1,0,3:0:0:0:
155,242,39657,2,0,P|108:232|46:249,1,94.4999971160889,4|0,0:0|0:0,0:0:0:0:
6,110,40068,2,0,P|53:120|115:103,1,94.4999971160889,0|0,0:0|3:0,0:0:0:0:
275,86,40478,2,0,B|253:200|318:161|294:299,1,188.999994232178,0|8,0:0|0:0,0:0:0:0:
127,287,41095,1,0,3:0:0:0:
127,287,41198,1,0,3:0:0:0:
127,287,41300,2,0,P|106:241|137:96,1,188.999994232178,4|0,3:2|0:0,0:0:0:0:
301,54,41917,5,0,3:0:0:0:
399,180,42122,1,0,3:0:0:0:
239,199,42328,1,0,0:0:0:0:
414,180,42533,2,0,L|407:293,1,94.4999971160889,8|0,0:0|3:0,0:0:0:0:
231,348,42944,5,8,3:0:0:0:
256,192,43047,12,0,43971,3:0:0:0:
94,115,44177,5,8,0:0:0:0:
94,115,44588,5,12,3:2:0:0:
344,93,44794,1,12,3:2:0:0:
420,156,46232,5,12,3:2:0:0:
420,156,46437,1,4,3:2:0:0:
363,233,46643,5,0,0:0:0:0:
338,231,46746,1,0,0:0:0:0:
314,229,46848,1,0,3:0:0:0:
234,141,47054,5,2,0:0:0:0:
259,139,47157,1,0,0:0:0:0:
283,137,47259,1,0,3:0:0:0:
120,242,47465,5,4,3:2:0:0:
120,242,47670,1,4,3:2:0:0:
234,141,47876,5,0,3:0:0:0:
232,166,47978,1,0,0:0:0:0:
230,190,48081,1,0,0:0:0:0:
124,291,48287,5,8,3:0:0:0:
122,267,48389,1,0,0:0:0:0:
120,242,48492,1,0,3:0:0:0:
106,106,48698,5,4,3:2:0:0:
106,106,48903,1,4,3:2:0:0:
120,242,49109,2,0,L|131:363,1,94.4999971160889,8|0,0:0|3:0,0:0:0:0:
337,367,49520,5,4,3:2:0:0:
337,367,49725,1,4,3:2:0:0:
412,246,49931,5,0,0:0:0:0:
410,222,50033,1,0,0:0:0:0:
408,197,50136,1,0,3:0:0:0:
276,113,50341,5,0,0:0:0:0:
274,138,50444,1,0,0:0:0:0:
272,162,50547,1,0,3:0:0:0:
399,47,50752,5,4,3:2:0:0:
399,47,50958,1,4,3:2:0:0:
412,246,51163,5,12,3:2:0:0:
279,87,51369,1,12,3:2:0:0:
421,184,52602,5,0,0:0:0:0:
421,192,52704,1,0,0:0:0:0:
421,200,52807,6,0,P|392:211|275:181,1,135,4|8,0:0|0:0,0:0:0:0:
153,96,53218,2,0,P|177:115|209:231,1,135,0|8,3:0|0:0,0:0:0:0:
224,303,53526,1,0,3:0:0:0:
224,303,53629,2,0,P|228:272|313:186,1,135,0|8,3:0|0:0,0:0:0:0:
421,200,54040,1,0,3:0:0:0:
400,377,54246,5,8,0:0:0:0:
400,377,54348,1,0,3:0:0:0:
400,377,54451,2,0,L|409:237,1,135,0|8,3:0|0:0,0:0:0:0:
211,245,54862,2,0,L|219:379,1,135,0|8,3:0|0:0,0:0:0:0:
408,242,55273,1,0,3:0:0:0:
408,242,55376,1,0,3:0:0:0:
408,242,55478,2,0,L|417:102,1,135,8|0,0:0|3:0,0:0:0:0:
217,143,55889,5,8,0:0:0:0:
217,143,55992,1,0,3:0:0:0:
217,143,56095,2,0,P|154:128|61:155,2,135,0|8|0,3:0|0:0|3:0,0:0:0:0:
280,250,56711,2,0,P|343:265|436:238,1,135,8|0,0:0|3:0,0:0:0:0:
410,251,57020,1,8,3:0:0:0:
410,251,57122,1,8,0:0:0:0:
445,51,57328,1,0,3:0:0:0:
392,10,57431,1,8,3:0:0:0:
326,9,57533,1,0,3:0:0:0:
273,49,57636,1,8,3:0:0:0:
256,113,57739,6,0,P|214:130|122:103,1,135,4|8,0:0|0:0,0:0:0:0:
0,251,58150,2,0,P|42:234|134:261,1,135,0|8,3:0|0:0,0:0:0:0:
241,384,58561,1,0,3:0:0:0:
60,361,58766,1,8,0:0:0:0:
264,383,58972,6,0,P|281:341|254:249,1,135,0|8,3:0|0:0,0:0:0:0:
196,205,59280,1,0,3:0:0:0:
196,205,59383,2,0,P|131:212|56:180,1,135,0|8,3:0|0:0,0:0:0:0:
282,115,59794,2,0,P|347:108|422:140,1,135,0|8,3:0|0:0,0:0:0:0:
502,237,60204,1,0,0:0:0:0:
398,325,60410,2,0,P|335:348|268:341,1,135,8|0,0:0|3:0,0:0:0:0:
122,182,60821,5,8,0:0:0:0:
113,162,60924,1,0,3:0:0:0:
112,140,61026,2,0,P|168:117|269:155,1,135,0|8,3:0|0:0,0:0:0:0:
358,307,61437,2,0,P|310:270|292:163,1,135,0|8,3:0|0:0,0:0:0:0:
378,10,61848,2,0,P|369:69|286:138,1,135,0|8,3:0|0:0,0:0:0:0:
112,141,62259,1,0,3:0:0:0:
58,305,62465,5,8,0:0:0:0:
58,305,62568,1,0,3:0:0:0:
58,305,62670,2,0,P|129:286|201:324,2,135,0|8|0,3:0|0:0|3:0,0:0:0:0:
19,158,63287,1,8,0:0:0:0:
165,57,63492,5,0,3:0:0:0:
202,47,63595,1,0,3:0:0:0:
239,54,63698,1,8,0:0:0:0:
364,239,63903,1,0,3:0:0:0:
329,197,64006,1,8,3:0:0:0:
317,144,64109,1,0,3:0:0:0:
332,91,64211,1,8,3:0:0:0:
368,49,64314,6,0,P|308:68|208:31,1,135,4|8,0:0|0:0,0:0:0:0:
61,57,64725,1,0,3:0:0:0:
196,173,64931,1,8,0:0:0:0:
39,307,65136,2,0,P|99:288|199:325,2,135,0|8|0,3:0|0:0|3:0,0:0:0:0:
196,173,65752,5,8,0:0:0:0:
216,170,65855,1,0,3:0:0:0:
236,168,65958,2,0,P|286:192|371:183,1,135,0|8,3:0|0:0,0:0:0:0:
470,68,66369,2,0,P|420:44|335:53,1,135,0|8,3:0|0:0,0:0:0:0:
186,109,66780,6,0,L|198:257,1,135,0|8,3:0|0:0,0:0:0:0:
394,341,67191,2,0,L|404:206,1,135,0|8,3:0|0:0,0:0:0:0:
407,186,67499,1,0,3:0:0:0:
408,165,67602,1,0,3:0:0:0:
409,144,67705,1,8,3:0:0:0:
410,123,67807,1,14,0:0:0:0:
256,192,67910,12,0,69862,3:0:0:0:
141,162,70068,6,0,B|288:197|389:71|389:71|340:25|246:42,1,405,4|0,3:2|0:0,0:0:0:0:
273,38,70889,5,4,3:2:0:0:
315,138,71300,1,0,0:0:0:0:
273,238,71711,1,0,0:0:0:0:
315,338,72122,1,0,0:0:0:0:
315,338,72533,6,0,B|213:369|229:286|108:324,2,188.999994232178,0|0|0,0:0|0:0|0:0,0:0:0:0:
169,73,74177,6,0,L|180:140,2,62.9999980773926,2|0|0,0:0|0:0|0:0,0:0:0:0:
278,189,74588,2,0,L|288:126,2,62.9999980773926,2|0|0,0:0|0:0|0:0,0:0:0:0:
256,192,74999,12,2,77260,0:0:0:0:
268,313,77465,5,4,3:2:0:0:
268,313,77670,2,0,P|282:203|262:107,1,188.999994232178,0|8,3:0|3:0,0:0:0:0:
115,77,78287,2,0,P|108:128|116:191,1,94.4999971160889,0|0,3:0|3:0,0:0:0:0:
149,297,78698,1,8,3:0:0:0:
268,229,78903,1,8,3:0:0:0:
134,305,79109,6,2,B|83:327|83:327|0:293,2,141.749995674133,4|0|0,0:0|0:0|3:0,0:0:0:0:
285,226,79931,2,2,B|365:261|365:261|500:208,1,188.999994232178,8|8,3:0|0:0,0:0:0:0:
459,224,80752,5,0,3:0:0:0:
430,93,80958,1,0,3:0:0:0:
328,187,81163,1,0,0:0:0:0:
328,187,81266,1,0,0:0:0:0:
328,187,81369,1,0,3:0:0:0:
488,355,81574,5,0,3:0:0:0:
459,224,81780,1,0,3:0:0:0:
357,318,81985,1,8,3:2:0:0:
357,318,82088,1,0,0:0:0:0:
357,318,82191,1,0,3:0:0:0:
486,200,82396,5,4,3:2:0:0:
489,164,82499,1,0,0:0:0:0:
481,130,82602,1,0,3:0:0:0:
285,90,82807,5,4,3:2:0:0:
277,124,82910,1,0,0:0:0:0:
280,160,83013,1,0,3:0:0:0:
357,318,83218,5,4,3:2:0:0:
360,282,83321,1,0,3:0:0:0:
352,248,83424,1,0,3:0:0:0:
161,238,83629,2,0,P|148:297|164:351,1,94.4999971160889,12|0,0:0|0:0,0:0:0:0:
212,142,84040,5,4,3:2:0:0:
157,137,84143,1,8,3:0:0:0:
106,149,84246,1,8,3:0:0:0:
298,230,84451,5,4,3:2:0:0:
321,280,84554,1,0,3:0:0:0:
357,318,84657,1,0,3:0:0:0:
331,111,84862,5,4,3:2:0:0:
363,66,84965,1,4,3:0:0:0:
377,16,85068,1,4,3:0:0:0:
106,149,85478,5,12,3:2:0:0:
331,111,85684,1,12,3:2:0:0:
288,337,85889,1,14,3:2:0:0:
