osu file format v14

[General]
AudioFilename: SonoChoNoSadame.mp3
AudioLeadIn: 0
PreviewTime: 70884
Countdown: 0
SampleSet: Soft
StackLeniency: 0.4
Mode: 0
LetterboxInBreaks: 0
WidescreenStoryboard: 0

[Editor]
Bookmarks: 6364,11501,14172,17973,28042,31021,44172,53830,55371,57015,59275,70063,71501,80747,81364,82186,83110,84241,85987
DistanceSpacing: 1.2
BeatDivisor: 4
GridSize: 4
TimelineZoom: 2.5

[Metadata]
Title:JoJo ~Sono Chi no Sadame~
TitleUnicode:ジョジョ 〜その血の運命〜
Artist:Tominaga Tommy Hiroaki
ArtistUnicode:富永 TOMMY 弘明
Creator:Testo
Version:Hard
Source:ジョジョの奇妙な冒険
Tags:Jojo's Bizarre Adventure jjba Kimyou na Bouken part 1 Opening TV size Hiroaki "TOMMY" Tominaga Phantom Blood ファントムブラッド
BeatmapID:1509414
BeatmapSetID:713688

[Difficulty]
HPDrainRate:4
CircleSize:3.5
OverallDifficulty:6
ApproachRate:7
SliderMultiplier:1.5
SliderTickRate:1

[Events]
//Background and Video events
0,0,"47802_jojos_bizarre_adventure.jpg",0,0
//Break Periods
//Storyboard Layer 0 (Background)
//Storyboard Layer 1 (Fail)
//Storyboard Layer 2 (Pass)
//Storyboard Layer 3 (Foreground)
//Storyboard Sound Samples

[TimingPoints]
205,410.958904109589,4,2,1,65,1,0
205,-100,4,2,1,65,0,0
2876,-100,4,2,1,65,0,0
3492,-100,4,2,1,55,0,0
9246,-100,4,2,1,55,0,0
10068,-100,4,2,1,55,0,0
23218,-100,4,2,1,55,0,0
33081,-100,4,2,1,55,0,0
46129,-100,4,2,1,10,0,0
46231,-100,4,2,1,55,0,0
46232,-100,4,2,1,55,0,0
52602,-100,4,2,1,45,0,0
52807,-100,4,2,1,65,0,1
77465,-100,4,2,1,55,0,0
82396,-100,4,2,1,60,0,0
84040,-100,4,2,1,65,0,0

[Colours]
Combo1 : 255,192,0
Combo2 : 255,0,0
Combo3 : 18,124,255
Combo4 : 128,255,255

[HitObjects]
143,137,205,6,0,L|181:131,1,37.5,12|12,3:0|3:0,0:0:0:0:
270,131,513,2,0,L|308:137,1,37.5,12|12,3:0|3:0,0:0:0:0:
396,148,821,1,12,3:0:0:0:
445,223,1026,6,0,P|449:296|383:352,1,150,14|14,3:0|3:0,0:0:0:0:
228,285,1848,6,0,L|190:279,1,37.5,12|12,3:0|3:0,0:0:0:0:
136,207,2157,2,0,L|98:213,1,37.5,12|12,3:0|3:0,0:0:0:0:
54,306,2465,1,12,3:0:0:0:
228,285,2876,6,0,B|248:193|194:219|218:115,1,150,14|2,3:2|0:0,0:0:0:0:
255,58,3492,5,4,3:2:0:0:
255,58,3698,2,0,P|324:86|394:47,1,150,0|0,3:2|3:0,0:0:0:0:
454,116,4314,2,0,L|462:197,1,75,0|0,0:0|0:0,0:0:0:0:
382,234,4725,1,0,3:0:0:0:
382,234,4931,1,0,3:0:0:0:
324,303,5136,6,0,P|265:295|203:314,2,112.5,6|2|2,0:0|0:0|3:0,0:0:0:0:
386,369,5958,2,0,P|358:316|394:222,1,150,6|10,3:2|0:2,0:0:0:0:
483,89,6780,5,0,3:0:0:0:
394,103,6985,1,0,3:0:0:0:
306,120,7191,2,0,P|280:120|261:116,2,37.5,0|0|0,0:0|0:0|3:0,0:0:0:0:
394,103,7602,5,0,0:0:0:0:
426,186,7807,1,0,3:0:0:0:
384,265,8013,2,0,P|384:291|388:310,2,37.5,8|0|0,3:2|0:0|0:0,0:0:0:0:
426,186,8424,5,12,3:0:0:0:
336,195,8629,1,12,3:0:0:0:
76,269,9246,6,0,L|82:189,1,75,0|0,3:0|0:0,0:0:0:0:
315,58,10068,5,4,0:0:0:0:
315,58,10273,2,0,P|262:76|172:34,1,150,0|0,3:0|3:0,0:0:0:0:
100,86,10889,2,0,P|108:126|97:182,1,75,0|0,0:0|3:0,0:0:0:0:
66,241,11300,1,8,0:0:0:0:
132,301,11506,1,0,3:0:0:0:
132,301,11609,1,0,3:0:0:0:
132,301,11711,2,0,L|220:293,1,75,0|0,3:0|0:0,0:0:0:0:
296,282,12122,6,0,P|300:219|308:183,1,75,0|0,3:0|3:0,0:0:0:0:
372,150,12533,2,0,P|371:112|365:75,1,75,0|0,3:0|3:0,0:0:0:0:
280,45,12944,2,0,P|242:44|205:38,1,75,8|0,0:0|0:0,0:0:0:0:
120,8,13355,6,0,P|160:65|128:153,1,150,4|0,0:0|3:0,0:0:0:0:
71,194,13972,2,0,P|114:175|234:204,1,150,0|0,3:0|3:0,0:0:0:0:
288,239,14588,1,8,0:0:0:0:
368,200,14794,5,0,3:0:0:0:
368,200,14896,1,0,3:0:0:0:
368,200,14999,2,0,B|392:109|332:137|359:37,1,150,4|0,0:0|3:0,0:0:0:0:
436,17,15615,2,0,P|364:33|280:7,1,150,0|0,3:0|0:0,0:0:0:0:
204,38,16232,6,0,P|158:46|116:32,1,75,8|0,3:2|0:0,0:0:0:0:
47,72,16643,1,0,3:0:0:0:
47,72,16848,2,0,L|60:241,1,150,0|0,3:0|3:0,0:0:0:0:
140,259,17465,6,0,L|229:265,1,75,0|0,0:0|0:0,0:0:0:0:
304,269,17876,1,8,0:0:0:0:
392,281,18081,1,0,3:0:0:0:
392,281,18184,1,0,3:0:0:0:
392,281,18287,2,0,L|385:191,1,75,4|0,0:0|0:0,0:0:0:0:
304,169,18698,6,0,P|268:183|226:182,1,75,0|0,3:0|0:0,0:0:0:0:
174,113,19109,2,0,P|179:74|201:38,1,75,0|0,0:0|0:0,0:0:0:0:
287,28,19520,2,0,P|317:52|337:89,1,75,8|0,3:2|0:0,0:0:0:0:
304,169,19931,6,0,P|356:129|439:180,1,150,4|0,3:2|0:0,0:0:0:0:
436,248,20547,1,0,0:0:0:0:
436,248,20752,2,0,P|384:288|301:237,1,150,0|8,0:0|0:0,0:0:0:0:
151,175,21574,6,0,L|162:337,1,150,6|0,3:2|3:0,0:0:0:0:
251,322,22191,2,0,L|261:172,1,150,2|0,3:0|3:0,0:0:0:0:
351,167,22807,2,0,L|358:271,1,75,8|0,0:0|0:0,0:0:0:0:
396,322,23218,6,0,P|339:293|255:331,1,150,4|0,0:0|0:0,0:0:0:0:
178,353,23835,1,0,3:0:0:0:
178,353,24040,2,0,P|118:355|56:318,2,112.5,2|0|0,0:0|0:0|3:0,0:0:0:0:
262,321,24862,2,0,P|322:323|384:286,2,112.5,0|0|0,3:0|0:0|3:0,0:0:0:0:
183,276,25684,2,0,P|178:221|185:187,1,75,0|0,3:0|0:0,0:0:0:0:
254,148,26095,2,0,P|259:93|252:59,1,75,8|0,0:0|0:0,0:0:0:0:
186,16,26506,6,0,P|242:43|335:9,1,150,4|0,3:2|3:0,0:0:0:0:
401,65,27122,1,0,0:0:0:0:
401,65,27328,2,0,P|374:121|408:214,1,150,0|8,0:0|0:0,0:0:0:0:
396,202,28150,6,0,L|227:193,1,150,4|8,0:0|3:0,0:0:0:0:
201,115,28766,2,0,L|51:122,1,150,4|0,0:0|3:0,0:0:0:0:
5,200,29383,1,8,0:0:0:0:
132,327,29794,5,12,3:2:0:0:
132,327,29999,1,12,3:2:0:0:
309,356,30410,2,0,P|309:302|285:192,1,150,4|0,0:0|3:0,0:0:0:0:
323,125,31026,2,0,L|327:77,2,37.5,0|0|0,3:0|3:0|3:0,0:0:0:0:
244,51,31437,6,0,P|197:40|166:42,1,75,6|6,3:2|3:2,0:0:0:0:
104,102,31848,1,6,3:2:0:0:
62,182,32054,2,0,P|78:247|59:346,1,150,4|0,3:2|3:0,0:0:0:0:
152,355,32670,6,0,P|199:344|230:346,1,75,0|8,0:0|3:0,0:0:0:0:
315,341,33081,1,4,0:0:0:0:
315,341,33492,2,0,P|322:288|279:169,2,150,0|0|8,0:0|0:0|0:0,0:0:0:0:
405,345,34520,1,0,3:0:0:0:
405,345,34622,1,0,3:0:0:0:
405,345,34725,2,0,P|398:292|441:173,1,150,4|0,3:2|0:0,0:0:0:0:
500,153,35341,5,0,3:0:0:0:
500,153,35547,2,0,L|491:59,1,75,0|0,3:0|0:0,0:0:0:0:
410,42,35958,2,0,L|335:34,1,75,8|0,0:0|0:0,0:0:0:0:
282,107,36369,2,0,L|110:123,2,150,8|0|0,3:0|0:0|0:0,0:0:0:0:
417,225,37602,6,0,L|411:286,3,37.5,8|0|0|0,0:0|0:0|3:0|3:0,0:0:0:0:
408,307,38013,2,0,P|355:331|261:272,2,150,8|2|2,3:0|0:0|0:0,0:0:0:0:
469,137,39246,6,0,P|436:127|367:140,1,75,8|0,0:0|3:0,0:0:0:0:
328,189,39657,2,0,P|348:137|301:44,1,150,4|0,0:0|0:0,0:0:0:0:
225,32,40273,1,0,3:0:0:0:
225,32,40478,2,0,P|156:54|67:36,1,150,0|8,0:0|0:0,0:0:0:0:
19,109,41095,1,0,3:0:0:0:
19,109,41198,1,0,3:0:0:0:
19,109,41300,2,0,B|-1:197|49:172|19:272,1,150,4|0,3:2|0:0,0:0:0:0:
84,323,41917,5,0,3:0:0:0:
84,323,42122,2,0,P|125:314|178:330,1,75,0|0,3:0|0:0,0:0:0:0:
244,340,42533,2,0,P|280:345|317:336,1,75,8|0,0:0|3:0,0:0:0:0:
386,279,42944,2,0,P|393:215|379:117,2,150,8|0|0,3:0|3:0|0:0,0:0:0:0:
220,350,44177,1,8,0:0:0:0:
65,257,44588,5,12,3:2:0:0:
65,257,44794,1,12,3:2:0:0:
115,75,46232,5,12,3:2:0:0:
190,26,46437,1,4,3:2:0:0:
279,36,46643,2,0,P|307:33|327:35,2,37.5,0|0|0,0:0|0:0|3:0,0:0:0:0:
227,110,47054,2,0,P|199:113|179:111,2,37.5,2|0|0,0:0|0:0|3:0,0:0:0:0:
289,174,47465,5,4,3:2:0:0:
274,262,47670,1,4,3:2:0:0:
289,350,47876,2,0,P|314:353|350:343,2,37.5,0|0|0,3:0|0:0|0:0,0:0:0:0:
204,318,48287,2,0,P|179:321|143:311,2,37.5,8|0|0,3:0|0:0|3:0,0:0:0:0:
274,262,48698,5,4,3:2:0:0:
289,174,48903,1,4,3:2:0:0:
272,85,49109,2,0,P|240:81|185:90,1,75,8|0,0:0|3:0,0:0:0:0:
137,153,49520,5,4,3:2:0:0:
152,241,49725,1,4,3:2:0:0:
137,329,49931,2,0,P|110:334|91:333,2,37.5,0|0|0,0:0|0:0|3:0,0:0:0:0:
222,301,50341,2,0,P|249:306|268:305,2,37.5,0|0|0,0:0|0:0|3:0,0:0:0:0:
152,241,50752,5,4,3:2:0:0:
137,153,50958,1,4,3:2:0:0:
203,92,51163,5,12,3:2:0:0:
291,107,51369,1,12,3:2:0:0:
299,115,52602,5,0,0:0:0:0:
299,115,52704,1,0,0:0:0:0:
299,115,52807,2,0,L|309:220,1,75,4|8,0:0|0:0,0:0:0:0:
216,201,53218,2,0,L|208:126,1,75,0|8,3:0|0:0,0:0:0:0:
185,94,53526,1,0,3:0:0:0:
185,94,53629,2,0,L|110:86,1,75,0|8,3:0|0:0,0:0:0:0:
32,132,54040,2,0,P|29:186|39:221,1,75,0|8,3:0|0:0,0:0:0:0:
54,245,54348,5,0,3:0:0:0:
54,245,54451,2,0,P|57:299|47:334,1,75,0|8,3:0|0:0,0:0:0:0:
135,355,54862,2,0,P|171:349|209:353,1,75,0|8,3:0|0:0,0:0:0:0:
295,328,55273,1,0,3:0:0:0:
376,365,55478,2,0,P|383:299|372:192,1,150,8|8,0:0|0:0,0:0:0:0:
362,172,55992,5,0,3:0:0:0:
362,172,56095,2,0,P|358:123|363:90,1,75,0|8,3:0|0:0,0:0:0:0:
293,38,56506,2,0,P|244:42|211:37,1,75,0|8,3:0|0:0,0:0:0:0:
128,36,56917,2,0,P|130:14|128:-5,2,37.5,0|8|8,3:0|3:0|0:0,0:0:0:0:
62,97,57328,1,0,3:0:0:0:
60,108,57431,1,8,3:0:0:0:
58,119,57533,1,0,3:0:0:0:
56,130,57636,1,8,3:0:0:0:
54,141,57739,6,0,L|64:242,1,75,4|8,0:0|0:0,0:0:0:0:
74,258,58047,1,0,0:0:0:0:
74,258,58150,2,0,L|148:265,1,75,0|8,3:0|0:0,0:0:0:0:
220,211,58561,2,0,L|294:203,1,75,0|8,3:0|0:0,0:0:0:0:
372,247,58972,2,0,L|446:254,1,75,0|8,3:0|0:0,0:0:0:0:
484,278,59280,5,0,3:0:0:0:
484,278,59383,2,0,P|492:321|486:364,1,75,0|8,3:0|0:0,0:0:0:0:
402,376,59794,2,0,P|364:378|328:370,1,75,0|8,3:0|0:0,0:0:0:0:
260,309,60204,2,0,P|222:306|186:314,1,75,0|8,0:0|0:0,0:0:0:0:
101,344,60615,2,0,P|105:298|88:246,1,75,0|8,3:0|0:0,0:0:0:0:
77,230,60924,5,0,3:0:0:0:
77,230,61026,2,0,P|73:184|90:132,1,75,0|8,3:0|0:0,0:0:0:0:
158,114,61437,2,0,P|204:118|256:101,1,75,0|8,3:0|0:0,0:0:0:0:
306,61,61848,2,0,P|342:54|379:59,1,75,0|8,3:0|0:0,0:0:0:0:
450,116,62259,2,0,P|456:152|451:189,1,75,0|8,3:0|0:0,0:0:0:0:
431,230,62568,5,0,3:0:0:0:
431,230,62670,2,0,P|368:213|275:236,1,150,0|0,3:0|3:0,0:0:0:0:
209,277,63287,1,8,0:0:0:0:
148,344,63492,2,0,P|165:271|147:199,1,150,0|0,3:0|3:0,0:0:0:0:
102,121,64109,5,0,3:0:0:0:
102,121,64211,1,8,3:0:0:0:
102,121,64314,2,0,L|111:41,1,75,4|8,0:0|0:0,0:0:0:0:
200,46,64725,2,0,L|208:120,1,75,0|8,3:0|0:0,0:0:0:0:
290,157,65136,2,0,L|307:0,1,150,0|0,3:0|3:0,0:0:0:0:
396,19,65752,5,8,0:0:0:0:
397,30,65855,1,0,3:0:0:0:
398,41,65958,2,0,P|445:46|487:39,1,75,0|8,3:0|0:0,0:0:0:0:
481,132,66369,2,0,P|434:127|392:134,1,75,0|8,3:0|0:0,0:0:0:0:
331,179,66780,2,0,P|293:182|256:177,1,75,0|8,3:0|0:0,0:0:0:0:
196,110,67191,2,0,P|158:104|121:108,1,75,0|8,3:0|0:0,0:0:0:0:
80,126,67499,1,0,3:0:0:0:
80,126,67602,1,0,3:0:0:0:
256,192,67705,12,4,70068,3:2:0:0:
168,96,70889,6,0,L|184:258,1,150,4|0,3:2|0:0,0:0:0:0:
363,252,71711,2,0,L|377:102,1,150,0|0,0:0|0:0,0:0:0:0:
197,96,72533,2,0,L|211:245,2,150,0|0|0,0:0|0:0|0:0,0:0:0:0:
197,96,74177,6,0,P|226:97|259:89,2,50,2|0|0,0:0|0:0|0:0,0:0:0:0:
123,53,74588,2,0,P|94:52|61:60,2,50,2|0|0,0:0|0:0|0:0,0:0:0:0:
256,192,74999,12,0,77054,0:0:0:0:
94,141,77465,5,4,3:2:0:0:
94,141,77670,2,0,P|166:152|250:117,1,150,0|8,3:0|3:0,0:0:0:0:
327,124,78287,2,0,P|325:161|335:205,1,75,0|0,3:0|3:0,0:0:0:0:
379,274,78698,1,8,3:0:0:0:
379,274,78903,1,8,3:0:0:0:
305,325,79109,6,0,P|247:314|184:336,2,112.5,4|0|0,0:0|0:0|3:0,0:0:0:0:
379,274,79931,2,0,B|407:190|355:210|381:125,1,150,8|8,3:0|0:0,0:0:0:0:
380,127,80752,5,0,3:0:0:0:
294,153,80958,1,0,3:0:0:0:
206,126,81163,2,0,L|155:132,2,37.5,0|0|0,0:0|0:0|3:0,0:0:0:0:
294,153,81574,5,0,3:0:0:0:
320,239,81780,1,0,3:0:0:0:
293,327,81985,2,0,L|299:378,2,37.5,8|0|0,3:2|0:0|3:0,0:0:0:0:
320,239,82396,6,0,P|320:220|324:201,2,37.5,4|0|0,3:2|0:0|3:0,0:0:0:0:
381,304,82807,2,0,P|396:313|411:326,2,37.5,4|0|0,3:2|0:0|3:0,0:0:0:0:
293,327,83218,2,0,P|277:335|258:341,2,37.5,4|0|0,3:2|3:0|3:0,0:0:0:0:
320,239,83629,2,0,P|327:197|320:154,1,75,12|0,0:0|0:0,0:0:0:0:
250,111,84040,5,4,3:2:0:0:
212,107,84143,1,8,3:0:0:0:
175,104,84246,1,8,3:0:0:0:
124,178,84451,6,0,L|76:184,2,37.5,4|0|0,3:2|3:0|3:0,0:0:0:0:
137,267,84862,5,4,3:2:0:0:
175,270,84965,1,4,3:0:0:0:
212,273,85068,1,4,3:0:0:0:
212,273,85478,5,12,3:2:0:0:
301,280,85684,1,12,3:2:0:0:
390,287,85889,1,14,3:2:0:0:
