osu file format v14

[General]
AudioFilename: audio.mp3
AudioLeadIn: 0
PreviewTime: 5719
Countdown: 0
SampleSet: Soft
StackLeniency: 0.6
Mode: 0
LetterboxInBreaks: 0
WidescreenStoryboard: 1

[Editor]
Bookmarks: 28469,32468,36469,40469,44469,50469,58469,76469
DistanceSpacing: 0.8
BeatDivisor: 6
GridSize: 8
TimelineZoom: 2.3

[Metadata]
Title:Eyecatch! Too much!
TitleUnicode:Eyecatch! Too much!
Artist:Tomatsu Haruka, Hikasa Yoko, Amamiya Sora
ArtistUnicode:戸松 遥、日笠陽子、雨宮 天
Creator:Lilyanna
Version:_83's Hyper
Source:WWW.WORKING!!
Tags:opening tv size WWW.WAGNARIA!! 宮越華 村主さゆり 鎌倉志保 Hana Miyakoshi Sayuri Muranushi Shiho Kamakura SnowNiNo_ -Vanilla _83 DeRandom Otaku
BeatmapID:1399210
BeatmapSetID:655567

[Difficulty]
HPDrainRate:4
CircleSize:4
OverallDifficulty:6
ApproachRate:8
SliderMultiplier:1.4
SliderTickRate:1

[Events]
//Background and Video events
0,0,"12_working!!.jpg",0,0
//Break Periods
//Storyboard Layer 0 (Background)
//Storyboard Layer 1 (Fail)
//Storyboard Layer 2 (Pass)
//Storyboard Layer 3 (Foreground)
//Storyboard Sound Samples

[TimingPoints]
469,250,4,2,1,40,1,0
6469,-100,4,2,1,40,0,1
24469,-100,4,2,1,40,0,0
58469,-100,4,2,1,40,0,1
76469,-100,4,2,1,40,0,0

[Colours]
Combo1 : 128,128,128
Combo2 : 255,188,155
Combo3 : 0,106,157
Combo4 : 176,88,0
Combo5 : 255,215,91
Combo6 : 92,46,46

[HitObjects]
369,103,469,5,0,0:0:0:0:
378,97,1469,5,0,0:0:0:0:
386,93,2469,6,0,P|374:155|378:233,1,140
462,287,2969,2,0,P|474:225|470:147,1,140
366,100,3469,5,0,0:0:0:0:
256,124,3719,1,0,0:0:0:0:
166,56,3969,1,0,0:0:0:0:
56,81,4219,1,0,0:0:0:0:
4,180,4469,6,0,L|7:284,1,93.3333333333333
55,374,4885,2,0,P|80:308|145:313,2,140
55,374,5469,5,0,0:0:0:0:
162,304,5719,1,0,0:0:0:0:
272,320,5969,1,0,0:0:0:0:
382,336,6219,1,0,0:0:0:0:
493,350,6469,6,0,P|478:300|488:245,1,93.3333333333333
509,233,6719,2,0,L|397:224,1,93.3333333333333
378,223,6969,1,0,0:0:0:0:
312,258,7135,1,0,0:0:0:0:
312,258,7219,2,0,L|292:159,1,93.3333333333333
305,130,7469,5,0,0:0:0:0:
305,130,7635,2,0,P|273:71|183:72,2,140
293,166,8219,2,0,L|278:266,1,93.3333333333333
293,293,8469,6,0,P|242:273|195:277,1,93.3333333333333
178,302,8719,1,0,0:0:0:0:
124,350,8885,1,0,0:0:0:0:
124,350,8969,2,0,B|77:347|77:347|25:309,1,93.3333333333333
17,289,9219,1,0,0:0:0:0:
15,177,9469,5,0,0:0:0:0:
77,136,9635,2,0,L|106:-2,2,140
77,136,10219,1,0,0:0:0:0:
168,200,10469,6,0,P|204:164|217:106,1,93.3333333333333
202,89,10719,2,0,L|353:105,1,140
401,59,11135,1,0,0:0:0:0:
401,59,11219,1,0,0:0:0:0:
491,118,11469,6,0,P|440:162|448:249,1,140
491,329,11969,2,0,P|466:287|412:277,1,93.3333333333333
392,293,12219,1,0,0:0:0:0:
289,337,12469,6,0,L|181:331,1,93.3333333333333
158,328,12719,1,0,0:0:0:0:
84,243,12969,6,0,L|192:237,1,93.3333333333333
215,234,13219,1,0,0:0:0:0:
289,149,13469,6,0,L|181:143,1,93.3333333333333
158,140,13719,1,0,0:0:0:0:
85,54,13969,6,0,L|45:89,2,46.6666666666667
135,71,14219,1,0,0:0:0:0:
135,71,14302,1,0,0:0:0:0:
135,71,14385,1,0,0:0:0:0:
135,71,14469,6,0,L|235:66,1,93.3333333333333
261,48,14719,2,0,L|354:52,1,93.3333333333333
388,66,14969,1,0,0:0:0:0:
461,52,15135,1,0,0:0:0:0:
461,52,15219,2,0,L|467:154,1,93.3333333333333
489,174,15469,5,0,0:0:0:0:
489,174,15635,2,0,P|493:251|460:318,2,140
466,145,16218,2,0,L|372:139,1,93.3333333333333
338,155,16469,6,0,P|255:149|234:89,1,140
162,17,16969,1,0,0:0:0:0:
92,43,17135,1,0,0:0:0:0:
92,43,17219,2,0,P|96:96|85:143,1,93.3333333333333
57,156,17469,5,0,0:0:0:0:
57,156,17635,2,0,P|52:215|115:267,2,140
88,134,18219,2,0,L|188:149,1,93.3333333333333
209,171,18469,5,0,0:0:0:0:
236,279,18719,2,0,P|256:343|292:368,1,93.3333333333333
311,367,18969,1,0,0:0:0:0:
385,359,19135,1,0,0:0:0:0:
385,359,19219,6,0,L|391:276,2,70
460,237,19719,2,0,L|437:142,1,93.3333333333333
449,110,19969,2,0,L|497:120,2,46.6666666666667
438,88,20219,1,0,0:0:0:0:
438,88,20302,1,0,0:0:0:0:
438,88,20385,1,0,0:0:0:0:
438,88,20469,6,0,L|339:92,1,93.3333333333333
313,70,20719,1,0,0:0:0:0:
225,0,20969,6,0,L|178:87,1,93.3333333333333
147,99,21219,1,0,0:0:0:0:
42,141,21469,6,0,L|94:224,1,93.3333333333333
88,258,21719,1,0,0:0:0:0:
78,364,21969,6,0,L|175:360,1,93.3333333333333
202,383,22219,1,0,0:0:0:0:
257,285,22469,6,0,L|357:296,1,93.3333333333333
384,310,22719,2,0,P|416:269|407:218,1,93.3333333333333
385,204,22969,2,0,L|292:193,1,93.3333333333333
255,202,23219,2,0,P|232:155|251:107,1,93.3333333333333
269,91,23469,5,0,0:0:0:0:
269,91,24469,5,0,0:0:0:0:
330,49,24635,2,0,B|354:82|354:82|366:190,3,140
345,212,25469,5,0,0:0:0:0:
276,240,25635,2,0,B|252:207|252:207|240:99,3,140
267,81,26469,6,0,P|248:50|186:33,1,93.3333333333333
160,43,26719,2,0,L|105:28,2,46.6666666666667
141,75,26969,1,0,0:0:0:0:
109,148,27135,1,0,0:0:0:0:
109,148,27219,1,0,0:0:0:0:
109,148,27302,1,0,0:0:0:0:
109,148,27385,1,0,0:0:0:0:
109,148,27469,6,0,L|118:294,2,140
48,363,28469,6,0,B|104:348|104:348|192:357,1,140
296,370,28969,1,0,0:0:0:0:
296,370,29135,1,0,0:0:0:0:
387,305,29385,2,0,P|409:249|483:228,1,140
511,250,29719,1,0,0:0:0:0:
506,361,29969,2,0,L|365:341,1,140
284,265,30469,6,0,P|221:255|154:294,1,140
79,372,30969,1,0,0:0:0:0:
59,261,31219,1,0,0:0:0:0:
59,261,31302,2,0,B|67:202|67:202|21:153|21:153|32:91,1,186.666666666667
41,57,31719,1,0,0:0:0:0:
152,44,31969,2,0,L|163:-3,2,46.6666666666667
155,81,32218,1,0,0:0:0:0:
258,48,32468,6,0,L|370:60,1,93.3333333333333
385,44,32718,2,0,P|441:74|460:115,1,93.3333333333333
441,133,32969,1,0,0:0:0:0:
332,159,33219,1,0,0:0:0:0:
332,159,33302,6,0,B|392:156|392:156|455:195|455:195|521:193,1,186.666666666667
507,193,33719,1,0,0:0:0:0:
489,270,33885,1,0,0:0:0:0:
489,270,33969,2,0,L|383:274,1,93.3333333333333
361,258,34219,1,0,0:0:0:0:
385,366,34469,6,0,L|278:375,1,93.3333333333333
254,376,34719,2,0,P|229:337|244:287,1,93.3333333333333
269,271,34969,1,0,0:0:0:0:
225,167,35219,1,0,0:0:0:0:
225,167,35302,6,0,B|165:164|165:164|102:203|102:203|36:201,1,186.666666666667
11,198,35719,1,0,0:0:0:0:
79,109,35969,1,0,0:0:0:0:
17,15,36219,1,0,0:0:0:0:
98,92,36469,6,0,L|243:104,1,140
325,33,36969,1,0,0:0:0:0:
325,33,37135,1,0,0:0:0:0:
436,38,37385,2,0,P|408:92|474:166,1,140
477,174,37719,2,0,L|474:278,1,93.3333333333333
449,295,37969,1,0,0:0:0:0:
342,259,38219,1,0,0:0:0:0:
272,346,38469,6,0,L|190:355,1,70
102,329,38844,2,0,L|184:338,1,70
42,207,39219,6,0,L|31:285,1,70
58,118,39594,2,0,L|69:196,1,70
130,46,39969,6,0,L|116:-2,2,46.6666666666667
161,66,40219,1,0,0:0:0:0:
266,27,40469,6,0,L|249:130,1,93.3333333333333
265,153,40719,2,0,P|233:197|187:204,1,93.3333333333333
164,186,40969,1,0,0:0:0:0:
106,282,41219,1,0,0:0:0:0:
106,282,41302,6,0,B|174:277|174:277|227:306|227:306|299:300,1,186.666666666667
322,299,41719,1,0,0:0:0:0:
385,347,41885,1,0,0:0:0:0:
385,347,41969,2,0,P|452:339|470:321,1,93.3333333333333
485,289,42219,1,0,0:0:0:0:
487,177,42469,6,0,P|450:204|385:202,1,93.3333333333333
371,187,42719,2,0,L|386:93,1,93.3333333333333
413,69,42969,1,0,0:0:0:0:
359,17,43135,1,0,0:0:0:0:
359,17,43219,2,0,L|263:30,1,93.3333333333333
187,108,43635,5,0,0:0:0:0:
152,92,43719,2,0,L|146:44,2,46.6666666666667
117,75,43969,2,0,L|112:29,2,46.6666666666667
82,58,44219,2,0,L|77:12,2,46.6666666666667
47,42,44469,5,0,0:0:0:0:
47,42,44719,1,0,0:0:0:0:
8,147,44969,2,0,P|57:153|102:186,1,93.3333333333333
110,210,45219,2,0,P|149:234|195:239,1,93.3333333333333
232,234,45469,5,0,0:0:0:0:
257,343,45719,1,0,0:0:0:0:
306,369,45844,2,0,L|323:220,2,140
261,347,46469,5,0,0:0:0:0:
261,347,46719,1,0,0:0:0:0:
152,376,46969,2,0,P|167:324|162:270,1,93.3333333333333
144,254,47219,2,0,P|143:207|157:163,1,93.3333333333333
185,138,47469,6,0,L|234:146,2,46.6666666666667
211,111,47719,2,0,L|260:119,2,46.6666666666667
236,82,47969,1,0,0:0:0:0:
218,9,48135,1,0,0:0:0:0:
319,56,48385,1,0,0:0:0:0:
319,56,48469,6,0,B|348:64|348:64|430:60,1,93.3333333333333
448,59,48719,1,0,0:0:0:0:
456,170,48969,2,0,L|514:188,2,46.6666666666667
436,202,49219,2,0,L|494:220,2,46.6666666666667
416,233,49469,6,0,P|417:308|352:347,1,140
305,306,49885,2,0,L|160:322,1,140
132,338,50219,1,0,0:0:0:0:
65,370,50385,1,0,0:0:0:0:
65,370,50469,6,0,P|50:331|56:276,1,93.3333333333333
83,256,50719,2,0,P|87:209|72:166,1,93.3333333333333
37,150,50969,1,0,0:0:0:0:
77,45,51219,2,0,L|30:50,2,46.6666666666667
109,26,51469,6,0,B|140:24|140:24|209:40,1,93.3333333333333
209,74,51719,2,0,P|205:122|245:150,1,93.3333333333333
274,146,51969,1,0,0:0:0:0:
352,142,52135,1,0,0:0:0:0:
352,142,52219,2,0,L|360:93,2,46.6666666666667
377,169,52469,6,0,L|398:57,1,93.3333333333333
422,52,52719,2,0,P|468:71|491:110,1,93.3333333333333
473,140,52969,2,0,L|490:231,1,93.3333333333333
471,264,53219,2,0,L|409:266,2,46.6666666666667
457,299,53469,6,0,L|345:301,1,93.3333333333333
331,280,53719,2,0,P|297:304|290:364,1,93.3333333333333
309,382,53969,1,0,0:0:0:0:
197,378,54219,2,0,L|141:386,2,46.6666666666667
205,341,54469,6,0,P|190:295|201:239,1,93.3333333333333
226,229,54719,2,0,L|132:222,1,93.3333333333333
102,244,54969,1,0,0:0:0:0:
36,271,55135,1,0,0:0:0:0:
36,271,55219,2,0,L|14:322,2,46.6666666666667
21,236,55469,5,0,0:0:0:0:
5,163,55635,2,0,P|59:151|90:77,1,140
60,54,55969,2,0,L|153:66,1,93.3333333333333
178,93,56219,2,0,L|225:90,2,46.6666666666667
164,127,56469,5,0,0:0:0:0:
201,232,56719,1,0,0:0:0:0:
140,326,56969,1,0,0:0:0:0:
140,326,57135,2,0,L|271:338,1,116.666666666667
256,336,57719,5,0,0:0:0:0:
364,306,57969,1,0,0:0:0:0:
472,277,58219,1,0,0:0:0:0:
484,165,58469,6,0,P|440:193|388:197,1,93.3333333333333
370,175,58719,2,0,P|321:168|269:177,1,93.3333333333333
245,192,58969,1,0,0:0:0:0:
171,179,59135,1,0,0:0:0:0:
171,179,59219,2,0,L|175:80,1,93.3333333333333
157,52,59469,5,0,0:0:0:0:
157,52,59635,2,0,L|304:31,2,140
136,20,60219,2,0,P|79:29|54:53,1,93.3333333333333
66,88,60469,6,0,L|73:196,1,93.3333333333333
52,213,60719,1,0,0:0:0:0:
80,288,60885,1,0,0:0:0:0:
80,288,60969,2,0,L|182:300,1,93.3333333333333
200,323,61219,1,0,0:0:0:0:
309,300,61469,5,0,0:0:0:0:
309,300,61635,2,0,P|344:357|420:348,2,140
340,278,62219,1,0,0:0:0:0:
432,215,62469,6,0,L|338:201,1,93.3333333333333
302,206,62719,2,0,P|280:163|296:108,1,93.3333333333333
312,92,62969,1,0,0:0:0:0:
285,28,63135,1,0,0:0:0:0:
285,28,63219,1,0,0:0:0:0:
179,66,63469,6,0,L|69:58,1,93.3333333333333
48,66,63719,2,0,P|31:109|52:157,1,93.3333333333333
72,178,63969,2,0,L|182:170,1,93.3333333333333
198,187,64218,1,0,0:0:0:0:
278,109,64468,6,0,P|299:60|345:40,1,93.3333333333333
370,40,64718,1,0,0:0:0:0:
471,86,64968,6,0,L|457:191,1,93.3333333333333
433,206,65218,1,0,0:0:0:0:
467,312,65468,6,0,P|407:292|361:298,1,93.3333333333333
341,304,65719,1,0,0:0:0:0:
233,335,65969,6,0,L|242:391,2,46.6666666666667
256,311,66219,1,0,0:0:0:0:
256,311,66302,1,0,0:0:0:0:
256,311,66385,1,0,0:0:0:0:
256,311,66469,6,0,L|153:299,1,93.3333333333333
127,313,66719,2,0,P|106:264|122:226,1,93.3333333333333
152,210,66969,1,0,0:0:0:0:
190,146,67135,1,0,0:0:0:0:
190,146,67219,2,0,L|295:153,1,93.3333333333333
315,133,67469,5,0,0:0:0:0:
315,133,67635,2,0,P|359:108|363:20,2,140
283,152,68219,2,0,L|178:159,1,93.3333333333333
159,136,68469,6,0,P|101:148|66:180,1,93.3333333333333
64,204,68719,1,0,0:0:0:0:
34,275,68885,1,0,0:0:0:0:
34,275,68969,2,0,L|135:287,1,93.3333333333333
161,299,69219,1,0,0:0:0:0:
246,370,69469,5,0,0:0:0:0:
246,370,69635,2,0,L|231:216,2,140
278,351,70219,2,0,P|319:329|372:329,1,93.3333333333333
401,337,70469,5,0,0:0:0:0:
437,231,70719,1,0,0:0:0:0:
409,122,70969,2,0,L|313:128,1,93.3333333333333
280,141,71219,2,0,P|263:102|281:50,1,93.3333333333333
310,37,71469,5,0,0:0:0:0:
200,11,71719,1,0,0:0:0:0:
99,61,71969,2,0,L|83:12,2,46.6666666666667
80,93,72219,1,0,0:0:0:0:
80,93,72302,1,0,0:0:0:0:
80,93,72385,1,0,0:0:0:0:
80,93,72469,6,0,P|61:140|65:185,1,93.3333333333333
95,201,72719,2,0,L|195:195,1,93.3333333333333
220,176,72969,1,0,0:0:0:0:
268,240,73135,1,0,0:0:0:0:
268,240,73219,2,0,P|245:284|249:345,1,93.3333333333333
264,358,73469,5,0,0:0:0:0:
339,340,73635,1,0,0:0:0:0:
339,340,73719,2,0,L|436:349,1,93.3333333333333
465,330,73969,2,0,P|479:281|447:240,1,93.3333333333333
422,235,74219,1,0,0:0:0:0:
472,135,74469,6,0,L|360:130,1,93.3333333333333
343,145,74719,2,0,P|323:105|332:56,1,93.3333333333333
295,70,74969,2,0,L|183:75,1,93.3333333333333
167,59,75219,2,0,P|174:104|154:145,1,93.3333333333333
120,163,75469,5,0,0:0:0:0:
120,163,76469,6,0,P|85:240|105:291,1,140
190,357,76969,2,0,L|285:346,1,93.3333333333333
313,324,77219,1,0,0:0:0:0:
416,366,77469,2,0,P|463:323|455:232,1,140
402,158,77969,2,0,L|306:165,1,93.3333333333333
274,149,78219,1,0,0:0:0:0:
216,52,78469,6,0,L|66:42,1,140
16,137,78969,2,0,P|70:138|106:164,1,93.3333333333333
115,193,79219,1,0,0:0:0:0:
121,304,79469,2,0,L|259:330,3,140
363,369,80469,5,0,0:0:0:0:
413,269,80719,2,0,P|417:206|365:151,1,140
295,65,81219,2,0,L|302:13,2,46.6666666666667
308,103,81469,1,0,0:0:0:0:
269,207,81719,2,0,P|220:209|159:191,1,93.3333333333333
151,172,81969,2,0,L|99:173,2,46.6666666666667
130,140,82219,2,0,L|78:141,2,46.6666666666667
111,107,82469,6,0,P|107:56|146:18,1,93.3333333333333
167,11,82719,1,0,0:0:0:0:
263,67,82969,2,0,L|366:70,1,93.3333333333333
392,59,83219,1,0,0:0:0:0:
485,120,83469,6,0,P|444:158|430:192,1,93.3333333333333
432,229,83719,1,0,0:0:0:0:
479,330,83969,2,0,L|366:315,1,93.3333333333333
351,332,84219,1,0,0:0:0:0:
248,377,84469,6,0,P|257:317|239:274,1,93.3333333333333
210,294,84719,2,0,L|99:277,1,93.3333333333333
87,257,84969,2,0,P|78:197|96:154,1,93.3333333333333
125,174,85219,2,0,L|236:157,1,93.3333333333333
251,142,85469,5,0,0:0:0:0:
251,142,85719,1,0,0:0:0:0:
251,142,85969,1,0,0:0:0:0:
251,142,86219,1,0,0:0:0:0:
240,38,86469,6,0,L|322:29,1,70
410,55,86844,2,0,L|328:46,1,70
470,177,87219,6,0,L|481:99,1,70
454,266,87594,2,0,L|443:188,1,70
470,355,87969,5,0,0:0:0:0:
359,339,88219,1,0,0:0:0:0:
247,324,88469,5,0,0:0:0:0:
