osu file format v14

[General]
AudioFilename: audio.mp3
AudioLeadIn: 0
PreviewTime: 5719
Countdown: 0
SampleSet: None
StackLeniency: 0.3
Mode: 0
LetterboxInBreaks: 0
WidescreenStoryboard: 0

[Editor]
DistanceSpacing: 1.1
BeatDivisor: 3
GridSize: 32
TimelineZoom: 3.499999

[Metadata]
Title:Eyecatch! Too much!
TitleUnicode:Eyecatch! Too much!
Artist:Tomatsu Haruka, Hikasa Yoko, Amamiya Sora
ArtistUnicode:戸松 遥、日笠陽子、雨宮 天
Creator:Lilyanna
Version:Ren's Insane
Source:WWW.WORKING!!
Tags:opening tv size WWW.WAGNARIA!! 宮越華 村主さゆり 鎌倉志保 Hana Miyakoshi Sayuri Muranushi Shiho Kamakura SnowNiNo_ -Vanilla _83 DeRandom Otaku
BeatmapID:1409620
BeatmapSetID:655567

[Difficulty]
HPDrainRate:5
CircleSize:3.9
OverallDifficulty:7.2
ApproachRate:9
SliderMultiplier:1.6
SliderTickRate:1

[Events]
//Background and Video events
0,0,"12_working!!.jpg",0,0
//Break Periods
2,28669,31868
2,36669,39869
//Storyboard Layer 0 (Background)
//Storyboard Layer 1 (Fail)
//Storyboard Layer 2 (Pass)
//Storyboard Layer 3 (Foreground)
//Storyboard Sound Samples

[TimingPoints]
469,250,4,2,1,40,1,0
2469,-125,4,2,1,40,0,0
6469,-90.9090909090909,4,2,1,40,0,1
12719,-117.647058823529,4,2,1,40,0,1
13969,-83.3333333333333,4,2,1,40,0,1
14469,-90.9090909090909,4,2,1,40,0,1
20469,-142.857142857143,4,2,1,40,0,1
22469,-83.3333333333333,4,2,1,40,0,1
23469,-83.3333333333333,4,2,1,40,0,0
24469,-111.111111111111,4,2,1,40,0,0
58469,-90.9090909090909,4,2,1,40,0,1
64635,-125,4,2,1,40,0,1
65969,-83.3333333333333,4,2,1,40,0,1
66469,-90.9090909090909,4,2,1,40,0,1
72469,-142.857142857143,4,2,1,40,0,1
74469,-83.3333333333333,4,2,1,40,0,1
75469,-83.3333333333333,4,2,1,40,0,0
76469,-95.2380952380952,4,2,1,40,0,0
82469,-117.647058823529,4,2,1,40,0,0
82719,-142.857142857143,4,2,1,40,0,0
84469,-100,4,2,1,40,0,0
88469,-125,4,2,1,40,0,0

[Colours]
Combo1 : 128,128,128
Combo2 : 255,188,155
Combo3 : 0,106,157
Combo4 : 176,88,0
Combo5 : 255,215,91
Combo6 : 92,46,46

[HitObjects]
160,96,469,5,0,0:0:0:0:
163,99,1469,1,0,0:0:0:0:
166,102,2469,6,0,P|229:100|293:102,1,128
370,146,2844,1,0,0:0:0:0:
294,188,2969,2,0,P|230:189|166:187,1,128
93,234,3344,1,0,0:0:0:0:
149,352,3469,6,0,P|159:321|162:290,1,64
78,218,3719,1,0,0:0:0:0:
63,202,3969,1,0,0:0:0:0:
48,186,4219,1,0,0:0:0:0:
192,32,4469,5,0,0:0:0:0:
195,121,4635,2,0,P|147:109|102:36,2,128
327,125,5385,1,0,0:0:0:0:
327,125,5469,1,0,0:0:0:0:
192,32,5719,5,0,0:0:0:0:
103,47,5969,1,0,0:0:0:0:
50,120,6219,1,0,0:0:0:0:
64,209,6469,6,0,P|130:210|176:262,1,132.00000402832
173,290,6719,2,0,P|215:286|268:293,1,88.000002685547
389,291,6969,1,0,0:0:0:0:
330,373,7094,1,0,0:0:0:0:
260,291,7219,2,0,P|256:247|261:203,1,88.000002685547
342,142,7469,5,0,0:0:0:0:
202,122,7594,2,0,B|106:140|124:100|25:121,2,176.000005371094
283,61,8219,1,0,0:0:0:0:
286,64,8469,6,0,P|327:71|389:63,1,88.000002685547
480,23,8719,2,0,P|473:64|481:126,1,88.000002685547
485,226,8969,2,0,B|420:212|420:212|348:224,1,132.00000402832
342,254,9219,2,0,P|298:263|254:251,1,88.000002685547
215,115,9469,5,0,0:0:0:0:
301,175,9594,2,0,L|292:358,2,176.000005371094
312,64,10219,1,0,0:0:0:0:
315,67,10469,6,0,P|248:110|150:110,1,176.000005371094
54,51,10844,1,0,0:0:0:0:
75,151,10969,2,0,B|86:216|86:216|68:289,1,132.00000402832
61,307,11219,2,0,P|108:313|160:311,1,88.000002685547
243,376,11469,6,0,P|250:297|249:197,2,176.000005371094
173,190,12135,1,0,0:0:0:0:
173,190,12219,2,0,P|200:143|272:127,1,117.333336914063
249,200,12469,5,0,0:0:0:0:
82,114,12635,1,0,0:0:0:0:
82,114,12719,2,0,B|89:159|89:159|80:212,1,90.6666683959961
78,247,12969,5,0,0:0:0:0:
173,100,13135,1,0,0:0:0:0:
173,100,13219,2,0,B|180:145|180:145|171:198,1,90.6666683959961
169,233,13469,5,0,0:0:0:0:
264,86,13635,1,0,0:0:0:0:
264,86,13719,2,0,B|271:131|271:131|262:184,1,90.6666683959961
260,219,13969,6,0,P|295:224|330:219,1,63.9999980468751
439,203,14135,1,0,0:0:0:0:
400,177,14219,1,0,0:0:0:0:
404,219,14302,1,0,0:0:0:0:
408,261,14385,1,0,0:0:0:0:
412,304,14469,6,0,P|354:304|306:363,1,117.333336914063
315,345,14719,2,0,B|270:351|270:351|227:344,1,88.000002685547
120,272,14969,1,0,0:0:0:0:
133,371,15094,1,0,0:0:0:0:
215,247,15219,2,0,P|200:213|157:178,1,88.000002685547
52,119,15469,5,0,0:0:0:0:
162,179,15594,2,0,P|174:94|130:20,2,176.000005371094
35,262,16219,1,0,0:0:0:0:
39,265,16469,6,0,B|62:237|62:237|118:237|118:237|144:207,1,132.00000402832
162,179,16719,2,0,P|203:188|253:177,1,88.000002685547
344,124,16969,2,0,L|341:36,1,88.000002685547
409,215,17219,2,0,L|406:302,1,88.000002685547
466,106,17469,5,0,0:0:0:0:
344,124,17594,2,0,P|268:99|225:12,2,176.000005371094
466,106,18219,2,0,L|463:193,1,88.000002685547
405,302,18469,1,0,0:0:0:0:
408,305,18719,6,0,L|320:301,1,88.000002685547
208,339,18969,2,0,P|209:276|178:214,1,117.333336914063
170,203,19219,1,0,0:0:0:0:
159,176,19302,1,0,0:0:0:0:
156,147,19385,1,0,0:0:0:0:
161,118,19469,6,0,L|68:130,1,88.000002685547
188,227,19719,2,0,L|281:215,1,88.000002685547
411,283,19969,1,0,0:0:0:0:
396,252,20052,1,0,0:0:0:0:
396,218,20135,1,0,0:0:0:0:
409,186,20218,1,0,0:0:0:0:
433,163,20302,1,0,0:0:0:0:
465,151,20385,1,0,0:0:0:0:
499,152,20469,5,0,0:0:0:0:
344,57,20635,1,0,0:0:0:0:
344,57,20719,2,0,B|335:92|335:92|342:130,1,74.6666643880209,2|0,0:0|0:0,0:0:0:0:
349,171,20969,5,0,0:0:0:0:
280,329,21135,1,0,0:0:0:0:
280,329,21219,2,0,B|289:294|289:294|282:256,1,74.6666643880209,2|0,0:0|0:0,0:0:0:0:
275,215,21469,5,0,0:0:0:0:
123,148,21635,1,0,0:0:0:0:
123,148,21719,2,0,B|158:157|158:157|196:150,1,74.6666643880209,2|0,0:0|0:0,0:0:0:0:
237,143,21969,5,0,0:0:0:0:
389,210,22135,1,0,0:0:0:0:
389,210,22219,2,0,B|354:201|354:201|316:208,1,74.6666643880209,2|0,0:0|0:0,0:0:0:0:
275,215,22469,6,0,P|292:273|274:340,1,127.99999609375
278,340,22719,2,0,P|336:323|403:341,1,127.99999609375
476,380,22969,2,0,L|474:246,1,127.99999609375
397,257,23219,2,0,L|399:123,1,127.99999609375
400,51,23469,5,0,0:0:0:0:
397,257,23719,1,0,0:0:0:0:
191,254,23969,1,0,0:0:0:0:
194,48,24219,1,0,0:0:0:0:
400,51,24469,5,0,0:0:0:0:
441,139,24635,2,0,P|371:142|309:87,2,143.999995605469
275,29,25385,1,0,0:0:0:0:
275,29,25469,5,0,0:0:0:0:
400,51,25635,2,0,P|389:110|389:205,2,143.999995605469
439,254,26385,1,0,0:0:0:0:
439,254,26469,6,0,P|380:244|339:253,1,95.9999970703126
327,264,26719,1,0,0:0:0:0:
304,272,26802,1,0,0:0:0:0:
280,276,26885,1,0,0:0:0:0:
256,275,26969,6,0,B|262:226|262:226|252:171,1,95.9999970703126
250,156,27219,1,0,0:0:0:0:
247,132,27302,1,0,0:0:0:0:
251,108,27385,1,0,0:0:0:0:
255,85,27469,6,0,P|201:107|115:107,1,143.999995605469
348,192,27969,1,0,0:0:0:0:
351,195,28469,5,0,0:0:0:0:
391,116,32468,6,0,L|233:126,1,143.999995605469
78,208,32969,2,0,L|221:217,1,143.999995605469
314,231,33344,2,0,P|314:192|325:155,1,71.9999978027344
402,208,33594,6,0,P|394:274|329:321,1,143.999995605469
314,231,33969,1,0,0:0:0:0:
402,208,34094,1,0,0:0:0:0:
336,140,34219,2,0,L|263:145,1,71.9999978027344
194,80,34469,6,0,B|225:144|225:144|220:217,1,143.999995605469
428,344,34969,2,0,B|397:280|397:280|401:206,1,143.999995605469
481,159,35344,2,0,L|476:250,2,71.9999978027344
481,64,35719,6,0,L|396:71,1,71.9999978027344
339,132,35969,2,0,L|267:126,1,71.9999978027344,0|0,0:0|0:0,0:0:0:0:
197,64,36219,2,0,L|125:69,1,71.9999978027344
55,132,36469,5,0,0:0:0:0:
55,132,40469,5,0,0:0:0:0:
238,191,40719,1,0,0:0:0:0:
55,250,40969,1,0,0:0:0:0:
168,95,41219,1,0,0:0:0:0:
168,95,41344,2,0,P|173:61|169:19,1,71.9999978027344
99,138,41594,6,0,L|251:134,1,143.999995605469
309,68,41969,1,0,0:0:0:0:
309,68,42094,1,0,0:0:0:0:
371,137,42219,2,0,P|371:174|365:216,1,71.9999978027344
352,301,42469,5,0,0:0:0:0:
160,301,42719,1,0,0:0:0:0:
366,209,42969,2,0,B|423:209|423:209|484:231,1,107.999996704102
470,226,43219,1,0,0:0:0:0:
445,136,43344,6,0,L|362:136,1,71.9999978027344
283,164,43594,1,0,0:0:0:0:
366,209,43719,2,0,P|369:252|367:284,1,71.9999978027344
318,361,43969,5,0,0:0:0:0:
288,350,44052,1,0,0:0:0:0:
256,348,44135,1,0,0:0:0:0:
225,356,44219,2,0,P|229:319|224:277,1,71.9999978027344
211,192,44469,5,0,0:0:0:0:
211,192,44719,1,0,0:0:0:0:
68,324,44969,6,0,L|147:320,1,71.9999978027344
226,284,45219,2,0,L|297:287,1,71.9999978027344
344,369,45469,2,0,B|344:298|344:298|373:224,1,143.999995605469
441,168,45844,2,0,P|409:184|367:183,1,71.9999978027344
278,175,46094,2,0,P|242:175|210:191,1,71.9999978027344
137,251,46344,1,0,0:0:0:0:
102,164,46469,5,0,0:0:0:0:
102,164,46719,1,0,0:0:0:0:
282,103,46969,2,0,L|277:190,1,71.9999978027344
232,256,47219,2,0,L|237:343,1,71.9999978027344
321,288,47469,6,0,P|394:288|460:344,1,143.999995605469
449,328,47844,2,0,B|434:244|466:273|448:178,1,143.999995605469
432,92,48219,2,0,P|400:105|362:105,1,71.9999978027344
272,82,48469,5,0,0:0:0:0:
272,82,48719,1,0,0:0:0:0:
112,179,48969,2,0,P|153:179|189:159,1,71.9999978027344
272,82,49219,2,0,P|236:82|203:69,1,71.9999978027344
324,16,49469,6,0,L|314:171,1,143.999995605469
251,230,49844,2,0,P|313:202|381:241,1,143.999995605469
348,338,50219,2,0,P|323:314|313:280,1,71.9999978027344
400,167,50469,6,0,P|393:204|375:236,1,71.9999978027344
315,160,50719,2,0,P|322:123|340:91,1,71.9999978027344
408,31,50969,2,0,P|347:52|259:46,1,143.999995605469
176,33,51344,1,0,0:0:0:0:
206,121,51469,6,0,B|208:161|208:161|203:201,1,71.9999978027344
120,234,51719,2,0,P|197:233|249:290,1,143.999995605469
160,320,52094,1,0,0:0:0:0:
120,234,52219,2,0,B|118:194|118:194|123:154,1,71.9999978027344
72,86,52469,6,0,P|134:120|206:121,1,143.999995605469
268,48,52844,1,0,0:0:0:0:
330,121,52969,2,0,P|401:120|464:86,1,143.999995605469
463,297,53469,6,0,P|401:263|330:262,1,143.999995605469
268,336,53844,1,0,0:0:0:0:
205,262,53969,2,0,P|134:263|72:298,1,143.999995605469
72,86,54469,5,0,0:0:0:0:
256,169,54719,1,0,0:0:0:0:
440,86,54969,1,0,0:0:0:0:
440,86,55094,2,0,B|447:121|447:121|439:157,1,71.9999978027344
353,119,55344,6,0,L|358:262,2,143.999995605469
338,25,55969,2,0,P|305:40|265:43,1,71.9999978027344
176,27,56219,2,0,P|191:60|194:100,1,71.9999978027344
202,188,56469,6,0,L|121:184,1,71.9999978027344
30,269,56719,2,0,L|102:273,1,71.9999978027344
157,348,56969,1,0,0:0:0:0:
190,257,57094,2,0,P|201:223|202:187,1,71.9999978027344
194,95,57344,1,0,0:0:0:0:
157,348,57719,5,0,0:0:0:0:
272,348,57969,1,0,0:0:0:0:
353,266,58219,1,0,0:0:0:0:
353,150,58469,6,0,P|313:161|265:161,1,88.000002685547
246,47,58719,2,0,P|286:36|334:36,1,88.000002685547
440,73,58969,1,0,0:0:0:0:
440,73,59094,1,0,0:0:0:0:
353,150,59219,2,0,B|353:192|353:192|369:238,1,88.000002685547
465,174,59469,5,0,0:0:0:0:
353,150,59594,2,0,B|266:150|271:193|174:191,2,176.000005371094
465,174,60219,1,0,0:0:0:0:
468,177,60469,6,0,B|476:222|476:222|471:268,1,88.000002685547
395,350,60719,1,0,0:0:0:0:
471,264,60844,1,0,0:0:0:0:
395,350,60969,2,0,B|352:354|352:354|308:350,1,88.000002685547
231,264,61219,2,0,B|186:259|186:259|144:264,1,88.000002685547
31,291,61469,5,0,0:0:0:0:
121,347,61594,2,0,L|98:154,2,176.000005371094
121,347,62219,1,0,0:0:0:0:
128,354,62469,6,0,B|183:341|183:341|315:356,1,176.000005371094
413,376,62844,1,0,0:0:0:0:
370,269,62969,2,0,B|370:226|370:226|390:186,1,88.000002685547
452,88,63219,1,0,0:0:0:0:
455,91,63469,6,0,B|410:109|410:109|323:109|323:109|281:129,2,176.000005371094
317,26,64135,1,0,0:0:0:0:
317,26,64218,2,0,L|210:81,1,117.333336914063
212,79,64468,5,0,0:0:0:0:
107,192,64635,1,0,0:0:0:0:
107,192,64718,2,0,P|106:147|87:101,1,85.3333333333333
92,109,64968,5,0,0:0:0:0:
208,209,65135,1,0,0:0:0:0:
208,209,65218,2,0,P|207:254|188:300,1,85.3333333333333
193,292,65468,5,0,0:0:0:0:
309,192,65635,1,0,0:0:0:0:
309,192,65718,2,0,P|308:147|289:101,1,85.3333333333333
297,111,65969,6,0,P|336:117|366:116,1,63.9999980468751
474,100,66135,1,0,0:0:0:0:
449,134,66218,1,0,0:0:0:0:
451,176,66301,1,0,0:0:0:0:
455,219,66384,1,0,0:0:0:0:
459,261,66469,6,0,P|416:262|358:300,1,88.000002685547
290,356,66719,2,0,P|246:355|188:317,1,88.000002685547
151,235,66969,2,0,L|268:238,1,117.333336914063
333,197,67219,2,0,L|215:193,1,117.333336914063
156,143,67469,5,0,0:0:0:0:
222,49,67594,2,0,L|412:57,2,176.000005371094
107,43,68219,1,0,0:0:0:0:
110,46,68469,6,0,B|116:105|116:105|106:181,1,117.333336914063
50,213,68719,2,0,P|109:199|168:218,1,117.333336914063
207,276,68969,2,0,P|262:291|319:277,1,117.333336914063
370,220,69219,2,0,B|364:279|364:279|371:336,1,117.333336914063
441,367,69469,5,0,0:0:0:0:
459,251,69594,2,0,P|447:165|367:125,2,176.000005371094
371,336,70219,2,0,L|276:329,1,88.000002685547
169,315,70469,1,0,0:0:0:0:
173,318,70719,6,0,B|170:274|170:274|177:229,1,88.000002685547
226,127,70969,2,0,P|160:127|113:89,1,117.333336914063
97,78,71219,1,0,0:0:0:0:
70,66,71302,1,0,0:0:0:0:
41,63,71385,1,0,0:0:0:0:
12,69,71469,6,0,L|22:167,1,88.000002685547
128,185,71719,2,0,L|118:87,1,88.000002685547
206,22,71969,1,0,0:0:0:0:
246,38,72052,1,0,0:0:0:0:
290,44,72135,1,0,0:0:0:0:
333,36,72218,1,0,0:0:0:0:
376,27,72302,1,0,0:0:0:0:
419,31,72385,1,0,0:0:0:0:
462,44,72468,5,0,0:0:0:0:
389,136,72635,1,0,0:0:0:0:
389,136,72719,2,0,P|386:172|389:213,1,74.6666643880209
388,210,72969,5,0,0:0:0:0:
309,289,73135,1,0,0:0:0:0:
309,289,73219,2,0,P|273:286|232:289,1,74.6666643880209
234,288,73469,5,0,0:0:0:0:
155,209,73635,1,0,0:0:0:0:
155,209,73719,2,0,P|158:173|155:132,1,74.6666643880209
156,134,73969,5,0,0:0:0:0:
235,56,74135,1,0,0:0:0:0:
235,56,74219,2,0,P|271:59|312:56,1,74.6666643880209
313,60,74469,6,0,P|293:122|316:191,1,127.99999609375
369,238,74719,2,0,P|307:218|238:241,1,127.99999609375
191,294,74969,2,0,P|211:232|188:163,1,127.99999609375
135,116,75219,2,0,P|197:136|266:113,1,127.99999609375
313,60,75469,5,0,0:0:0:0:
313,309,75719,1,0,0:0:0:0:
96,184,75969,1,0,0:0:0:0:
313,60,76219,1,0,0:0:0:0:
96,184,76469,6,0,P|90:272|91:358,2,167.999994873047
112,73,77135,1,0,0:0:0:0:
112,73,77219,2,0,P|163:85|225:73,1,111.999996582031
261,35,77469,6,0,B|259:111|259:111|267:128|267:128|264:206,2,167.999994873047
353,97,78135,1,0,0:0:0:0:
353,97,78219,2,0,P|404:109|466:97,1,111.999996582031
465,101,78469,6,0,B|447:183|447:183|465:278,2,167.999994873047
369,36,79135,1,0,0:0:0:0:
369,36,79219,2,0,P|318:24|256:36,1,111.999996582031
204,22,79469,6,0,P|244:101|196:164,2,167.999994873047
121,97,80135,1,0,0:0:0:0:
121,97,80219,2,0,P|126:149|120:210,1,111.999996582031
112,264,80469,6,0,P|165:264|222:232,1,111.999996582031
256,197,80719,2,0,B|304:170|304:170|366:171,1,111.999996582031
417,170,80969,2,0,L|408:51,1,111.999996582031
401,19,81219,1,0,0:0:0:0:
370,39,81302,1,0,0:0:0:0:
334,48,81385,1,0,0:0:0:0:
297,45,81468,5,0,0:0:0:0:
129,29,81719,1,0,0:0:0:0:
230,162,81969,1,0,0:0:0:0:
234,198,82052,1,0,0:0:0:0:
225,234,82135,1,0,0:0:0:0:
203,264,82219,1,0,0:0:0:0:
180,293,82302,1,0,0:0:0:0:
171,329,82385,1,0,0:0:0:0:
175,366,82469,6,0,P|214:343|274:329,1,90.6666683959961
260,333,82719,2,0,L|360:337,1,74.6666643880209
372,339,82969,5,0,0:0:0:0:
372,257,83135,1,0,0:0:0:0:
372,257,83219,2,0,L|272:253,1,74.6666643880209
260,251,83469,5,0,0:0:0:0:
260,169,83635,1,0,0:0:0:0:
260,169,83719,2,0,L|360:173,1,74.6666643880209
372,175,83969,5,0,0:0:0:0:
372,93,84135,1,0,0:0:0:0:
372,93,84219,2,0,L|272:89,1,74.6666643880209
259,91,84469,6,0,P|256:36|170:37,1,160
178,126,84844,1,0,0:0:0:0:
186,214,84969,2,0,P|116:230|97:161,1,160
178,126,85344,1,0,0:0:0:0:
259,91,85469,5,0,0:0:0:0:
383,215,85719,1,0,0:0:0:0:
259,339,85969,1,0,0:0:0:0:
134,214,86219,1,0,0:0:0:0:
259,91,86469,5,0,0:0:0:0:
259,91,86594,1,0,0:0:0:0:
383,215,86844,1,0,0:0:0:0:
383,215,86969,1,0,0:0:0:0:
259,339,87219,1,0,0:0:0:0:
259,339,87344,1,0,0:0:0:0:
134,214,87594,1,0,0:0:0:0:
134,214,87719,1,0,0:0:0:0:
259,339,87969,5,0,0:0:0:0:
383,215,88219,1,0,0:0:0:0:
259,91,88469,2,0,B|396:138|369:36|513:87,1,256
