osu file format v14

[General]
AudioFilename: audio.mp3
AudioLeadIn: 0
PreviewTime: 5719
Countdown: 0
SampleSet: Soft
StackLeniency: 0.6
Mode: 0
LetterboxInBreaks: 0
WidescreenStoryboard: 1

[Editor]
DistanceSpacing: 0.8
BeatDivisor: 3
GridSize: 16
TimelineZoom: 2.3

[Metadata]
Title:Eyecatch! Too much!
TitleUnicode:Eyecatch! Too much!
Artist:Tomatsu Haruka, Hikasa Yoko, Amamiya Sora
ArtistUnicode:戸松 遥、日笠陽子、雨宮 天
Creator:Lilyanna
Version:Normal
Source:WWW.WORKING!!
Tags:opening tv size WWW.WAGNARIA!! 宮越華 村主さゆり 鎌倉志保 Hana Miyakoshi Sayuri Muranushi Shiho Kamakura SnowNiNo_ -Vanilla _83 DeRandom Otaku
BeatmapID:1399758
BeatmapSetID:655567

[Difficulty]
HPDrainRate:3
CircleSize:3.2
OverallDifficulty:4
ApproachRate:5
SliderMultiplier:1.2
SliderTickRate:1

[Events]
//Background and Video events
0,0,"12_working!!.jpg",0,0
//Break Periods
2,28669,31268
2,36669,39269
//Storyboard Layer 0 (Background)
//Storyboard Layer 1 (Fail)
//Storyboard Layer 2 (Pass)
//Storyboard Layer 3 (Foreground)
//Storyboard Sound Samples

[TimingPoints]
469,250,4,2,1,40,1,0
6469,-100,4,2,1,40,0,1
24469,-100,4,2,1,40,0,0
58469,-100,4,2,1,40,0,1
76469,-100,4,2,1,40,0,0

[Colours]
Combo1 : 128,128,128
Combo2 : 255,188,155
Combo3 : 0,106,157
Combo4 : 176,88,0
Combo5 : 255,215,91
Combo6 : 92,46,46

[HitObjects]
81,30,469,6,0,P|107:90|52:193,1,180
29,223,969,2,0,B|97:218|97:243|160:226,1,120
202,149,1469,2,0,P|176:209|231:312,1,180
254,342,1969,2,0,B|186:337|186:362|123:345,1,120
71,275,2469,6,0,L|59:140,1,120
147,115,2969,2,0,L|157:234,1,120
256,192,3469,12,0,4469,0:0:0:0:
457,68,5719,5,0,0:0:0:0:
481,160,5969,1,0,0:0:0:0:
388,135,6219,1,0,0:0:0:0:
315,200,6469,6,0,P|290:146|303:89,1,120
223,35,6969,2,0,L|88:42,1,120
52,123,7469,6,0,P|68:188|65:264,1,120
118,323,7969,2,0,L|253:310,1,120
320,263,8469,6,0,L|332:133,1,120
335,47,8969,2,0,P|278:55|196:41,1,120
132,94,9469,6,0,P|143:143|126:228,1,120
38,192,9969,2,0,P|27:250|39:309,1,120
133,330,10469,6,0,L|265:331,2,120
39,309,11219,1,0,0:0:0:0:
60,215,11469,6,0,L|61:83,2,120
39,309,12219,1,0,0:0:0:0:
131,283,12469,6,0,P|188:273|270:296,1,120
313,214,12969,2,0,P|303:157|326:75,1,120
411,99,13469,6,0,P|421:156|398:238,1,120
364,301,13969,2,0,L|272:310,1,80
267,281,14219,2,0,L|175:290,1,80
155,286,14469,6,0,L|147:153,1,120
53,184,14969,2,0,L|45:51,1,120
140,46,15469,6,0,L|266:41,1,120
299,128,15969,2,0,L|425:123,1,120
505,164,16469,6,0,L|495:297,1,120
424,348,16969,2,0,P|372:342|285:354,1,120
244,276,17469,6,0,P|184:282|124:276,1,120
89,187,17969,2,0,P|148:180|208:186,1,120
282,125,18469,6,0,B|263:37|263:37|272:-8,2,120
357,183,19219,1,0,0:0:0:0:
432,242,19469,6,0,P|440:315|428:368,1,120
336,343,19969,2,0,L|241:351,1,80
236,324,20219,2,0,L|141:332,1,80
125,321,20469,6,0,P|109:265|121:182,1,120
205,174,20969,2,0,P|262:167|342:194,1,120
415,160,21469,6,0,P|427:104|409:21,1,120
322,41,21969,2,0,P|264:51|183:30,1,120
256,192,22469,12,0,23469,0:0:0:0:
400,60,24469,6,0,P|421:149|399:203,1,120
323,206,24969,2,0,L|191:213,1,120
107,203,25469,6,0,P|86:114|108:60,1,120
184,57,25969,2,0,L|316:50,1,120
353,133,26469,6,0,L|366:267,1,120
272,225,26969,2,0,L|285:359,1,120
187,348,27469,6,0,L|50:348,1,120
29,259,27969,1,0,0:0:0:0:
171,130,28469,5,0,0:0:0:0:
447,56,32468,6,0,P|473:169|406:275,1,240
327,316,33219,1,0,0:0:0:0:
261,242,33469,6,0,B|137:233|137:277|10:238,1,240
10,146,34219,1,0,0:0:0:0:
38,54,34469,6,0,B|151:89|151:45|275:54,1,240
368,78,35219,1,0,0:0:0:0:
377,173,35469,6,0,P|365:236|373:321,2,120
368,78,36219,1,0,0:0:0:0:
453,122,36469,5,0,0:0:0:0:
432,291,40469,6,0,B|415:191|415:191|438:131|423:53,1,240
329,32,41219,1,0,0:0:0:0:
300,123,41469,6,0,P|239:161|85:105,1,240
31,35,42219,1,0,0:0:0:0:
10,128,42469,6,0,B|47:245|-11:243|18:377,1,240
111,354,43219,1,0,0:0:0:0:
199,316,43469,6,0,P|254:312|336:321,2,120
111,354,44219,1,0,0:0:0:0:
127,259,44469,6,0,L|117:115,1,120
393,51,45469,6,0,L|401:170,1,120
306,183,45969,2,0,L|314:302,1,120
222,329,46469,6,0,L|78:319,1,120
89,32,47469,6,0,L|208:23,1,120
221,119,47969,2,0,L|340:110,1,120
367,203,48469,6,0,L|357:347,1,120
262,328,48969,2,0,L|142:336,1,120
81,261,49469,6,0,P|106:184|91:124,1,120
81,52,49969,2,0,P|141:58|231:35,1,120
267,115,50469,6,0,P|317:95|508:131,1,240
495,218,51219,6,0,P|445:238|254:202,1,240
170,213,51969,6,0,P|60:196|16:323,1,240
103,284,52719,2,0,B|63:165|109:165|84:35,1,240
182,48,53469,6,0,L|316:53,1,120
319,146,53969,2,0,L|453:151,1,120
440,246,54469,6,0,L|320:250,1,120
303,344,54969,2,0,L|183:348,1,120
256,192,55469,12,0,57469,0:0:0:0:
434,230,58469,6,0,L|424:87,1,120
350,50,58969,2,0,L|215:57,1,120
140,89,59469,6,0,P|156:147|128:223,1,120
74,272,59969,2,0,L|209:259,1,120
267,321,60469,6,0,L|401:308,1,120
454,244,60969,2,0,P|441:184|460:105,1,120
367,79,61469,6,0,P|318:90|233:73,1,120
163,36,61969,2,0,P|105:25|46:37,1,120
22,130,62469,6,0,L|21:262,2,120
45,37,63219,1,0,0:0:0:0:
115,102,63469,6,0,L|247:103,2,120
45,37,64219,1,0,0:0:0:0:
22,130,64469,6,0,P|32:187|9:269,1,120
84,319,64969,2,0,P|141:309|223:332,1,120
266,251,65469,6,0,P|276:194|253:112,1,120
243,39,65969,2,0,L|335:30,1,80
340,59,66219,2,0,L|432:50,1,80
452,54,66469,6,0,L|460:187,1,120
384,234,66969,2,0,L|391:353,1,120
295,356,67469,6,0,L|169:361,1,120
155,266,67969,2,0,L|29:271,1,120
4,179,68469,6,0,L|16:48,1,120
102,18,68969,2,0,P|154:24|241:12,1,120
286,87,69469,6,0,P|346:81|406:87,1,120
403,182,69969,2,0,P|344:189|284:183,1,120
205,127,70469,6,0,B|137:129|137:129|71:168,2,120
283,182,71219,1,0,0:0:0:0:
331,264,71469,6,0,P|315:341|284:369,1,120
239,283,71969,2,0,L|144:291,1,80
139,264,72219,2,0,L|44:272,1,80
44,241,72469,6,0,P|28:185|40:102,1,120
106,62,72969,2,0,P|163:55|243:82,1,120
266,155,73469,6,0,P|254:211|272:294,1,120
344,324,73969,2,0,P|402:334|483:313,1,120
256,192,74469,12,0,75469,0:0:0:0:
105,69,76469,6,0,P|89:120|103:202,1,120
158,258,76969,2,0,L|287:255,1,120
341,327,77469,2,0,P|376:242|262:158,1,240
277,255,78219,1,0,0:0:0:0:
195,204,78469,6,0,P|189:135|223:80,1,120
143,23,78969,2,0,L|20:38,1,120
17,133,79469,6,0,B|48:239|-6:239|22:377,1,240
103,321,80219,1,0,0:0:0:0:
194,351,80469,6,0,L|329:357,1,120
354,269,80969,2,0,L|489:275,1,120
490,179,81469,6,0,L|496:44,1,120
406,21,81969,2,0,L|400:140,1,120
318,190,82469,6,0,P|259:178|182:189,1,120
121,128,82969,2,0,P|133:69|122:-8,1,120
40,50,83469,6,0,P|28:109|39:186,1,120
107,229,83969,2,0,P|112:288|100:347,1,120
197,350,84469,6,0,L|322:346,1,120
288,254,84969,2,0,L|413:250,1,120
440,159,85469,6,0,P|446:104|397:31,2,120
352,119,86219,1,0,0:0:0:0:
256,192,86469,12,0,88469,0:0:0:0:
