osu file format v14

[General]
AudioFilename: audio.mp3
AudioLeadIn: 0
PreviewTime: 5719
Countdown: 0
SampleSet: Soft
StackLeniency: 0.7
Mode: 0
LetterboxInBreaks: 0
WidescreenStoryboard: 0

[Editor]
Bookmarks: 10969,13969,32469,40469,58469,76969
DistanceSpacing: 1
BeatDivisor: 3
GridSize: 8
TimelineZoom: 1

[Metadata]
Title:Eyecatch! Too much!
TitleUnicode:Eyecatch! Too much!
Artist:Tomatsu Haruka, Hikasa Yoko, Amamiya Sora
ArtistUnicode:戸松 遥、日笠陽子、雨宮 天
Creator:Lilyanna
Version:Expert
Source:WWW.WORKING!!
Tags:opening tv size WWW.WAGNARIA!! 宮越華 村主さゆり 鎌倉志保 Hana Miyakoshi Sayuri Muranushi Shiho Kamakura SnowNiNo_ -Vanilla _83 DeRandom Otaku
BeatmapID:1389211
BeatmapSetID:655567

[Difficulty]
HPDrainRate:5
CircleSize:4
OverallDifficulty:9
ApproachRate:9.7
SliderMultiplier:2.2
SliderTickRate:1

[Events]
//Background and Video events
0,0,"12_working!!.jpg",0,0
//Break Periods
2,28719,31474
2,36669,37974
//Storyboard Layer 0 (Background)
//Storyboard Layer 1 (Fail)
//Storyboard Layer 2 (Pass)
//Storyboard Layer 3 (Foreground)
//Storyboard Sound Samples

[TimingPoints]
469,250,4,2,1,40,1,0
469,-142.857142857143,4,2,1,40,0,0
3719,-100,4,2,1,40,0,0
3969,-83.3333333333333,4,2,1,40,0,0
4219,-71.4285714285714,4,2,1,40,0,0
5719,-333.333333333333,4,2,1,40,0,0
5969,-200,4,2,1,40,0,0
6219,-142.857142857143,4,2,1,40,0,0
6469,-100,4,2,1,70,0,1
12469,-142.857142857143,4,2,1,70,0,1
12969,-100,4,2,1,70,0,1
13469,-83.3333333333333,4,2,1,70,0,1
13969,-100,4,2,1,70,0,1
18469,-333.333333333334,4,2,1,70,0,1
18719,-100,4,2,1,70,0,1
19219,-333.333333333333,4,2,1,70,0,1
19469,-142.857142857143,4,2,1,70,0,1
19719,-83.3333333333333,4,2,1,70,0,1
19969,-100,4,2,1,70,0,1
20469,-333.333333333333,4,2,1,70,0,1
20719,-83.3333333333333,4,2,1,70,0,1
20969,-333.333333333333,4,2,1,70,0,1
21219,-83.3333333333333,4,2,1,70,0,1
22469,-100,4,2,1,70,0,1
23469,-200,4,2,1,40,0,1
24469,-100,4,2,1,40,0,0
44469,-142.857142857143,4,2,1,40,0,0
50469,-100,4,2,1,40,0,0
50719,-142.857142857143,4,2,1,40,0,0
50969,-100,4,2,1,40,0,0
51469,-142.857142857143,4,2,1,40,0,0
51719,-100,4,2,1,40,0,0
57719,-333.333333333333,4,2,1,40,0,0
57969,-200,4,2,1,40,0,0
58219,-142.857142857143,4,2,1,40,0,0
58469,-100,4,2,1,70,0,1
64469,-142.857142857143,4,2,1,70,0,1
64969,-100,4,2,1,70,0,1
65469,-83.3333333333333,4,2,1,70,0,1
65969,-100,4,2,1,70,0,1
70469,-333.333333333334,4,2,1,70,0,1
70719,-100,4,2,1,70,0,1
71219,-333.333333333333,4,2,1,70,0,1
71469,-142.857142857143,4,2,1,70,0,1
71719,-83.3333333333333,4,2,1,70,0,1
71969,-100,4,2,1,70,0,1
72469,-333.333333333333,4,2,1,70,0,1
72719,-83.3333333333333,4,2,1,70,0,1
72969,-333.333333333333,4,2,1,70,0,1
73219,-83.3333333333333,4,2,1,70,0,1
74469,-100,4,2,1,70,0,1
75469,-200,4,2,1,40,0,1
76469,-100,4,2,1,40,0,0
80469,-333.333333333334,4,2,1,40,0,0
80719,-100,4,2,1,40,0,0
81219,-333.333333333333,4,2,1,40,0,0
81469,-142.857142857143,4,2,1,40,0,0
81719,-83.3333333333333,4,2,1,40,0,0
81969,-100,4,2,1,40,0,0
82469,-333.333333333333,4,2,1,40,0,0
82719,-83.3333333333333,4,2,1,40,0,0
82969,-333.333333333333,4,2,1,40,0,0
83219,-83.3333333333333,4,2,1,40,0,0
83469,-333.333333333333,4,2,1,40,0,0
83719,-83.3333333333333,4,2,1,40,0,0
83969,-333.333333333333,4,2,1,40,0,0
84219,-83.3333333333333,4,2,1,40,0,0
84469,-100,4,2,1,40,0,0
85969,-83.3333333333333,4,2,1,40,0,0
86219,-71.4285714285714,4,2,1,40,0,0
86469,-100,4,2,1,50,0,0
88969,-100,4,2,1,5,0,0

[Colours]
Combo1 : 128,128,128
Combo2 : 255,188,155
Combo3 : 0,106,157
Combo4 : 176,88,0
Combo5 : 255,215,91
Combo6 : 92,46,46

[HitObjects]
41,124,469,6,0,B|157:106|158:151|281:121,1,230.99999295044,8|0,0:2|0:0,0:0:0:0:
158,41,969,2,0,P|208:51|262:36,1,76.9999976501466
421,318,1469,2,0,P|369:255|429:100,1,230.99999295044,8|0,0:0|0:0,0:0:0:0:
460,249,1969,2,0,P|439:207|456:172,1,76.9999976501466
74,40,2469,6,0,L|69:146,1,102.666663533529,8|0,0:0|0:0,0:0:0:0:
67,227,2719,1,0,0:0:0:0:
67,227,2844,1,0,0:0:0:0:
169,97,2969,2,0,L|166:208,1,102.666663533529,8|0,0:0|0:0,0:0:0:0:
162,284,3219,1,0,0:0:0:0:
162,284,3344,1,0,0:0:0:0:
452,122,3469,6,0,B|418:134|374:116|374:116|389:139|383:152,1,102.666663533529,8|0,0:0|0:0,0:0:0:0:
281,264,3719,2,0,B|334:248|382:270|382:270|363:243|353:220,1,146.666666666667,8|0,0:0|0:0,0:0:0:0:
316,39,3969,2,0,B|261:91|298:172|298:172|269:148|248:143,1,175.999994628906,8|0,0:0|0:0,0:0:0:0:
367,360,4219,2,0,P|463:309|454:212,1,205.333327067058,8|0,0:0|0:0,0:0:0:0:
256,192,4469,12,0,5469,0:0:0:0:
45,131,5719,38,0,P|43:97|43:80,1,43.9999986572266
68,71,5969,6,0,P|63:121|65:169,1,73.3333333333333
83,161,6219,6,0,P|83:113|93:47,1,102.666663533529
301,215,6469,5,0,0:0:0:0:
196,38,6594,1,4,0:0:0:0:
333,20,6719,1,8,0:0:0:0:
184,186,6844,1,0,0:0:0:0:
392,131,6969,1,0,0:0:0:0:
326,355,7094,1,2,0:0:0:0:
326,355,7156,1,2,0:0:0:0:
326,355,7219,2,0,P|330:284|299:211,1,146.666666666667,8|0,0:0|0:0,0:0:0:0:
420,55,7469,6,0,P|416:126|452:204,1,146.666666666667,2|0,0:0|0:0,0:0:0:0:
332,48,7719,1,8,0:0:0:0:
202,242,7885,1,0,0:0:0:0:
184,244,7969,2,0,L|21:235,1,146.666666666667,2|0,0:0|0:0,0:0:0:0:
185,59,8219,2,0,L|336:47,1,146.666666666667,8|0,0:0|0:0,0:0:0:0:
137,141,8469,5,2,0:0:0:0:
278,266,8594,1,0,0:0:0:0:
106,52,8719,1,8,0:0:0:0:
134,325,8844,1,0,0:0:0:0:
289,151,8969,1,0,0:0:0:0:
27,137,9094,1,2,0:0:0:0:
27,137,9156,1,2,0:0:0:0:
27,137,9219,2,0,P|30:205|14:293,1,146.666666666667,8|0,0:0|0:0,0:0:0:0:
137,141,9469,22,0,P|137:79|150:-6,1,146.666666666667,2|0,0:0|0:0,0:0:0:0:
185,236,9719,1,8,0:0:0:0:
321,112,9885,1,0,0:0:0:0:
339,108,9969,2,0,L|488:86,1,146.666666666667,2|0,0:0|0:0,0:0:0:0:
474,227,10219,2,0,L|319:245,1,146.666666666667,8|0,0:0|0:0,0:0:0:0:
143,31,10469,6,0,P|150:102|127:178,1,146.666666666667,2|0,0:0|0:0,0:0:0:0:
1,266,10719,2,0,P|86:255|154:266,1,146.666666666667,8|0,0:0|0:0,0:0:0:0:
402,301,10969,2,0,P|319:315|232:293,1,146.666666666667,0|2,0:0|0:0,0:0:0:0:
214,213,11219,2,0,P|221:292|195:365,1,146.666666666667,8|0,0:0|0:0,0:0:0:0:
52,142,11469,6,0,P|41:88|61:-4,1,146.666666666667,2|0,0:0|0:0,0:0:0:0:
265,65,11719,2,0,P|210:62|119:82,1,146.666666666667,8|0,0:0|0:0,0:0:0:0:
314,177,11969,2,0,P|397:191|482:170,1,146.666666666667,0|2,0:0|0:0,0:0:0:0:
502,89,12219,2,0,P|495:168|516:244,1,146.666666666667,8|0,0:0|0:0,0:0:0:0:
317,291,12469,6,0,P|268:278|216:279,1,102.666663533529,2|0,0:0|0:0,0:0:0:0:
122,306,12719,1,8,0:0:0:0:
358,308,12969,6,0,P|281:281|206:281,1,146.666666666667,2|0,0:0|0:0,0:0:0:0:
122,306,13219,1,8,0:0:0:0:
383,320,13469,22,0,P|303:286|216:279,1,175.999994628906,2|0,0:0|0:0,0:0:0:0:
122,306,13719,1,8,0:0:0:0:
305,73,13969,1,2,0:0:0:0:
324,120,14052,1,2,0:0:0:0:
314,170,14135,1,2,0:0:0:0:
296,219,14219,5,10,0:0:0:0:
355,261,14302,1,2,0:0:0:0:
375,331,14385,1,2,0:0:0:0:
295,312,14469,6,0,P|292:234|317:163,1,146.666666666667,4|0,0:0|0:0,0:0:0:0:
417,32,14719,2,0,P|420:110|390:187,1,146.666666666667,8|0,0:0|0:0,0:0:0:0:
305,73,14969,1,0,0:0:0:0:
305,73,15094,1,0,0:0:0:0:
420,254,15219,1,8,0:0:0:0:
420,254,15344,1,0,0:0:0:0:
218,113,15469,6,0,P|159:122|72:99,1,146.666666666667,2|0,0:0|0:0,0:0:0:0:
228,310,15719,2,0,P|287:301|379:321,1,146.666666666667,8|0,0:0|0:0,0:0:0:0:
169,242,15969,1,0,0:0:0:0:
290,57,16094,1,2,0:0:0:0:
290,57,16156,1,2,0:0:0:0:
290,57,16219,2,0,P|304:110|276:186,1,110,8|0,0:0|0:0,0:0:0:0:
100,299,16469,6,0,P|86:246|134:160,1,146.666666666667,2|0,0:0|0:0,0:0:0:0:
172,58,16719,2,0,L|24:62,1,146.666666666667,8|0,0:0|0:0,0:0:0:0:
165,242,16969,2,0,L|323:244,1,146.666666666667
366,302,17219,2,0,P|390:234|347:171,1,146.666666666667,8|0,0:0|0:0,0:0:0:0:
427,22,17469,22,0,P|404:88|451:162,1,146.666666666667,2|0,0:0|0:0,0:0:0:0:
480,244,17719,1,8,0:0:0:0:
299,120,17844,2,0,L|187:124,1,110
64,343,18135,1,2,0:0:0:0:
70,325,18219,2,0,P|77:264|51:182,1,146.666666666667,8|0,0:0|0:0,0:0:0:0:
20,40,18469,70,0,P|19:71|14:98,1,43.9999986572266,2|0,0:0|0:0,0:0:0:0:
96,27,18719,6,0,B|97:75|86:114|86:114|127:140|127:195,1,146.666666666667,8|0,0:0|0:0,0:0:0:0:
52,184,18969,2,0,P|121:173|187:232,1,146.666666666667,2|0,0:0|0:0,0:0:0:0:
104,256,19219,70,0,P|100:280|99:307,1,43.9999986572266,2|0,0:0|0:0,0:0:0:0:
193,300,19469,6,0,P|242:279|268:217,1,102.666663533529,2|0,0:0|0:0,0:0:0:0:
345,220,19719,6,0,P|279:212|264:93,1,197.99999395752,8|0,0:0|0:0,0:0:0:0:
306,37,19969,1,2,0:0:0:0:
257,19,20052,1,2,0:0:0:0:
208,33,20135,1,2,0:0:0:0:
156,35,20219,5,10,0:0:0:0:
85,14,20302,1,2,0:0:0:0:
14,34,20385,1,2,0:0:0:0:
81,95,20469,38,0,L|77:146,1,43.9999986572266,2|0,0:0|0:0,0:0:0:0:
272,272,20719,6,0,P|186:251|104:317,1,175.999994628906,8|0,0:0|0:0,0:0:0:0:
83,295,20969,70,0,L|86:244,1,43.9999986572266,2|0,0:0|0:0,0:0:0:0:
303,175,21219,6,0,P|382:214|479:167,1,175.999994628906,8|0,0:0|0:0,0:0:0:0:
383,103,21469,2,0,B|360:214|420:209|387:308,1,175.999994628906,2|0,0:0|0:0,0:0:0:0:
477,345,21719,2,0,P|404:320|309:356,1,175.999994628906,8|0,0:0|0:0,0:0:0:0:
127,259,21969,2,0,P|200:286|315:253,1,175.999994628906,2|0,0:0|0:0,0:0:0:0:
71,195,22219,2,0,P|119:238|96:349,1,175.999994628906,8|0,0:0|0:0,0:0:0:0:
190,135,22469,5,14,0:0:0:0:
69,71,22635,5,2,0:0:0:0:
37,110,22719,1,2,0:0:0:0:
224,96,22885,5,10,0:0:0:0:
257,58,22969,1,10,0:0:0:0:
139,0,23135,5,2,0:0:0:0:
103,35,23219,1,2,0:0:0:0:
153,175,23385,21,10,0:0:0:0:
190,135,23469,70,0,B|262:170|312:136|312:136|341:161|382:157,1,183.333333333333,2|0,0:0|0:0,0:0:0:0:
410,138,23969,2,0,P|387:200|398:253,1,110
397,52,24469,5,8,0:0:0:0:
142,55,24635,1,2,0:0:0:0:
102,121,24885,1,2,0:0:0:0:
100,199,25135,1,2,0:0:0:0:
138,269,25385,1,2,0:0:0:0:
148,286,25469,5,8,0:0:0:0:
403,282,25635,1,2,0:0:0:0:
443,216,25885,1,2,0:0:0:0:
445,138,26135,1,2,0:0:0:0:
407,68,26385,1,2,0:0:0:0:
397,52,26469,6,0,P|319:64|233:48,1,146.666666666667,2|0,0:0|0:0,0:0:0:0:
208,114,26719,2,0,P|197:179|202:261,1,146.666666666667,8|0,0:0|0:0,0:0:0:0:
265,296,26969,2,0,P|187:284|101:294,1,146.666666666667
46,293,27219,2,0,P|35:228|44:148,1,146.666666666667,8|0,0:0|0:0,0:0:0:0:
170,77,27469,22,0,P|114:126|12:37,1,220,2|0,0:0|0:0,0:0:0:0:
93,48,27844,1,0,0:0:0:0:
264,135,27969,2,0,L|267:208,1,55,8|0,0:0|0:0,0:0:0:0:
266,189,28469,21,4,0:0:0:0:
48,87,31969,5,2,0:0:0:0:
96,101,32052,1,2,0:0:0:0:
147,103,32135,1,2,0:0:0:0:
197,93,32218,1,4,0:0:0:0:
401,42,32469,6,0,P|396:100|405:194,1,146.666666666667,6|0,0:0|0:0,0:0:0:0:
301,217,32719,2,0,P|235:209|139:222,1,146.666666666667,10|0,0:0|0:0,0:0:0:0:
56,247,32969,1,2,0:0:0:0:
56,247,33219,1,10,0:0:0:0:
79,94,33344,1,2,0:0:0:0:
130,305,33469,21,2,0:0:0:0:
149,51,33594,2,0,P|207:56|261:51,1,110,0|10,0:0|0:0,0:0:0:0:
409,21,33844,1,0,0:0:0:0:
303,132,33969,1,2,0:0:0:0:
303,132,34094,1,0,0:0:0:0:
443,195,34219,2,0,P|438:253|447:344,1,146.666666666667,10|0,0:0|0:0,0:0:0:0:
351,300,34469,38,0,L|198:307,1,146.666666666667,2|0,0:0|0:0,0:0:0:0:
177,134,34719,2,0,P|195:209|168:302,1,146.666666666667,10|0,0:0|0:0,0:0:0:0:
102,342,34969,1,2,0:0:0:0:
102,342,35219,1,8,0:0:0:0:
287,287,35344,1,2,0:0:0:0:
98,257,35469,5,2,0:0:0:0:
348,342,35594,1,2,0:0:0:0:
392,91,35719,2,0,P|363:154|434:235,1,146.666666666667,10|0,0:0|0:0,0:0:0:0:
461,153,35969,2,0,B|381:155|381:187|276:160,1,146.666666666667,2|0,0:0|0:0,0:0:0:0:
249,247,36219,2,0,P|269:184|216:94,1,146.666666666667,10|0,0:0|0:0,0:0:0:0:
166,38,36469,5,4,0:0:0:0:
201,86,38469,5,2,0:0:0:0:
161,199,38594,1,0,0:0:0:0:
225,97,38719,21,10,0:0:0:0:
185,210,38844,1,0,0:0:0:0:
259,107,38969,5,2,0:0:0:0:
219,220,39094,1,0,0:0:0:0:
329,194,39219,1,10,0:0:0:0:
329,194,39344,6,0,B|357:148|339:93|339:93|394:74|394:74|412:10,1,220
428,160,39719,2,0,P|411:220|380:266,1,110,10|0,0:0|0:0,0:0:0:0:
443,165,39969,2,0,P|426:225|395:271,1,110
288,288,40219,1,10,0:0:0:0:
104,48,40469,6,0,P|109:106|101:199,1,146.666666666667,6|0,0:0|0:0,0:0:0:0:
211,217,40719,2,0,P|277:209|375:226,1,146.666666666667,10|0,0:0|0:0,0:0:0:0:
454,250,40969,1,0,0:0:0:0:
454,250,41219,1,10,0:0:0:0:
433,94,41344,1,2,0:0:0:0:
382,305,41469,37,2,0:0:0:0:
363,51,41594,2,0,P|305:56|251:51,1,110,0|10,0:0|0:0,0:0:0:0:
103,21,41844,1,0,0:0:0:0:
209,132,41969,1,2,0:0:0:0:
209,132,42094,1,0,0:0:0:0:
70,196,42219,2,0,P|75:254|59:350,1,146.666666666667,10|0,0:0|0:0,0:0:0:0:
150,287,42469,6,0,L|301:297,1,146.666666666667,2|0,0:0|0:0,0:0:0:0:
335,134,42719,2,0,P|317:209|344:304,1,146.666666666667,10|0,0:0|0:0,0:0:0:0:
406,345,42969,1,2,0:0:0:0:
406,345,43219,1,2,0:0:0:0:
225,287,43344,1,2,0:0:0:0:
414,257,43469,5,2,0:0:0:0:
164,342,43594,1,2,0:0:0:0:
122,88,43719,2,0,P|142:151|88:239,1,146.666666666667,10|0,0:0|0:0,0:0:0:0:
50,153,43969,2,0,B|130:155|130:187|233:158,1,146.666666666667,2|0,0:0|0:0,0:0:0:0:
261,245,44219,2,0,P|241:182|290:97,1,146.666666666667,10|0,0:0|0:0,0:0:0:0:
317,47,44469,21,10,0:0:0:0:
21,222,44719,1,10,0:0:0:0:
206,293,44969,2,0,L|101:290,1,102.666663533529
104,190,45219,2,0,L|208:191,1,102.666663533529
252,105,45469,22,0,P|226:155|274:249,1,153.999995300293,12|0,0:0|0:0,0:0:0:0:
316,169,45844,2,0,P|342:119|294:25,1,153.999995300293,8|4,0:0|0:0,0:0:0:0:
456,165,46344,1,2,0:0:0:0:
456,165,46406,1,2,0:0:0:0:
456,165,46469,5,10,0:0:0:0:
124,246,46719,1,10,0:0:0:0:
321,331,46969,2,0,L|211:327,1,102.666663533529
205,224,47219,2,0,L|313:228,1,102.666663533529
399,277,47469,5,14,0:0:0:0:
411,232,47552,1,2,0:0:0:0:
398,179,47656,1,2,0:0:0:0:
379,149,47719,21,2,0:0:0:0:
372,103,47802,1,2,0:0:0:0:
386,59,47885,1,2,0:0:0:0:
410,19,47969,2,0,B|355:29|355:-3|272:25,1,102.666663533529,2|0,0:0|0:0,0:0:0:0:
45,208,48344,1,2,0:0:0:0:
45,208,48406,1,2,0:0:0:0:
45,208,48469,21,10,0:0:0:0:
377,127,48719,1,10,0:0:0:0:
120,168,48969,1,2,0:0:0:0:
127,218,49052,1,2,0:0:0:0:
112,267,49135,1,2,0:0:0:0:
83,310,49219,21,2,0:0:0:0:
133,302,49302,1,2,0:0:0:0:
180,322,49385,1,2,0:0:0:0:
218,356,49469,6,0,P|280:366|382:356,1,153.999995300293,2|2,0:0|0:0,0:0:0:0:
441,255,49802,1,2,0:0:0:0:
444,242,49885,2,0,P|454:180|444:78,1,153.999995300293
390,34,50219,1,0,0:0:0:0:
339,214,50344,1,2,0:0:0:0:
339,214,50406,1,2,0:0:0:0:
339,214,50469,6,0,P|261:225|192:213,1,146.666666666667
185,76,50719,6,0,P|125:68|54:75,1,102.666663533529,8|0,0:0|0:0,0:0:0:0:
65,61,50969,6,0,P|132:57|223:77,1,146.666666666667,2|0,0:0|0:0,0:0:0:0:
72,158,51219,1,10,0:0:0:0:
79,230,51302,1,2,0:0:0:0:
58,300,51385,1,2,0:0:0:0:
40,348,51469,70,0,P|100:344|168:357,1,102.666663533529,4|0,0:0|0:0,0:0:0:0:
157,342,51719,6,0,P|96:333|7:346,1,146.666666666667,8|0,0:0|0:0,0:0:0:0:
169,162,51969,1,0,0:0:0:0:
326,352,52094,1,0,0:0:0:0:
411,46,52219,1,10,0:0:0:0:
424,117,52302,1,2,0:0:0:0:
392,184,52385,1,2,0:0:0:0:
381,201,52469,6,0,P|437:190|523:232,1,146.666666666667,4|0,0:0|0:0,0:0:0:0:
223,244,52719,2,0,P|167:255|82:219,1,146.666666666667,8|0,0:0|0:0,0:0:0:0:
288,136,52969,2,0,P|277:80|322:7,1,146.666666666667,2|0,0:0|0:0,0:0:0:0:
242,247,53219,1,10,0:0:0:0:
169,253,53302,1,2,0:0:0:0:
100,228,53385,1,2,0:0:0:0:
82,223,53469,22,0,P|93:279|50:364,1,146.666666666667,2|0,0:0|0:0,0:0:0:0:
24,135,53719,2,0,P|13:79|55:0,1,146.666666666667,8|0,0:0|0:0,0:0:0:0:
127,146,53969,2,0,L|277:146,1,146.666666666667,2|0,0:0|0:0,0:0:0:0:
476,225,54219,2,0,L|326:225,1,146.666666666667,8|0,0:0|0:0,0:0:0:0:
274,0,54469,6,0,L|274:158,1,146.666666666667,2|0,0:0|0:0,0:0:0:0:
328,371,54719,2,0,L|329:218,1,146.666666666667,8|0,0:0|0:0,0:0:0:0:
205,349,54969,1,2,0:0:0:0:
274,146,55135,1,2,0:0:0:0:
215,191,55219,1,10,0:0:0:0:
144,210,55302,1,2,0:0:0:0:
72,193,55385,1,2,0:0:0:0:
15,145,55469,21,2,0:0:0:0:
111,54,55635,1,2,0:0:0:0:
130,55,55719,2,0,L|280:56,1,146.666666666667,10|0,0:0|0:0,0:0:0:0:
11,148,55969,2,0,P|15:66|8:0,1,146.666666666667,2|0,0:0|0:0,0:0:0:0:
201,158,56219,2,0,P|202:205|191:307,1,146.666666666667,8|0,0:0|0:0,0:0:0:0:
86,326,56469,6,0,P|150:307|321:351,1,220,2|8,0:0|0:0,0:0:0:0:
452,47,56969,1,2,0:0:0:0:
380,338,57094,1,0,0:0:0:0:
351,168,57219,1,8,0:0:0:0:
467,316,57344,2,0,B|443:257|374:248|374:248|464:203|414:105,1,220
270,133,57719,54,0,L|216:121,1,43.9999986572266,4|0,0:0|0:0,0:0:0:0:
194,201,57969,6,0,L|274:136,1,82.5
309,226,58219,6,0,L|191:213,1,115.49999647522
50,59,58469,5,4,0:0:0:0:
129,263,58594,1,0,0:0:0:0:
170,54,58719,1,8,0:0:0:0:
42,187,58844,1,0,0:0:0:0:
284,57,58969,1,0,0:0:0:0:
221,317,59094,1,2,0:0:0:0:
221,317,59156,1,2,0:0:0:0:
221,317,59219,2,0,P|229:243|208:164,1,146.666666666667,8|0,0:0|0:0,0:0:0:0:
287,14,59469,6,0,P|283:85|300:161,1,146.666666666667,2|0,0:0|0:0,0:0:0:0:
170,54,59719,1,8,0:0:0:0:
370,182,59885,1,0,0:0:0:0:
388,175,59969,2,0,P|444:168|539:176,1,146.666666666667,2|0,0:0|0:0,0:0:0:0:
320,256,60219,2,0,P|263:267|169:264,1,146.666666666667,8|0,0:0|0:0,0:0:0:0:
446,280,60469,5,2,0:0:0:0:
266,136,60594,1,0,0:0:0:0:
263,339,60719,1,8,0:0:0:0:
397,96,60844,1,0,0:0:0:0:
387,368,60969,1,0,0:0:0:0:
148,217,61094,1,2,0:0:0:0:
148,217,61156,1,2,0:0:0:0:
148,217,61219,2,0,P|83:226|3:207,1,146.666666666667,8|0,0:0|0:0,0:0:0:0:
270,234,61469,22,0,P|278:297|251:380,1,146.666666666667,2|0,0:0|0:0,0:0:0:0:
372,246,61719,1,8,0:0:0:0:
204,159,61885,1,0,0:0:0:0:
201,140,61969,2,0,P|201:75|233:-1,1,146.666666666667,2|0,0:0|0:0,0:0:0:0:
432,147,62219,2,0,L|276:167,1,146.666666666667,8|0,0:0|0:0,0:0:0:0:
143,363,62469,6,0,P|150:292|128:208,1,146.666666666667,2|0,0:0|0:0,0:0:0:0:
0,133,62719,2,0,P|85:144|152:135,1,146.666666666667,8|0,0:0|0:0,0:0:0:0:
402,83,62969,2,0,P|319:69|232:91,1,146.666666666667,0|2,0:0|0:0,0:0:0:0:
214,171,63219,2,0,P|221:92|197:25,1,146.666666666667,8|0,0:0|0:0,0:0:0:0:
51,227,63469,6,0,P|40:281|53:375,1,146.666666666667,2|0,0:0|0:0,0:0:0:0:
264,309,63719,2,0,P|191:316|113:289,1,146.666666666667,8|0,0:0|0:0,0:0:0:0:
314,207,63969,2,0,P|397:193|479:215,1,146.666666666667,0|2,0:0|0:0,0:0:0:0:
502,295,64219,2,0,P|495:216|514:145,1,146.666666666667,8|0,0:0|0:0,0:0:0:0:
202,136,64469,6,0,P|214:212|200:274,1,102.666663533529,2|0,0:0|0:0,0:0:0:0:
185,329,64719,1,8,0:0:0:0:
129,126,64969,6,0,P|184:186|211:261,1,146.666666666667,2|0,0:0|0:0,0:0:0:0:
218,346,65219,1,8,0:0:0:0:
63,167,65469,22,0,P|154:202|223:269,1,175.999994628906,2|0,0:0|0:0,0:0:0:0:
256,350,65719,1,8,0:0:0:0:
485,93,65969,1,2,0:0:0:0:
434,103,66052,1,2,0:0:0:0:
383,92,66135,1,2,0:0:0:0:
345,57,66219,5,10,0:0:0:0:
360,128,66302,1,2,0:0:0:0:
338,197,66385,1,2,0:0:0:0:
254,282,66469,6,0,P|332:279|401:298,1,146.666666666667,4|0,0:0|0:0,0:0:0:0:
153,334,66719,2,0,P|75:337|6:318,1,146.666666666667,8|0,0:0|0:0,0:0:0:0:
305,368,66969,1,0,0:0:0:0:
305,368,67094,1,0,0:0:0:0:
124,253,67219,1,8,0:0:0:0:
124,253,67344,1,0,0:0:0:0:
297,161,67469,6,0,L|309:5,1,146.666666666667,2|0,0:0|0:0,0:0:0:0:
398,149,67719,2,0,L|385:312,1,146.666666666667,8|0,0:0|0:0,0:0:0:0:
445,55,67969,1,0,0:0:0:0:
226,212,68135,1,2,0:0:0:0:
209,223,68219,2,0,P|134:239|70:184,1,146.666666666667,8|0,0:0|0:0,0:0:0:0:
144,15,68469,6,0,P|131:68|156:158,1,146.666666666667,2|0,0:0|0:0,0:0:0:0:
404,130,68719,2,0,L|255:134,1,146.666666666667,8|0,0:0|0:0,0:0:0:0:
136,298,68969,2,0,L|299:300,1,146.666666666667
257,133,69219,2,0,P|233:65|267:0,1,146.666666666667,8|0,0:0|0:0,0:0:0:0:
384,0,69469,22,0,P|417:62|394:130,1,146.666666666667,2|0,0:0|0:0,0:0:0:0:
329,216,69719,1,8,0:0:0:0:
257,133,69844,2,0,P|191:142|145:131,1,110
1,248,70135,1,2,0:0:0:0:
18,240,70219,2,0,P|103:229|174:249,1,146.666666666667,8|0,0:0|0:0,0:0:0:0:
236,270,70469,70,0,L|229:328,1,43.9999986572266,2|0,0:0|0:0,0:0:0:0:
308,324,70719,6,0,B|315:235|315:235|265:151,1,146.666666666667,8|0,0:0|0:0,0:0:0:0:
208,148,70969,2,0,P|277:159|343:83,1,146.666666666667,2|0,0:0|0:0,0:0:0:0:
258,76,71219,70,0,L|253:29,1,43.9999986572266,2|0,0:0|0:0,0:0:0:0:
342,32,71469,6,0,P|364:83|427:111,1,102.666663533529,2|0,0:0|0:0,0:0:0:0:
512,192,71719,6,0,P|446:184|365:283,1,175.999994628906,8|0,0:0|0:0,0:0:0:0:
296,230,71969,1,2,0:0:0:0:
245,238,72052,1,2,0:0:0:0:
194,227,72135,1,2,0:0:0:0:
151,196,72219,5,10,0:0:0:0:
174,127,72302,1,2,0:0:0:0:
144,60,72385,1,2,0:0:0:0:
63,40,72469,38,0,L|60:90,1,43.9999986572266,2|0,0:0|0:0,0:0:0:0:
211,320,72719,6,0,P|100:308|8:315,1,175.999994628906,8|0,0:0|0:0,0:0:0:0:
4,310,72969,70,0,L|5:256,1,43.9999986572266,2|0,0:0|0:0,0:0:0:0:
269,211,73219,6,0,P|365:219|478:202,1,175.999994628906,8|0,0:0|0:0,0:0:0:0:
318,77,73469,2,0,P|219:69|121:82,1,175.999994628906,2|0,0:0|0:0,0:0:0:0:
12,173,73719,2,0,L|0:355,1,175.999994628906,8|0,0:0|0:0,0:0:0:0:
162,328,73969,2,0,P|237:305|350:351,1,175.999994628906,2|0,0:0|0:0,0:0:0:0:
480,216,74219,2,0,P|396:239|314:212,1,175.999994628906,8|0,0:0|0:0,0:0:0:0:
104,208,74469,5,14,0:0:0:0:
299,119,74635,5,2,0:0:0:0:
312,163,74719,1,2,0:0:0:0:
110,157,74885,5,10,0:0:0:0:
130,111,74969,1,10,0:0:0:0:
313,211,75135,5,2,0:0:0:0:
299,258,75219,1,2,0:0:0:0:
166,74,75385,21,10,0:0:0:0:
192,40,75469,70,0,P|119:21|20:64,1,183.333333333333,2|0,0:0|0:0,0:0:0:0:
3,110,75969,2,0,L|17:-21,1,110
330,41,76469,6,0,P|408:38|473:60,1,146.666666666667,4|0,0:0|0:0,0:0:0:0:
229,93,76719,2,0,P|151:96|75:73,1,146.666666666667,8|0,0:0|0:0,0:0:0:0:
331,61,76969,2,0,P|409:58|474:80,1,146.666666666667,4|0,0:0|0:0,0:0:0:0:
230,113,77219,2,0,P|152:116|76:93,1,146.666666666667,8|0,0:0|0:0,0:0:0:0:
301,242,77469,22,0,L|288:390,1,146.666666666667,2|0,0:0|0:0,0:0:0:0:
390,232,77719,2,0,L|379:391,1,146.666666666667,8|0,0:0|0:0,0:0:0:0:
387,138,77969,1,0,0:0:0:0:
229,280,78135,1,2,0:0:0:0:
213,290,78219,2,0,P|160:303|84:275,1,110,8|0,0:0|0:0,0:0:0:0:
153,84,78469,6,0,P|134:137|170:226,1,146.666666666667,2|0,0:0|0:0,0:0:0:0:
147,43,78719,2,0,L|-2:49,1,146.666666666667,8|0,0:0|0:0,0:0:0:0:
231,145,78969,2,0,L|383:151,1,146.666666666667
336,41,79219,2,0,L|489:49,1,146.666666666667,8|0,0:0|0:0,0:0:0:0:
426,208,79469,38,0,P|449:142|403:78,1,146.666666666667,2|0,0:0|0:0,0:0:0:0:
363,286,79719,1,8,0:0:0:0:
210,305,79844,2,0,P|141:300|95:304,1,110
11,194,80135,1,2,0:0:0:0:
27,203,80219,2,0,P|85:219|181:203,1,146.666666666667,8|0,0:0|0:0,0:0:0:0:
219,99,80469,70,0,L|214:155,1,43.9999986572266,2|0,0:0|0:0,0:0:0:0:
291,153,80719,6,0,B|298:64|298:64|248:-17,1,146.666666666667,8|0,0:0|0:0,0:0:0:0:
374,57,80969,2,0,L|361:222,1,146.666666666667,2|0,0:0|0:0,0:0:0:0:
438,222,81219,70,0,L|432:271,1,43.9999986572266,2|0,0:0|0:0,0:0:0:0:
372,305,81469,6,0,L|510:316,1,102.666663533529,2|0,0:0|0:0,0:0:0:0:
362,203,81719,6,0,P|282:250|281:344,1,175.999994628906,8|0,0:0|0:0,0:0:0:0:
172,349,81969,1,2,0:0:0:0:
130,335,82052,1,2,0:0:0:0:
88,349,82135,1,0,0:0:0:0:
45,338,82219,1,0,0:0:0:0:
71,95,82469,54,0,L|119:93,1,43.9999986572266,2|0,0:0|0:0,0:0:0:0:
183,148,82719,6,0,L|-20:143,1,175.999994628906,8|0,0:0|0:0,0:0:0:0:
326,208,82969,70,0,L|276:202,1,43.9999986572266,2|0,0:0|0:0,0:0:0:0:
214,261,83219,6,0,L|417:256,1,175.999994628906,8|0,0:0|0:0,0:0:0:0:
77,78,83469,70,0,L|126:75,1,43.9999986572266,2|0,0:0|0:0,0:0:0:0:
189,131,83719,6,0,L|-14:126,1,175.999994628906,8|0,0:0|0:0,0:0:0:0:
332,191,83969,70,0,L|277:188,1,43.9999986572266,2|0,0:0|0:0,0:0:0:0:
220,244,84219,6,0,L|423:239,1,175.999994628906,8|0,0:0|0:0,0:0:0:0:
303,325,84469,6,0,L|142:329,1,146.666666666667,8|0,0:0|0:0,0:0:0:0:
15,331,84719,1,0,0:0:0:0:
15,331,84844,1,0,0:0:0:0:
188,161,84969,2,0,L|350:164,1,146.666666666667,8|0,0:0|0:0,0:0:0:0:
477,167,85219,1,0,0:0:0:0:
477,167,85344,1,0,0:0:0:0:
313,81,85469,6,0,P|260:154|274:234,1,146.666666666667
313,81,85719,6,0,B|225:67|227:99|152:77,1,146.666666666667
369,134,85969,2,0,P|401:223|412:215,1,175.999994628906
107,149,86219,6,0,P|157:63|57:88,1,205.333327067058
39,264,86469,21,10,0:0:0:0:
431,243,86594,1,2,0:0:0:0:
422,207,86844,5,10,0:0:0:0:
30,186,86969,1,2,0:0:0:0:
32,153,87219,5,10,0:0:0:0:
424,132,87344,1,2,0:0:0:0:
424,100,87594,5,10,0:0:0:0:
32,79,87719,1,2,0:0:0:0:
38,35,87969,5,10,0:0:0:0:
431,243,88219,1,10,0:0:0:0:
146,97,88469,22,0,B|132:128|141:160|141:160|167:179|175:200|175:200|150:305|221:360|257:376|323:349|372:237|226:216|251:333,1,440,6|0,0:0|0:0,0:0:0:0:
