osu file format v14

[General]
AudioFilename: audio.mp3
AudioLeadIn: 0
PreviewTime: 5719
Countdown: 0
SampleSet: Soft
StackLeniency: 0.6
Mode: 0
LetterboxInBreaks: 0
WidescreenStoryboard: 1

[Editor]
DistanceSpacing: 0.5
BeatDivisor: 4
GridSize: 16
TimelineZoom: 2.3

[Metadata]
Title:Eyecatch! Too much!
TitleUnicode:Eyecatch! Too much!
Artist:Tomatsu Haruka, Hikasa Yoko, Amamiya Sora
ArtistUnicode:戸松 遥、日笠陽子、雨宮 天
Creator:Lilyanna
Version:Easy
Source:WWW.WORKING!!
Tags:opening tv size WWW.WAGNARIA!! 宮越華 村主さゆり 鎌倉志保 Hana Miyakoshi Sayuri Muranushi Shiho Kamakura SnowNiNo_ -Vanilla _83 DeRandom Otaku
BeatmapID:1399757
BeatmapSetID:655567

[Difficulty]
HPDrainRate:2
CircleSize:2
OverallDifficulty:3
ApproachRate:3
SliderMultiplier:0.9
SliderTickRate:1

[Events]
//Background and Video events
0,0,"12_working!!.jpg",0,0
//Break Periods
2,28669,31028
//Storyboard Layer 0 (Background)
//Storyboard Layer 1 (Fail)
//Storyboard Layer 2 (Pass)
//Storyboard Layer 3 (Foreground)
//Storyboard Sound Samples

[TimingPoints]
469,250,4,2,1,40,1,0
6469,-100,4,2,1,40,0,1
24469,-100,4,2,1,40,0,0
58469,-100,4,2,1,40,0,1
76469,-100,4,2,1,40,0,0

[Colours]
Combo1 : 128,128,128
Combo2 : 255,188,155
Combo3 : 0,106,157
Combo4 : 176,88,0
Combo5 : 255,215,91
Combo6 : 92,46,46

[HitObjects]
385,56,469,6,0,L|395:160,1,90
381,188,969,1,0,0:0:0:0:
301,230,1469,2,0,L|197:240,1,90
169,226,1969,1,0,0:0:0:0:
98,169,2469,6,0,P|101:120|91:64,1,90
128,48,2969,2,0,P|177:51|233:41,1,90
256,192,3469,12,0,4469,0:0:0:0:
395,155,5719,6,0,P|379:215|383:260,2,90
392,109,6469,6,0,L|276:111,1,90
277,72,6969,2,0,L|161:74,1,90
147,94,7469,2,0,P|166:168|141:278,1,180
226,307,8469,6,0,L|342:305,1,90
341,344,8969,2,0,L|457:342,1,90
471,322,9469,2,0,P|452:248|477:138,1,180
400,93,10469,6,0,P|335:102|207:96,1,180
139,136,11469,6,0,P|148:201|142:329,1,180
60,349,12469,5,0,0:0:0:0:
4,278,12969,1,0,0:0:0:0:
52,202,13469,5,0,0:0:0:0:
33,113,13969,2,0,L|28:16,1,90
73,22,14469,6,0,P|128:26|174:21,1,90
205,35,14969,2,0,P|249:31|294:35,1,90
339,43,15469,2,0,P|332:100|379:229,1,180
308,282,16469,6,0,P|253:278|207:283,1,90
176,269,16969,2,0,P|132:273|87:269,1,90
42,261,17469,2,0,P|49:204|2:75,1,180
94,51,18469,6,0,L|195:44,2,90
92,140,19469,2,0,L|193:133,1,90
222,153,19969,2,0,L|323:146,1,90
396,177,20719,5,0,0:0:0:0:
342,249,21219,1,0,0:0:0:0:
407,310,21719,1,0,0:0:0:0:
324,346,22219,1,0,0:0:0:0:
256,192,22469,12,0,23469,0:0:0:0:
85,108,24469,6,0,P|70:166|95:258,1,150
196,252,25469,2,0,P|217:180|202:108,1,150
288,48,26469,6,0,L|395:54,1,90
402,91,26969,2,0,L|509:97,1,90
489,141,27469,2,0,P|469:243|499:331,1,180
405,346,28469,5,0,0:0:0:0:
83,149,32468,6,0,L|81:259,2,90
120,123,33219,2,0,L|229:111,1,90
254,116,33719,2,0,P|244:178|290:291,1,180
326,300,34469,6,0,L|436:298,2,90
191,287,35719,2,0,L|81:285,2,90
212,247,36469,5,0,0:0:0:0:
416,144,40469,6,0,L|418:254,2,90
379,118,41220,2,0,L|270:106,1,90
245,111,41720,2,0,P|255:173|209:286,1,180
173,295,42470,6,0,L|63:293,2,90
308,282,43719,2,0,L|418:280,2,90
279,247,44469,6,0,L|169:249,1,90
88,158,45469,2,0,P|58:229|61:294,1,135
148,355,46469,2,0,L|258:353,1,90
355,287,47469,6,0,L|361:146,1,135
303,54,48469,2,0,L|193:56,1,90
98,127,49469,2,0,L|94:227,1,90
137,228,49969,2,0,L|133:328,1,90
175,333,50469,6,0,P|219:320|368:346,1,180
380,303,51219,2,0,B|393:197|341:197|373:109,1,180
342,88,51969,6,0,B|245:73|245:73|159:83,1,180
123,102,52719,2,0,B|110:208|162:208|130:296,1,180
159,317,53469,6,0,L|250:321,1,90
277,285,53969,2,0,L|368:289,1,90
401,259,54469,2,0,P|405:195|387:159,1,90
351,161,54969,2,0,P|338:118|345:74,1,90
337,29,55469,6,0,L|246:25,1,90
219,61,55969,2,0,L|128:57,1,90
256,192,56469,12,0,57469,0:0:0:0:
120,275,58469,6,0,L|236:273,1,90
235,312,58969,2,0,L|351:310,1,90
366,292,59469,2,0,P|347:218|372:108,1,180
320,40,60469,6,0,L|204:38,1,90
220,82,60969,2,0,L|104:80,1,90
102,115,61469,2,0,P|121:189|96:299,1,180
180,330,62469,6,0,B|270:346|270:346|372:326,1,180
424,269,63469,6,0,P|415:204|421:76,1,180
460,10,64469,5,0,0:0:0:0:
370,17,64969,1,0,0:0:0:0:
319,91,65469,5,0,0:0:0:0:
230,73,65969,2,0,L|133:78,1,90
100,98,66469,6,0,P|96:153|101:199,1,90
128,221,66969,2,0,P|132:265|128:310,1,90
157,344,67469,2,0,P|214:351|357:346,1,180
407,292,68469,6,0,P|411:237|406:191,1,90
367,182,68969,2,0,P|363:138|367:93,1,90
344,53,69469,2,0,P|287:46|161:54,1,180
101,116,70469,6,0,L|108:217,2,90
166,54,71469,2,0,L|267:47,1,90
284,82,71969,2,0,L|385:75,1,90
455,112,72719,5,0,0:0:0:0:
404,186,73219,1,0,0:0:0:0:
351,259,73719,1,0,0:0:0:0:
303,335,74219,1,0,0:0:0:0:
256,192,74469,12,0,75469,0:0:0:0:
85,108,76469,6,0,P|77:165|81:201,1,90
123,210,76969,2,0,P|125:254|118:299,1,90
147,333,77469,2,0,B|236:310|236:347|328:333,1,180
387,268,78469,6,0,L|392:171,1,90
352,155,78969,2,0,L|357:58,1,90
335,25,79469,2,0,P|272:38|152:28,1,180
90,89,80469,6,0,L|79:179,2,90
172,124,81469,2,0,L|183:214,2,90
262,127,82469,6,0,L|273:217,1,90
302,250,82969,2,0,L|404:242,1,90
416,205,83469,2,0,L|405:115,1,90
373,83,83969,2,0,L|283:90,1,90
240,102,84469,6,0,P|170:116|101:104,2,135
283,89,85469,2,0,P|296:140|288:183,1,90
255,204,85969,2,0,P|249:248|262:291,1,90
256,192,86469,12,0,88469,0:0:0:0:
