osu file format v14

[General]
AudioFilename: audio.mp3
AudioLeadIn: 0
PreviewTime: 5719
Countdown: 0
SampleSet: Soft
StackLeniency: 0.2
Mode: 0
LetterboxInBreaks: 0
WidescreenStoryboard: 1

[Editor]
Bookmarks: 32469,40469,55719,58469
DistanceSpacing: 1
BeatDivisor: 3
GridSize: 8
TimelineZoom: 2.3

[Metadata]
Title:Eyecatch! Too much!
TitleUnicode:Eyecatch! Too much!
Artist:Tomatsu Haruka, Hikasa Yoko, Amamiya Sora
ArtistUnicode:戸松 遥、日笠陽子、雨宮 天
Creator:Lilyanna
Version:-Vanilla's Another
Source:WWW.WORKING!!
Tags:opening tv size WWW.WAGNARIA!! 宮越華 村主さゆり 鎌倉志保 Hana Miyakoshi Sayuri Muranushi Shiho Kamakura SnowNiNo_ -Vanilla _83 DeRandom Otaku
BeatmapID:1396871
BeatmapSetID:655567

[Difficulty]
HPDrainRate:6.2
CircleSize:4.2
OverallDifficulty:8.2
ApproachRate:9.2
SliderMultiplier:2.1
SliderTickRate:1

[Events]
//Background and Video events
0,0,"12_working!!.jpg",0,0
//Break Periods
2,28669,31565
2,36669,39899
//Storyboard Layer 0 (Background)
//Storyboard Layer 1 (Fail)
//Storyboard Layer 2 (Pass)
//Storyboard Layer 3 (Foreground)
//Storyboard Sound Samples

[TimingPoints]
469,250,4,2,1,40,1,0
2469,-200,4,2,1,40,0,0
3469,-100,4,2,1,40,0,0
5719,-400,4,2,1,40,0,0
6469,-133.333333333333,4,2,1,40,0,1
6719,-100,4,2,1,40,0,1
8469,-133.333333333333,4,2,1,40,0,1
8719,-100,4,2,1,40,0,1
16469,-133.333333333333,4,2,1,40,0,1
16719,-100,4,2,1,40,0,1
24469,-100,4,2,1,40,0,0
32218,-133.333333333333,4,2,1,40,0,0
57719,-400,4,2,1,40,0,0
58469,-133.333333333333,4,2,1,40,0,1
58719,-100,4,2,1,40,0,1
60469,-133.333333333333,4,2,1,40,0,1
60719,-100,4,2,1,40,0,1
76469,-100,4,2,1,40,0,0

[Colours]
Combo1 : 128,128,128
Combo2 : 255,188,155
Combo3 : 0,106,157
Combo4 : 176,88,0
Combo5 : 255,215,91
Combo6 : 92,46,46

[HitObjects]
147,117,469,5,8,0:0:0:0:
147,117,1469,5,8,0:0:0:0:
147,116,2469,6,0,P|196:100|247:107,1,105,8|0,0:0|0:0,0:0:0:0:
146,117,2969,2,0,P|97:133|46:126,1,105,8|0,0:0|0:0,0:0:0:0:
147,117,3469,6,0,P|227:133|301:104,1,140,8|0,0:0|0:0,0:0:0:0:
415,116,3719,2,0,P|348:99|281:116,1,140,8|0,0:0|0:0,0:0:0:0:
147,117,3969,2,0,P|214:100|281:117,1,140,8|0,0:0|0:0,0:0:0:0:
415,116,4219,2,0,P|348:133|281:117,1,140,8|0,0:0|0:0,0:0:0:0:
273,119,5719,6,0,L|268:179,2,52.5,2|2|2,0:0|0:0|0:0,0:0:0:0:
146,287,6469,6,0,P|154:247|151:208,1,78.7500030040742,4|0,0:0|0:0,0:0:0:0:
22,90,6719,2,0,B|49:127|101:139|101:139|85:97,1,105,8|0,0:0|0:0,0:0:0:0:
268,171,6969,5,2,0:0:0:0:
271,83,7094,1,2,0:0:0:0:
271,83,7156,1,2,0:0:0:0:
271,83,7219,2,0,B|224:88|188:126|188:126|232:134,1,105,8|0,0:0|0:0,0:0:0:0:
205,342,7469,6,0,B|214:361|214:361|232:328|238:247,1,140,2|0,0:3|0:3,0:3:0:0:
199,129,7719,1,8,0:0:0:0:
312,235,7885,2,0,B|393:246|429:235|429:235|408:218,1,140
411,221,8135,1,2,0:0:0:0:
427,309,8219,1,8,0:0:0:0:
470,162,8469,6,0,P|423:142|372:154,1,78.7500030040742,4|0,0:0|0:0,0:0:0:0:
215,291,8719,2,0,B|255:260|265:225|265:225|226:236,1,105,8|0,0:0|0:0,0:0:0:0:
282,157,8969,5,2,0:0:0:0:
208,24,9094,1,0,0:0:0:0:
208,24,9156,1,0,0:0:0:0:
208,24,9219,2,0,B|214:74|239:100|239:100|250:61,1,105,8|0,0:0|0:0,0:0:0:0:
469,162,9469,6,0,B|407:172|351:144|351:144|390:121,1,140
367,134,9719,1,8,0:0:0:0:
105,138,9885,2,0,B|88:147|88:147|144:175|206:165,1,140
206,165,10135,1,2,0:0:0:0:
161,99,10219,1,8,0:0:0:0:
80,295,10469,6,0,P|151:285|235:301,1,140,4|0,0:0|0:0,0:0:0:0:
105,206,10719,1,8,0:0:0:0:
80,295,10885,1,2,0:0:0:0:
80,295,10969,6,0,P|151:305|235:289,1,140,2|2,0:0|0:0,0:0:0:0:
105,384,11219,1,8,0:0:0:0:
80,295,11385,1,0,0:0:0:0:
80,295,11469,6,0,P|151:305|235:289,1,140,2|0,0:0|0:0,0:0:0:0:
218,295,11719,2,0,P|149:284|80:295,1,140,8|0,0:0|0:0,0:0:0:0:
80,294,11969,1,0,0:0:0:0:
299,321,12135,1,2,0:0:0:0:
376,347,12219,2,0,B|438:365|478:351|478:351|406:306,1,140,8|0,0:0|0:0,0:0:0:0:
334,216,12469,5,2,0:0:0:0:
406,34,12719,2,0,P|422:101|396:165,1,140,8|0,0:0|0:0,0:0:0:0:
334,216,12969,5,2,0:0:0:0:
406,34,13219,2,0,P|422:101|396:165,1,140,8|0,0:0|0:0,0:0:0:0:
334,216,13469,5,2,0:0:0:0:
406,34,13719,2,0,P|422:101|396:165,1,140,8|0,0:0|0:0,0:0:0:0:
222,203,13969,5,8,0:0:0:0:
256,199,14052,1,8,0:0:0:0:
291,195,14135,1,8,0:0:0:0:
334,216,14219,5,8,0:0:0:0:
368,212,14302,1,8,0:0:0:0:
403,208,14385,1,8,0:0:0:0:
450,169,14469,5,2,0:0:0:0:
436,306,14635,1,2,0:0:0:0:
436,306,14719,2,0,P|456:222|440:135,1,140,8|0,0:0|0:0,0:0:0:0:
389,36,14969,1,2,0:0:0:0:
258,125,15094,1,2,0:0:0:0:
258,125,15156,1,2,0:0:0:0:
258,125,15219,2,0,B|301:105|363:112|363:112|340:137,1,140,8|0,0:0|0:0,0:0:0:0:
184,162,15469,5,2,0:0:0:0:
121,310,15594,2,0,B|131:342|131:342|168:292|171:245,1,140,0|10,0:0|0:0,0:0:0:0:
184,162,15885,1,0,0:0:0:0:
258,125,15969,2,0,B|301:105|363:112|363:112|340:137,1,140,2|0,0:0|0:0,0:0:0:0:
124,105,16218,2,0,B|86:80|61:23|61:23|95:31,1,140,8|0,0:0|0:0,0:0:0:0:
334,139,16469,6,0,P|292:125|233:131,1,78.7500030040742,4|0,0:0|0:0,0:0:0:0:
160,327,16719,2,0,B|193:299|212:258|212:258|162:265,1,105,8|0,0:0|0:0,0:0:0:0:
194,181,16969,1,2,0:0:0:0:
84,82,17094,1,2,0:0:0:0:
84,82,17156,1,2,0:0:0:0:
84,82,17219,2,0,B|90:124|117:161|117:161|136:114,1,105,8|0,0:0|0:0,0:0:0:0:
437,290,17469,5,2,0:0:0:0:
321,259,17635,2,0,P|280:252|245:226,1,70,0|8,0:0|0:0,0:0:0:0:
37,191,17885,2,0,P|144:165|223:104,1,210,0|2,0:0|0:0,0:0:0:0:
405,68,18219,2,0,P|298:42|229:-11,1,140,8|0,0:0|0:0,0:0:0:0:
273,27,18469,5,2,0:0:0:0:
280,271,18719,2,0,L|300:131,1,140,8|0,0:0|0:0,0:0:0:0:
273,27,18969,5,2,0:0:0:0:
280,271,19135,1,2,0:0:0:0:
280,271,19219,2,0,L|300:131,1,140,8|0,0:0|0:0,0:0:0:0:
273,27,19469,5,2,0:0:0:0:
280,271,19719,2,0,L|300:131,1,140,8|0,0:0|0:0,0:0:0:0:
88,107,19969,5,8,0:0:0:0:
90,141,20052,1,8,0:0:0:0:
93,176,20135,1,8,0:0:0:0:
113,199,20219,5,8,0:0:0:0:
110,233,20302,1,8,0:0:0:0:
107,268,20385,1,8,0:0:0:0:
127,290,20469,5,2,0:0:0:0:
419,266,20635,1,2,0:0:0:0:
419,266,20719,2,0,L|261:271,1,140,8|0,0:0|0:0,0:0:0:0:
174,158,20969,5,2,0:0:0:0:
466,182,21135,1,2,0:0:0:0:
466,182,21219,2,0,L|308:177,1,140,8|0,0:0|0:0,0:0:0:0:
127,290,21469,5,2,0:0:0:0:
419,266,21635,1,2,0:0:0:0:
419,266,21719,2,0,L|261:271,1,140,8|0,0:0|0:0,0:0:0:0:
174,158,21969,5,2,0:0:0:0:
466,182,22135,1,2,0:0:0:0:
466,182,22219,2,0,L|308:177,1,140,8|0,0:0|0:0,0:0:0:0:
127,290,22469,6,0,P|201:304|282:285,1,140,8|2,0:0|0:0,0:0:0:0:
404,80,22719,2,0,P|330:66|247:89,1,140,8|2,0:0|0:0,0:0:0:0:
267,79,22969,1,0,0:0:0:0:
367,176,23136,5,8,0:0:0:0:
232,203,23219,1,8,0:0:0:0:
484,250,23386,5,8,0:0:0:0:
358,304,23469,1,8,0:0:0:0:
141,140,24469,6,0,L|115:301,1,140
118,278,24885,1,0,0:0:0:0:
118,278,25135,1,0,0:0:0:0:
243,92,25385,1,0,0:0:0:0:
243,92,25469,6,0,L|217:253,1,140
220,230,25885,1,0,0:0:0:0:
220,230,26135,1,0,0:0:0:0:
345,44,26385,1,0,0:0:0:0:
345,44,26469,6,0,L|319:205,1,140
152,218,26719,1,0,0:0:0:0:
186,224,26802,1,0,0:0:0:0:
220,230,26885,1,0,0:0:0:0:
220,230,26969,6,0,L|246:69,1,140
413,56,27219,1,0,0:0:0:0:
379,50,27302,1,0,0:0:0:0:
345,44,27385,1,0,0:0:0:0:
345,44,27469,5,0,0:0:0:0:
322,182,27719,1,0,0:0:0:0:
299,320,27969,1,0,0:0:0:0:
299,320,28469,5,0,0:0:0:0:
376,216,32135,5,0,0:0:0:0:
376,216,32218,2,0,L|352:330,1,105.000004005432
408,72,32469,5,0,0:0:0:0:
264,37,32719,1,0,0:0:0:0:
231,183,32969,1,0,0:0:0:0:
376,216,33219,1,0,0:0:0:0:
376,216,33302,2,0,L|262:192,1,105.000004005432
102,190,33635,6,0,P|86:247|90:294,1,105.000004005432
206,201,33969,1,0,0:0:0:0:
102,190,34094,1,0,0:0:0:0:
206,201,34219,2,0,P|222:144|218:97,1,105.000004005432
102,190,34469,2,0,P|86:247|90:294,1,105.000004005432
338,275,34719,5,0,0:0:0:0:
373,131,34969,1,0,0:0:0:0:
227,98,35219,1,0,0:0:0:0:
227,98,35302,2,0,L|203:212,1,105.000004005432
186,306,35719,5,0,0:0:0:0:
65,120,35969,1,0,0:0:0:0:
249,0,36219,1,0,0:0:0:0:
370,185,36469,1,0,0:0:0:0:
58,141,40469,5,0,0:0:0:0:
23,285,40719,1,0,0:0:0:0:
169,318,40969,1,0,0:0:0:0:
202,173,41219,5,0,0:0:0:0:
202,173,41302,2,0,L|178:287,1,105.000004005432
432,201,41594,6,0,B|353:173|293:180|293:180|323:200,1,157.500006008148
376,108,41969,1,0,0:0:0:0:
346,260,42094,1,0,0:0:0:0:
432,201,42219,1,0,0:0:0:0:
413,321,42344,1,0,0:0:0:0:
471,272,42469,2,0,B|484:280|484:280|424:287|345:259,1,157.500006008148
68,160,42969,1,0,0:0:0:0:
226,153,43219,5,0,0:0:0:0:
68,160,43344,1,0,0:0:0:0:
226,153,43594,5,0,0:0:0:0:
68,160,43719,1,0,0:0:0:0:
226,153,43969,5,0,0:0:0:0:
173,155,44052,1,0,0:0:0:0:
121,158,44135,1,0,0:0:0:0:
68,160,44219,1,0,0:0:0:0:
11,266,44469,5,0,0:0:0:0:
307,232,44719,1,0,0:0:0:0:
358,175,45469,6,0,P|381:129|356:9,1,157.500006008148
323,306,45844,2,0,B|340:354|390:376,1,78.7500030040742
234,211,46094,2,0,B|183:201|150:222|150:222|197:235,1,118.125004506111
181,230,46344,1,0,0:0:0:0:
56,176,46469,5,0,0:0:0:0:
307,232,46719,1,0,0:0:0:0:
348,164,47469,5,0,0:0:0:0:
356,145,47552,1,0,0:0:0:0:
360,124,47635,1,0,0:0:0:0:
360,102,47719,2,0,P|361:73|324:14,2,78.7500030040742
241,293,48094,2,0,B|233:327|269:375|269:375|278:326,1,118.125004506111
274,346,48344,1,0,0:0:0:0:
160,333,48469,5,0,0:0:0:0:
479,380,48719,1,0,0:0:0:0:
485,227,48969,5,0,0:0:0:0:
466,217,49052,1,0,0:0:0:0:
445,212,49135,1,0,0:0:0:0:
423,211,49219,1,0,0:0:0:0:
402,215,49302,1,0,0:0:0:0:
382,222,49385,1,0,0:0:0:0:
364,233,49469,6,0,B|319:265|279:252|279:252|302:225,1,105.000004005432
201,273,49719,1,0,0:0:0:0:
38,319,49844,6,0,B|83:287|123:300|123:300|100:327,1,105.000004005432
201,273,50094,1,0,0:0:0:0:
124,199,50219,1,0,0:0:0:0:
171,103,50344,1,0,0:0:0:0:
65,111,50469,5,0,0:0:0:0:
230,191,50594,1,0,0:0:0:0:
395,111,50719,2,0,P|329:102|288:112,1,78.7500030040742
296,293,50969,2,0,P|362:302|403:292,1,78.7500030040742
230,191,51219,5,0,0:0:0:0:
230,191,51302,1,0,0:0:0:0:
230,191,51385,1,0,0:0:0:0:
230,191,51469,2,0,L|139:180,1,78.7500030040742
416,214,51719,2,0,L|507:225,1,78.7500030040742
322,112,51969,5,0,0:0:0:0:
296,293,52094,1,0,0:0:0:0:
416,214,52219,5,0,0:0:0:0:
416,214,52302,1,0,0:0:0:0:
416,214,52385,1,0,0:0:0:0:
416,214,52469,2,0,L|507:225,1,78.7500030040742
296,293,52719,5,0,0:0:0:0:
322,112,52844,1,0,0:0:0:0:
156,186,52969,2,0,P|140:226|145:271,1,78.7500030040742
322,112,53219,2,0,P|338:72|333:27,1,78.7500030040742
156,186,53469,6,0,B|120:235|161:310|161:310|186:275,1,157.500006008148
298,219,53844,1,0,0:0:0:0:
213,120,53969,2,0,P|158:98|106:115,1,78.7500030040742
243,285,54219,2,0,P|298:307|350:290,1,78.7500030040742
104,193,54469,6,0,P|53:186|-4:200,1,105.000004005432
298,219,54719,2,0,P|349:226|406:212,1,105.000004005432
243,285,54969,5,0,0:0:0:0:
160,84,55135,5,0,0:0:0:0:
160,84,55219,2,0,L|169:163,1,52.5000020027161
261,31,55385,5,0,0:0:0:0:
261,31,55469,2,0,L|270:110,1,52.5000020027161
104,193,55635,5,0,0:0:0:0:
104,193,55719,2,0,L|113:272,1,52.5000020027161
205,140,55885,5,0,0:0:0:0:
205,140,55969,2,0,L|214:219,1,52.5000020027161
298,346,56135,5,0,0:0:0:0:
374,316,56219,1,0,0:0:0:0:
340,276,56302,1,0,0:0:0:0:
290,265,56385,1,0,0:0:0:0:
243,285,56469,5,0,0:0:0:0:
436,204,56719,1,0,0:0:0:0:
238,283,56969,5,0,0:0:0:0:
436,204,57135,1,0,0:0:0:0:
436,204,57385,5,0,0:0:0:0:
308,98,57719,6,0,L|301:155,2,52.5
265,357,58469,6,0,P|294:309|299:266,1,78.7500030040742
38,304,58719,2,0,B|63:353|97:366|97:366|101:338,1,105
172,264,58969,5,0,0:0:0:0:
197,135,59094,1,0,0:0:0:0:
197,135,59156,1,0,0:0:0:0:
197,135,59219,2,0,B|145:137|113:157|113:157|134:173,1,105
363,206,59469,6,0,B|431:219|478:207|478:207|443:180,1,140
299,139,59719,1,0,0:0:0:0:
262,361,59885,2,0,P|277:281|271:202,1,140
274,222,60135,1,0,0:0:0:0:
194,259,60219,1,0,0:0:0:0:
81,44,60469,6,0,P|80:87|104:126,1,78.7500030040742
274,222,60719,2,0,B|258:181|209:161|209:161|215:184,1,105
135,181,60969,5,0,0:0:0:0:
29,280,61094,1,0,0:0:0:0:
29,280,61156,1,0,0:0:0:0:
29,280,61219,2,0,B|72:286|113:254|113:254|90:248,1,105
367,361,61469,6,0,P|294:333|243:264,1,140
227,137,61719,1,0,0:0:0:0:
29,280,61885,2,0,P|100:265|151:190,1,140
142,214,62135,1,0,0:0:0:0:
171,301,62219,1,0,0:0:0:0:
448,231,62469,6,0,P|370:218|302:226,1,140
229,237,62719,1,0,0:0:0:0:
370,74,62885,1,0,0:0:0:0:
370,74,62969,6,0,P|305:119|263:173,1,140
229,237,63219,1,0,0:0:0:0:
200,24,63385,1,0,0:0:0:0:
200,24,63469,6,0,P|186:102|195:170,1,140
193,162,63719,2,0,P|206:84|198:16,1,140
229,237,63969,2,0,P|290:287|352:314,1,140
150,230,64218,2,0,P|75:257|21:298,1,140
193,162,64468,5,0,0:0:0:0:
436,144,64635,1,0,0:0:0:0:
436,144,64718,2,0,B|367:131|327:148|327:148|369:166,1,140
193,162,64968,5,0,0:0:0:0:
436,144,65135,1,0,0:0:0:0:
436,144,65218,2,0,B|367:131|327:148|327:148|369:166,1,140
193,162,65468,5,0,0:0:0:0:
436,144,65635,1,0,0:0:0:0:
436,144,65718,2,0,B|367:131|327:148|327:148|369:166,1,140
451,291,65969,5,0,0:0:0:0:
416,289,66052,1,0,0:0:0:0:
381,287,66135,1,0,0:0:0:0:
347,297,66219,5,0,0:0:0:0:
312,295,66302,1,0,0:0:0:0:
277,293,66385,1,0,0:0:0:0:
247,303,66469,6,0,B|282:250|282:190|282:190|244:202,1,140
34,264,66719,2,0,B|62:320|114:350|114:350|122:311,1,140
73,138,66969,5,0,0:0:0:0:
174,99,67135,1,0,0:0:0:0:
174,99,67219,2,0,B|110:95|58:125|58:125|88:152,1,140
267,182,67469,5,0,0:0:0:0:
371,2,67635,1,0,0:0:0:0:
371,2,67719,2,0,P|354:84|359:164,1,140
380,288,67969,1,0,0:0:0:0:
267,182,68135,1,0,0:0:0:0:
267,182,68219,2,0,P|185:165|105:170,1,140
380,288,68469,5,0,0:0:0:0:
457,120,68635,1,0,0:0:0:0:
457,120,68719,2,0,B|457:185|440:230|440:230|410:150,1,140
344,14,68969,5,0,0:0:0:0:
267,182,69135,1,0,0:0:0:0:
267,182,69219,2,0,B|267:117|284:72|284:72|314:152,1,140
380,288,69469,5,0,0:0:0:0:
167,292,69635,2,0,P|236:321|262:354,1,70
469,157,69885,2,0,P|392:183|283:285,1,210
80,99,70219,2,0,P|144:138|183:191,1,140
183,190,70469,5,0,0:0:0:0:
296,12,70719,2,0,P|268:82|270:152,1,140
268,145,70969,2,0,P|296:75|294:5,1,140
295,11,71219,5,0,0:0:0:0:
146,302,71469,1,0,0:0:0:0:
146,302,71719,2,0,P|146:232|173:168,1,140
173,168,71969,1,0,0:0:0:0:
175,214,72052,1,0,0:0:0:0:
166,260,72135,1,0,0:0:0:0:
145,301,72219,1,0,0:0:0:0:
183,276,72302,1,0,0:0:0:0:
228,261,72385,1,0,0:0:0:0:
274,258,72468,5,0,0:0:0:0:
483,322,72635,1,0,0:0:0:0:
483,322,72719,2,0,P|466:232|499:123,1,140
274,258,72969,5,0,0:0:0:0:
65,322,73136,1,0,0:0:0:0:
65,322,73220,2,0,P|82:232|49:123,1,140
274,258,73469,5,0,0:0:0:0:
483,322,73636,1,0,0:0:0:0:
483,322,73720,2,0,P|466:232|499:123,1,140
274,258,73970,5,0,0:0:0:0:
65,322,74135,1,0,0:0:0:0:
65,322,74219,2,0,P|82:232|49:123,1,140
128,14,74469,6,0,P|196:55|231:108,1,140
400,89,74719,2,0,P|332:130|297:183,1,140
298,179,74969,1,0,0:0:0:0:
146,225,75135,5,0,0:0:0:0:
227,290,75219,1,0,0:0:0:0:
368,321,75385,5,0,0:0:0:0:
277,380,75469,1,0,0:0:0:0:
236,234,76469,5,0,0:0:0:0:
329,163,76635,1,0,0:0:0:0:
329,163,76719,2,0,B|210:157|210:157|237:115,1,140
222,140,76969,5,0,0:0:0:0:
125,74,77135,1,0,0:0:0:0:
125,74,77219,2,0,B|244:68|244:68|217:26,1,140
232,50,77469,5,0,0:0:0:0:
236,234,77635,2,0,B|73:254|73:254|107:220,1,210
329,163,77969,2,0,B|429:156|429:156|365:126,1,140
222,140,78219,2,0,P|148:120|78:148,1,140
75,258,78469,5,0,0:0:0:0:
153,334,78635,1,0,0:0:0:0:
153,334,78719,2,0,B|166:260|166:260|155:188,1,140
410,225,78969,5,0,0:0:0:0:
332,301,79135,1,0,0:0:0:0:
332,301,79219,2,0,B|319:227|319:227|330:155,1,140
295,85,79469,5,0,0:0:0:0:
99,132,79635,2,0,B|138:132|138:132|195:158|195:158|292:159,1,140
100,209,79885,2,0,B|-5:210|-5:210|21:181,1,140
103,289,80135,1,0,0:0:0:0:
103,289,80219,2,0,B|208:288|208:288|182:317,1,140
404,291,80469,5,0,0:0:0:0:
466,156,80719,2,0,L|290:159,1,140
326,158,80969,1,0,0:0:0:0:
195,170,81219,5,0,0:0:0:0:
404,291,81469,1,0,0:0:0:0:
466,156,81719,2,0,L|290:159,1,140
233,242,81969,1,0,0:0:0:0:
267,242,82052,1,0,0:0:0:0:
301,242,82135,1,0,0:0:0:0:
323,268,82219,2,0,L|147:271,1,140
21,276,82469,5,0,0:0:0:0:
110,78,82719,2,0,P|114:162|104:226,1,140
21,276,82969,5,0,0:0:0:0:
179,98,83219,2,0,P|140:172|99:223,1,140
21,276,83469,5,0,0:0:0:0:
228,149,83719,2,0,P|157:194|96:217,1,140
21,276,83969,5,0,0:0:0:0:
244,219,84219,2,0,P|160:223|96:212,1,140
297,86,84469,5,0,0:0:0:0:
416,190,84719,2,0,L|406:250,2,52.5
330,176,84969,5,0,0:0:0:0:
211,280,85219,2,0,L|221:340,2,52.5
0,246,85469,6,0,P|77:219|126:157,1,140,0|0,0:0|0:0,0:0:0:0:
231,111,85719,2,0,P|164:129|114:178,1,140,0|0,0:0|0:0,0:0:0:0:
0,246,85969,2,0,P|49:197|116:179,1,140
231,111,86219,2,0,P|181:159|115:178,1,140,0|0,0:0|0:0,0:0:0:0:
169,346,86469,5,0,0:0:0:0:
169,346,86594,1,0,0:0:0:0:
341,277,86844,5,0,0:0:0:0:
341,277,86969,1,0,0:0:0:0:
197,193,87219,5,0,0:0:0:0:
197,193,87344,1,0,0:0:0:0:
304,104,87594,5,0,0:0:0:0:
304,104,87719,1,0,0:0:0:0:
224,19,87969,5,0,0:0:0:0:
84,181,88219,1,0,0:0:0:0:
159,359,88469,2,0,B|281:324|357:368|357:368|432:369|446:294|446:294|400:323|347:315,1,420
