osu file format v14

[General]
AudioFilename: audio.mp3
AudioLeadIn: 0
PreviewTime: 57733
Countdown: 0
SampleSet: Normal
StackLeniency: 0.7
Mode: 1
LetterboxInBreaks: 0
WidescreenStoryboard: 1

[Editor]
Bookmarks: 6478,14478,24478,28478,32477,36478,40478,44478,50478,58478,66478,76478,80478,84478,88478,92478,96478,102478,110478,118478,128477,136478,144478,148478,158478,160478,162478,166478,176478,186478,188478,192478
DistanceSpacing: 0.8
BeatDivisor: 6
GridSize: 4
TimelineZoom: 2.4

[Metadata]
Title:Eyecatch! Too Much!
TitleUnicode:Eyecatch! Too Much!
Artist:Tomatsu Haruka, Hikasa Yoko, Amamiya Sora
ArtistUnicode:戸松 遥、日笠陽子、雨宮 天
Creator:Volta
Version:Oni
Source:WWW.WORKING!!
Tags:taiko opening full WWW.WAGNARIA!! 宮越華 村主さゆり 鎌倉志保 Hana Miyakoshi Sayuri Muranushi Shiho Kamakura JUDYDANNY Nishizumi
BeatmapID:1187765
BeatmapSetID:554873

[Difficulty]
HPDrainRate:5.5
CircleSize:6
OverallDifficulty:5.5
ApproachRate:6
SliderMultiplier:1.4
SliderTickRate:3

[Events]
//Background and Video events
0,0,"work.jpg",0,70
//Break Periods
//Storyboard Layer 0 (Background)
//Storyboard Layer 1 (Fail)
//Storyboard Layer 2 (Pass)
//Storyboard Layer 3 (Foreground)
//Storyboard Sound Samples

[TimingPoints]
515,250,4,1,0,90,1,0
6515,-100,4,1,0,90,0,1
24515,-100,4,1,0,90,0,0
58515,-100,4,1,0,90,0,1
76515,-100,4,1,0,90,0,0
110515,-100,4,1,0,90,0,1
128514,-100,4,1,0,90,0,0
162515,-100,4,1,0,90,0,1
176515,-100,4,1,0,90,0,0

[HitObjects]
220,188,515,5,4,0:0:0:0:
260,148,1015,1,8,0:0:0:0:
220,188,1515,1,4,0:0:0:0:
260,148,2015,1,8,0:0:0:0:
220,188,2515,1,4,0:0:0:0:
264,140,2765,1,8,0:0:0:0:
260,144,2890,1,8,0:0:0:0:
260,148,3015,1,4,0:0:0:0:
264,140,3265,1,8,0:0:0:0:
260,144,3390,1,8,0:0:0:0:
260,148,3515,1,4,0:0:0:0:
260,148,3765,1,4,0:0:0:0:
260,148,4015,1,4,0:0:0:0:
260,148,4265,1,4,0:0:0:0:
260,148,4515,1,8,0:0:0:0:
248,144,4931,1,8,0:0:0:0:
244,224,5181,1,8,0:0:0:0:
236,232,5431,1,8,0:0:0:0:
236,232,5515,1,0,0:0:0:0:
236,232,5765,1,0,0:0:0:0:
236,232,6015,1,0,0:0:0:0:
260,192,6515,1,8,0:0:0:0:
248,136,6640,1,0,0:0:0:0:
224,136,6765,1,8,0:0:0:0:
188,144,6890,1,8,0:0:0:0:
228,136,7015,1,0,0:0:0:0:
188,176,7140,1,0,0:0:0:0:
156,172,7265,1,8,0:0:0:0:
160,176,7390,1,0,0:0:0:0:
144,172,7515,1,8,0:0:0:0:
220,124,7640,1,0,0:0:0:0:
200,184,7702,1,0,0:0:0:0:
148,152,7765,1,8,0:0:0:0:
144,156,7890,1,8,0:0:0:0:
200,140,8015,1,0,0:0:0:0:
200,140,8265,1,8,0:0:0:0:
160,192,8515,1,0,0:0:0:0:
164,196,8640,1,8,0:0:0:0:
168,204,8765,1,0,0:0:0:0:
276,188,8890,1,0,0:0:0:0:
280,188,9015,1,8,0:0:0:0:
176,148,9140,1,0,0:0:0:0:
176,148,9265,1,8,0:0:0:0:
176,148,9390,1,0,0:0:0:0:
176,148,9515,1,8,0:0:0:0:
124,120,9640,1,8,0:0:0:0:
176,180,9702,1,8,0:0:0:0:
124,120,9765,1,0,0:0:0:0:
128,120,9890,1,0,0:0:0:0:
136,120,10015,1,8,0:0:0:0:
196,184,10265,1,0,0:0:0:0:
156,216,10515,1,8,0:0:0:0:
64,168,10640,1,0,0:0:0:0:
64,168,10765,1,8,0:0:0:0:
64,168,10890,1,8,0:0:0:0:
212,132,11015,1,0,0:0:0:0:
140,124,11265,1,8,0:0:0:0:
276,120,11390,1,0,0:0:0:0:
184,144,11515,1,8,0:0:0:0:
184,144,11640,1,0,0:0:0:0:
184,144,11765,1,8,0:0:0:0:
184,144,11890,1,8,0:0:0:0:
184,144,12015,1,0,0:0:0:0:
196,160,12181,1,0,0:0:0:0:
196,160,12265,1,8,0:0:0:0:
196,160,12390,1,0,0:0:0:0:
168,148,12515,1,0,0:0:0:0:
280,196,12765,1,12,0:0:0:0:
280,196,13015,1,0,0:0:0:0:
328,244,13265,1,12,0:0:0:0:
328,244,13515,1,0,0:0:0:0:
328,252,13765,1,12,0:0:0:0:
228,96,14015,1,8,0:0:0:0:
228,96,14098,1,8,0:0:0:0:
228,96,14181,1,8,0:0:0:0:
228,96,14265,1,0,0:0:0:0:
128,148,14348,1,0,0:0:0:0:
260,192,14515,1,8,0:0:0:0:
248,136,14640,1,0,0:0:0:0:
224,136,14765,1,8,0:0:0:0:
188,144,14890,1,8,0:0:0:0:
228,136,15015,1,0,0:0:0:0:
188,176,15140,1,0,0:0:0:0:
156,172,15265,1,8,0:0:0:0:
160,176,15390,1,0,0:0:0:0:
144,172,15515,1,8,0:0:0:0:
220,124,15640,1,0,0:0:0:0:
200,184,15702,1,0,0:0:0:0:
148,152,15765,1,8,0:0:0:0:
144,156,15890,1,8,0:0:0:0:
200,140,16015,1,0,0:0:0:0:
200,140,16265,1,8,0:0:0:0:
160,192,16515,1,0,0:0:0:0:
164,196,16640,1,8,0:0:0:0:
168,204,16765,1,0,0:0:0:0:
276,188,16890,1,0,0:0:0:0:
280,188,17015,1,8,0:0:0:0:
176,148,17140,1,0,0:0:0:0:
176,148,17265,1,8,0:0:0:0:
176,148,17390,1,0,0:0:0:0:
176,148,17515,1,8,0:0:0:0:
124,120,17640,1,8,0:0:0:0:
176,180,17702,1,8,0:0:0:0:
124,120,17765,1,0,0:0:0:0:
128,120,17890,1,0,0:0:0:0:
136,120,18015,1,8,0:0:0:0:
196,184,18265,1,0,0:0:0:0:
156,216,18515,1,0,0:0:0:0:
256,236,18765,1,12,0:0:0:0:
256,236,19015,1,12,0:0:0:0:
216,176,19265,1,8,0:0:0:0:
216,176,19390,1,0,0:0:0:0:
216,176,19515,1,0,0:0:0:0:
296,184,19765,1,12,0:0:0:0:
240,216,20015,1,8,0:0:0:0:
240,216,20098,1,8,0:0:0:0:
240,216,20181,1,8,0:0:0:0:
244,224,20265,1,0,0:0:0:0:
204,192,20390,1,0,0:0:0:0:
248,224,20515,1,0,0:0:0:0:
176,132,20765,1,12,0:0:0:0:
236,168,21015,1,0,0:0:0:0:
236,168,21265,1,12,0:0:0:0:
244,148,21515,1,0,0:0:0:0:
244,148,21765,1,12,0:0:0:0:
244,148,22015,1,0,0:0:0:0:
248,152,22265,1,12,0:0:0:0:
244,148,22515,1,0,0:0:0:0:
248,156,22681,1,0,0:0:0:0:
248,156,22765,1,8,0:0:0:0:
248,156,22931,1,8,0:0:0:0:
248,160,23015,1,8,0:0:0:0:
248,160,23181,1,0,0:0:0:0:
248,160,23265,1,8,0:0:0:0:
392,136,23348,1,8,0:0:0:0:
248,160,23431,1,8,0:0:0:0:
248,160,23515,1,0,0:0:0:0:
288,148,24515,1,8,0:0:0:0:
312,172,24681,1,8,0:0:0:0:
172,152,24931,1,0,0:0:0:0:
172,152,25181,1,0,0:0:0:0:
172,152,25515,1,8,0:0:0:0:
160,172,25681,1,8,0:0:0:0:
172,152,25931,1,0,0:0:0:0:
172,152,26181,1,0,0:0:0:0:
172,152,26515,1,8,0:0:0:0:
200,172,26765,1,8,0:0:0:0:
200,172,26848,1,8,0:0:0:0:
200,172,26931,1,8,0:0:0:0:
200,172,27015,1,0,0:0:0:0:
200,172,27265,1,8,0:0:0:0:
200,172,27348,1,8,0:0:0:0:
200,172,27431,1,8,0:0:0:0:
204,172,27515,1,0,0:0:0:0:
204,172,27765,1,0,0:0:0:0:
204,172,28015,1,8,0:0:0:0:
160,128,28515,5,4,0:0:0:0:
208,120,29015,1,8,0:0:0:0:
208,120,29181,1,8,0:0:0:0:
196,132,29431,1,0,0:0:0:0:
196,132,29765,1,0,0:0:0:0:
196,132,30015,1,8,0:0:0:0:
196,132,30265,1,8,0:0:0:0:
244,164,30515,1,0,0:0:0:0:
192,128,31015,1,0,0:0:0:0:
192,128,31265,1,8,0:0:0:0:
192,128,31431,1,0,0:0:0:0:
208,160,31765,1,0,0:0:0:0:
220,104,31890,1,0,0:0:0:0:
272,164,32015,1,8,0:0:0:0:
200,136,32139,1,0,0:0:0:0:
200,136,32265,1,8,0:0:0:0:
188,160,32514,1,0,0:0:0:0:
176,212,32765,1,8,0:0:0:0:
216,172,33014,1,0,0:0:0:0:
176,140,33265,1,0,0:0:0:0:
276,168,33390,1,8,0:0:0:0:
272,184,33640,1,8,0:0:0:0:
196,168,33765,1,0,0:0:0:0:
272,184,33890,1,0,0:0:0:0:
272,184,34015,1,8,0:0:0:0:
272,184,34140,1,8,0:0:0:0:
272,184,34265,1,0,0:0:0:0:
272,184,34515,1,0,0:0:0:0:
180,140,34765,1,8,0:0:0:0:
120,112,35015,1,0,0:0:0:0:
164,132,35265,1,0,0:0:0:0:
168,140,35390,1,8,0:0:0:0:
120,192,35640,1,8,0:0:0:0:
124,208,35765,1,8,0:0:0:0:
124,208,36015,1,8,0:0:0:0:
248,144,36140,1,0,0:0:0:0:
124,208,36265,1,8,0:0:0:0:
124,208,36515,1,4,0:0:0:0:
168,144,37015,1,0,0:0:0:0:
152,172,37181,1,0,0:0:0:0:
164,136,37431,1,8,0:0:0:0:
192,108,37765,1,0,0:0:0:0:
264,148,38015,1,8,0:0:0:0:
232,152,38265,1,8,0:0:0:0:
232,152,38515,1,0,0:0:0:0:
232,152,38640,1,8,0:0:0:0:
176,128,38765,1,0,0:0:0:0:
140,164,38890,1,0,0:0:0:0:
176,128,39015,1,8,0:0:0:0:
224,136,39140,1,8,0:0:0:0:
152,196,39390,1,0,0:0:0:0:
216,200,39640,1,8,0:0:0:0:
216,200,39765,1,8,0:0:0:0:
216,200,39890,1,0,0:0:0:0:
216,200,40015,1,0,0:0:0:0:
156,160,40140,1,8,0:0:0:0:
216,200,40265,1,0,0:0:0:0:
188,160,40515,1,0,0:0:0:0:
176,212,40766,1,8,0:0:0:0:
216,172,41015,1,0,0:0:0:0:
176,140,41266,1,0,0:0:0:0:
276,168,41391,1,8,0:0:0:0:
272,184,41641,1,8,0:0:0:0:
216,132,41765,1,0,0:0:0:0:
272,184,41891,1,8,0:0:0:0:
272,184,42016,1,8,0:0:0:0:
272,184,42141,1,0,0:0:0:0:
272,184,42266,1,8,0:0:0:0:
272,184,42516,1,0,0:0:0:0:
180,140,42766,1,8,0:0:0:0:
180,140,43015,1,0,0:0:0:0:
180,140,43265,1,0,0:0:0:0:
208,148,43390,1,8,0:0:0:0:
180,140,43640,1,0,0:0:0:0:
240,132,43765,1,0,0:0:0:0:
184,96,44015,1,8,0:0:0:0:
208,104,44098,1,8,0:0:0:0:
204,100,44181,1,8,0:0:0:0:
204,96,44265,1,0,0:0:0:0:
216,144,44515,1,12,0:0:0:0:
216,144,44765,1,12,0:0:0:0:
232,176,45015,1,0,0:0:0:0:
232,176,45140,1,0,0:0:0:0:
172,212,45265,1,0,0:0:0:0:
172,212,45390,1,8,0:0:0:0:
172,212,45515,1,8,0:0:0:0:
52,164,45765,1,8,0:0:0:0:
216,196,45890,1,0,0:0:0:0:
220,184,46140,1,0,0:0:0:0:
220,184,46515,1,12,0:0:0:0:
220,184,46765,1,12,0:0:0:0:
220,184,47015,1,0,0:0:0:0:
220,184,47265,1,0,0:0:0:0:
220,184,47515,1,8,0:0:0:0:
232,148,47598,1,8,0:0:0:0:
232,148,47681,1,8,0:0:0:0:
232,148,47765,1,0,0:0:0:0:
200,148,47848,1,0,0:0:0:0:
168,120,47931,1,0,0:0:0:0:
200,148,48015,1,8,0:0:0:0:
192,108,48181,1,0,0:0:0:0:
212,188,48515,1,12,0:0:0:0:
212,188,48765,1,12,0:0:0:0:
148,156,49015,1,0,0:0:0:0:
152,160,49098,1,0,0:0:0:0:
152,160,49181,1,8,0:0:0:0:
168,164,49265,1,8,0:0:0:0:
132,148,49348,1,0,0:0:0:0:
144,120,49431,1,0,0:0:0:0:
132,148,49515,1,8,0:0:0:0:
212,244,49765,1,0,0:0:0:0:
212,244,49890,1,8,0:0:0:0:
148,112,50140,1,0,0:0:0:0:
188,112,50265,1,8,0:0:0:0:
188,112,50390,1,0,0:0:0:0:
196,112,50515,1,8,0:0:0:0:
256,88,50640,1,8,0:0:0:0:
256,104,50765,1,0,0:0:0:0:
256,104,51015,1,8,0:0:0:0:
236,104,51265,1,8,0:0:0:0:
212,112,51348,1,8,0:0:0:0:
212,112,51431,1,8,0:0:0:0:
216,112,51515,1,0,0:0:0:0:
232,104,51765,1,8,0:0:0:0:
212,132,52015,1,8,0:0:0:0:
212,132,52140,1,8,0:0:0:0:
240,128,52265,1,0,0:0:0:0:
200,136,52348,1,0,0:0:0:0:
208,144,52431,1,0,0:0:0:0:
208,144,52515,1,8,0:0:0:0:
260,76,52765,1,8,0:0:0:0:
260,76,52890,1,0,0:0:0:0:
260,76,53015,1,8,0:0:0:0:
236,80,53265,1,8,0:0:0:0:
236,80,53348,1,8,0:0:0:0:
236,80,53431,1,8,0:0:0:0:
236,80,53515,1,0,0:0:0:0:
176,160,53640,1,0,0:0:0:0:
240,140,53765,1,8,0:0:0:0:
244,144,53890,1,0,0:0:0:0:
248,144,54015,1,8,0:0:0:0:
228,104,54265,1,0,0:0:0:0:
228,104,54348,1,0,0:0:0:0:
228,104,54431,1,0,0:0:0:0:
228,104,54515,1,8,0:0:0:0:
264,100,54765,1,8,0:0:0:0:
272,196,55015,1,8,0:0:0:0:
248,192,55140,1,0,0:0:0:0:
288,124,55265,1,8,0:0:0:0:
288,124,55348,1,8,0:0:0:0:
288,124,55431,1,8,0:0:0:0:
288,124,55515,1,0,0:0:0:0:
140,144,55681,1,8,0:0:0:0:
236,128,55890,1,0,0:0:0:0:
236,104,56015,1,8,0:0:0:0:
204,112,56265,1,0,0:0:0:0:
208,112,56348,1,0,0:0:0:0:
208,112,56431,1,0,0:0:0:0:
292,136,56515,1,8,0:0:0:0:
292,136,56765,1,8,0:0:0:0:
224,144,56890,1,0,0:0:0:0:
160,124,57015,1,0,0:0:0:0:
144,184,57140,1,8,0:0:0:0:
224,120,57390,1,0,0:0:0:0:
204,120,57765,1,12,0:0:0:0:
260,192,58515,1,8,0:0:0:0:
248,136,58640,1,0,0:0:0:0:
224,136,58765,1,8,0:0:0:0:
188,144,58890,1,8,0:0:0:0:
228,136,59015,1,0,0:0:0:0:
188,176,59140,1,0,0:0:0:0:
156,172,59265,1,8,0:0:0:0:
160,176,59390,1,0,0:0:0:0:
144,172,59515,1,8,0:0:0:0:
220,124,59640,1,0,0:0:0:0:
200,184,59702,1,0,0:0:0:0:
148,152,59765,1,8,0:0:0:0:
144,156,59890,1,8,0:0:0:0:
200,140,60015,1,0,0:0:0:0:
200,140,60265,1,8,0:0:0:0:
160,192,60515,1,0,0:0:0:0:
164,196,60640,1,8,0:0:0:0:
168,204,60765,1,0,0:0:0:0:
276,188,60890,1,0,0:0:0:0:
280,188,61015,1,8,0:0:0:0:
176,148,61140,1,0,0:0:0:0:
176,148,61265,1,8,0:0:0:0:
176,148,61390,1,0,0:0:0:0:
176,148,61515,1,8,0:0:0:0:
124,120,61640,1,8,0:0:0:0:
176,180,61702,1,8,0:0:0:0:
124,120,61765,1,0,0:0:0:0:
128,120,61890,1,0,0:0:0:0:
136,120,62015,1,8,0:0:0:0:
196,184,62265,1,0,0:0:0:0:
156,216,62515,1,8,0:0:0:0:
64,168,62640,1,0,0:0:0:0:
64,168,62765,1,8,0:0:0:0:
64,168,62890,1,8,0:0:0:0:
212,132,63015,1,0,0:0:0:0:
140,124,63265,1,8,0:0:0:0:
276,120,63390,1,0,0:0:0:0:
184,144,63515,1,8,0:0:0:0:
184,144,63640,1,0,0:0:0:0:
184,144,63765,1,8,0:0:0:0:
184,144,63890,1,8,0:0:0:0:
184,144,64015,1,0,0:0:0:0:
196,160,64181,1,0,0:0:0:0:
196,160,64265,1,8,0:0:0:0:
196,160,64390,1,0,0:0:0:0:
168,148,64515,1,0,0:0:0:0:
280,196,64765,1,12,0:0:0:0:
280,196,65015,1,0,0:0:0:0:
328,244,65265,1,12,0:0:0:0:
328,244,65515,1,0,0:0:0:0:
328,252,65765,1,12,0:0:0:0:
228,96,66015,1,8,0:0:0:0:
228,96,66098,1,8,0:0:0:0:
228,96,66181,1,8,0:0:0:0:
228,96,66265,1,0,0:0:0:0:
228,96,66348,1,0,0:0:0:0:
260,192,66515,1,8,0:0:0:0:
248,136,66640,1,0,0:0:0:0:
224,136,66765,1,8,0:0:0:0:
188,144,66890,1,8,0:0:0:0:
228,136,67015,1,0,0:0:0:0:
188,176,67140,1,0,0:0:0:0:
156,172,67265,1,8,0:0:0:0:
160,176,67390,1,0,0:0:0:0:
144,172,67515,1,8,0:0:0:0:
220,124,67640,1,0,0:0:0:0:
200,184,67702,1,0,0:0:0:0:
148,152,67765,1,8,0:0:0:0:
144,156,67890,1,8,0:0:0:0:
200,140,68015,1,0,0:0:0:0:
200,140,68265,1,8,0:0:0:0:
160,192,68515,1,0,0:0:0:0:
164,196,68640,1,8,0:0:0:0:
168,204,68765,1,0,0:0:0:0:
276,188,68890,1,0,0:0:0:0:
280,188,69015,1,8,0:0:0:0:
176,148,69140,1,0,0:0:0:0:
176,148,69265,1,8,0:0:0:0:
176,148,69390,1,0,0:0:0:0:
176,148,69515,1,8,0:0:0:0:
124,120,69640,1,8,0:0:0:0:
176,180,69702,1,8,0:0:0:0:
124,120,69765,1,0,0:0:0:0:
128,120,69890,1,0,0:0:0:0:
136,120,70015,1,8,0:0:0:0:
196,184,70265,1,0,0:0:0:0:
156,216,70515,1,0,0:0:0:0:
256,236,70765,1,12,0:0:0:0:
256,236,71015,1,12,0:0:0:0:
216,176,71265,1,8,0:0:0:0:
216,176,71390,1,0,0:0:0:0:
216,176,71515,1,0,0:0:0:0:
296,184,71765,1,12,0:0:0:0:
240,216,72015,1,8,0:0:0:0:
240,216,72098,1,8,0:0:0:0:
240,216,72181,1,8,0:0:0:0:
244,224,72265,1,0,0:0:0:0:
204,192,72390,1,0,0:0:0:0:
248,224,72515,1,0,0:0:0:0:
176,132,72765,1,12,0:0:0:0:
236,168,73015,1,0,0:0:0:0:
236,168,73265,1,12,0:0:0:0:
244,148,73515,1,0,0:0:0:0:
244,148,73765,1,12,0:0:0:0:
244,148,74015,1,0,0:0:0:0:
248,152,74265,1,12,0:0:0:0:
244,148,74515,1,0,0:0:0:0:
248,156,74681,1,0,0:0:0:0:
248,156,74765,1,8,0:0:0:0:
248,156,74931,1,8,0:0:0:0:
248,160,75015,5,8,0:0:0:0:
248,160,75181,1,0,0:0:0:0:
248,160,75265,1,8,0:0:0:0:
392,136,75348,1,8,0:0:0:0:
248,160,75431,1,8,0:0:0:0:
248,160,75515,1,0,0:0:0:0:
288,148,76515,1,8,0:0:0:0:
172,152,76681,1,8,0:0:0:0:
172,152,76931,1,0,0:0:0:0:
172,152,77181,1,0,0:0:0:0:
172,152,77515,1,8,0:0:0:0:
52,116,77681,1,8,0:0:0:0:
172,152,77931,1,0,0:0:0:0:
172,152,78181,1,0,0:0:0:0:
172,152,78515,1,8,0:0:0:0:
200,172,78765,1,8,0:0:0:0:
200,172,78848,1,8,0:0:0:0:
200,172,78931,1,8,0:0:0:0:
200,172,79015,1,0,0:0:0:0:
200,172,79265,1,8,0:0:0:0:
200,172,79348,1,8,0:0:0:0:
200,172,79431,1,8,0:0:0:0:
204,172,79515,1,0,0:0:0:0:
204,172,79765,1,0,0:0:0:0:
204,172,80015,1,8,0:0:0:0:
216,144,80515,1,4,0:0:0:0:
260,188,82015,1,8,0:0:0:0:
200,112,82515,1,0,0:0:0:0:
200,112,82765,1,0,0:0:0:0:
200,112,83015,1,8,0:0:0:0:
200,112,83181,1,8,0:0:0:0:
200,112,83431,1,0,0:0:0:0:
312,136,83640,1,8,0:0:0:0:
268,216,83723,1,8,0:0:0:0:
188,128,84015,1,0,0:0:0:0:
188,128,84140,1,0,0:0:0:0:
260,216,84265,1,8,0:0:0:0:
260,216,84515,1,0,0:0:0:0:
280,100,84890,1,0,0:0:0:0:
152,168,85015,1,8,0:0:0:0:
152,144,85390,1,0,0:0:0:0:
204,136,85640,1,8,0:0:0:0:
344,120,85890,1,0,0:0:0:0:
312,164,86015,1,8,0:0:0:0:
260,168,86265,1,8,0:0:0:0:
192,132,86515,1,0,0:0:0:0:
228,136,86890,1,0,0:0:0:0:
224,148,87015,1,8,0:0:0:0:
236,144,87390,1,0,0:0:0:0:
232,144,87640,1,0,0:0:0:0:
232,144,87765,1,8,0:0:0:0:
232,144,87890,1,0,0:0:0:0:
232,144,88015,1,8,0:0:0:0:
236,144,88265,1,0,0:0:0:0:
232,144,88515,1,4,0:0:0:0:
224,144,89015,1,8,0:0:0:0:
224,148,89202,1,0,0:0:0:0:
192,160,89452,1,0,0:0:0:0:
224,152,89765,1,8,0:0:0:0:
288,200,90515,1,8,0:0:0:0:
288,200,90640,1,0,0:0:0:0:
216,188,90765,1,8,0:0:0:0:
216,192,91015,1,0,0:0:0:0:
292,168,91140,1,8,0:0:0:0:
248,164,91390,1,8,0:0:0:0:
220,168,91765,1,8,0:0:0:0:
164,240,92202,1,8,0:0:0:0:
188,172,92431,1,8,0:0:0:0:
188,172,92515,1,0,0:0:0:0:
136,180,92890,1,0,0:0:0:0:
276,200,93015,1,8,0:0:0:0:
152,144,93390,1,0,0:0:0:0:
204,136,93640,1,8,0:0:0:0:
344,120,93890,1,0,0:0:0:0:
312,164,94015,1,8,0:0:0:0:
260,168,94265,1,8,0:0:0:0:
192,132,94515,1,8,0:0:0:0:
232,128,94640,1,0,0:0:0:0:
112,160,94890,1,8,0:0:0:0:
112,160,95015,1,0,0:0:0:0:
132,188,95265,1,8,0:0:0:0:
132,188,95390,1,0,0:0:0:0:
228,168,95640,1,8,0:0:0:0:
232,160,95765,1,0,0:0:0:0:
276,120,96015,1,0,0:0:0:0:
276,120,96098,1,0,0:0:0:0:
276,120,96181,1,0,0:0:0:0:
276,120,96265,1,0,0:0:0:0:
180,92,96348,1,0,0:0:0:0:
176,88,96515,1,12,0:0:0:0:
224,104,96765,1,12,0:0:0:0:
232,176,97015,1,0,0:0:0:0:
232,176,97140,1,0,0:0:0:0:
172,212,97265,1,0,0:0:0:0:
172,212,97390,1,8,0:0:0:0:
172,212,97515,1,8,0:0:0:0:
172,212,97765,1,8,0:0:0:0:
216,196,97890,1,0,0:0:0:0:
220,184,98140,1,0,0:0:0:0:
220,184,98515,1,12,0:0:0:0:
220,184,98765,1,12,0:0:0:0:
220,184,99015,1,0,0:0:0:0:
220,184,99265,1,0,0:0:0:0:
220,184,99515,1,8,0:0:0:0:
232,148,99598,1,8,0:0:0:0:
232,148,99681,1,8,0:0:0:0:
232,148,99765,1,0,0:0:0:0:
200,148,99848,1,0,0:0:0:0:
200,148,99931,1,0,0:0:0:0:
200,148,100015,1,8,0:0:0:0:
184,168,100181,1,0,0:0:0:0:
212,188,100515,1,12,0:0:0:0:
212,188,100765,1,12,0:0:0:0:
148,156,101015,1,0,0:0:0:0:
152,160,101098,1,0,0:0:0:0:
152,160,101181,1,8,0:0:0:0:
168,164,101265,1,8,0:0:0:0:
132,148,101348,1,0,0:0:0:0:
176,120,101431,1,0,0:0:0:0:
132,148,101515,1,8,0:0:0:0:
212,244,101765,1,0,0:0:0:0:
212,244,101890,1,8,0:0:0:0:
148,112,102140,1,0,0:0:0:0:
188,112,102265,1,8,0:0:0:0:
188,112,102390,1,0,0:0:0:0:
196,112,102515,1,8,0:0:0:0:
256,88,102640,1,8,0:0:0:0:
256,104,102765,1,0,0:0:0:0:
256,104,103015,1,8,0:0:0:0:
236,104,103265,1,8,0:0:0:0:
212,112,103348,1,8,0:0:0:0:
212,112,103431,1,8,0:0:0:0:
216,112,103515,1,0,0:0:0:0:
232,104,103765,1,8,0:0:0:0:
212,132,104015,1,8,0:0:0:0:
212,132,104140,1,8,0:0:0:0:
240,128,104265,1,0,0:0:0:0:
200,136,104348,1,0,0:0:0:0:
208,144,104431,1,0,0:0:0:0:
208,144,104515,1,8,0:0:0:0:
260,76,104765,1,8,0:0:0:0:
260,76,104890,1,0,0:0:0:0:
260,76,105015,1,8,0:0:0:0:
236,80,105265,1,8,0:0:0:0:
236,80,105348,1,8,0:0:0:0:
236,80,105431,1,8,0:0:0:0:
236,80,105515,1,0,0:0:0:0:
176,160,105640,1,0,0:0:0:0:
240,140,105765,1,8,0:0:0:0:
244,144,105890,1,0,0:0:0:0:
248,144,106015,1,8,0:0:0:0:
228,104,106265,1,0,0:0:0:0:
228,104,106348,1,0,0:0:0:0:
228,104,106431,1,0,0:0:0:0:
228,104,106515,1,8,0:0:0:0:
264,100,106765,1,8,0:0:0:0:
272,196,107015,1,8,0:0:0:0:
248,192,107140,1,0,0:0:0:0:
288,124,107265,1,8,0:0:0:0:
288,124,107348,1,8,0:0:0:0:
288,124,107431,1,8,0:0:0:0:
288,124,107515,1,0,0:0:0:0:
140,144,107681,1,8,0:0:0:0:
236,128,107890,1,0,0:0:0:0:
236,104,108015,1,8,0:0:0:0:
204,112,108265,1,0,0:0:0:0:
208,112,108348,1,0,0:0:0:0:
208,112,108431,1,0,0:0:0:0:
292,136,108515,1,8,0:0:0:0:
292,136,108765,1,8,0:0:0:0:
224,144,108890,1,0,0:0:0:0:
160,124,109015,5,0,0:0:0:0:
144,184,109140,1,8,0:0:0:0:
224,120,109390,1,0,0:0:0:0:
204,120,109765,1,12,0:0:0:0:
152,192,110015,5,0,0:0:0:0:
152,192,110265,1,8,0:0:0:0:
260,192,110515,1,8,0:0:0:0:
248,136,110640,1,0,0:0:0:0:
224,136,110765,1,8,0:0:0:0:
188,144,110890,1,8,0:0:0:0:
228,136,111015,1,0,0:0:0:0:
188,176,111140,1,0,0:0:0:0:
156,172,111265,1,8,0:0:0:0:
160,176,111390,1,0,0:0:0:0:
144,172,111515,1,8,0:0:0:0:
220,124,111640,1,0,0:0:0:0:
200,184,111702,1,0,0:0:0:0:
148,152,111765,1,8,0:0:0:0:
144,156,111890,1,8,0:0:0:0:
200,140,112015,1,0,0:0:0:0:
200,140,112265,1,8,0:0:0:0:
160,192,112515,1,0,0:0:0:0:
164,196,112640,1,8,0:0:0:0:
168,204,112765,1,0,0:0:0:0:
276,188,112890,1,0,0:0:0:0:
280,188,113015,1,8,0:0:0:0:
176,148,113140,1,0,0:0:0:0:
176,148,113265,1,8,0:0:0:0:
176,148,113390,1,0,0:0:0:0:
176,148,113515,1,8,0:0:0:0:
124,120,113640,1,8,0:0:0:0:
176,180,113702,1,8,0:0:0:0:
124,120,113765,1,0,0:0:0:0:
128,120,113890,1,0,0:0:0:0:
136,120,114015,1,8,0:0:0:0:
196,184,114265,1,0,0:0:0:0:
156,216,114515,1,8,0:0:0:0:
64,168,114640,1,0,0:0:0:0:
64,168,114765,1,8,0:0:0:0:
64,168,114890,1,8,0:0:0:0:
212,132,115015,1,0,0:0:0:0:
140,124,115265,1,8,0:0:0:0:
276,120,115390,1,0,0:0:0:0:
184,144,115515,1,8,0:0:0:0:
184,144,115640,1,0,0:0:0:0:
184,144,115765,1,8,0:0:0:0:
184,144,115890,1,8,0:0:0:0:
184,144,116015,1,0,0:0:0:0:
196,160,116181,1,0,0:0:0:0:
196,160,116265,1,8,0:0:0:0:
196,160,116390,1,0,0:0:0:0:
168,148,116515,1,0,0:0:0:0:
280,196,116765,1,12,0:0:0:0:
280,196,117015,1,0,0:0:0:0:
328,244,117265,1,12,0:0:0:0:
328,244,117515,1,0,0:0:0:0:
328,252,117765,1,12,0:0:0:0:
228,96,118015,1,8,0:0:0:0:
228,96,118098,1,8,0:0:0:0:
228,96,118181,1,8,0:0:0:0:
228,96,118265,1,0,0:0:0:0:
228,96,118348,1,0,0:0:0:0:
260,192,118515,1,8,0:0:0:0:
248,136,118640,1,0,0:0:0:0:
224,136,118765,1,8,0:0:0:0:
188,144,118890,1,8,0:0:0:0:
228,136,119015,1,0,0:0:0:0:
188,176,119140,1,0,0:0:0:0:
156,172,119265,1,8,0:0:0:0:
160,176,119390,1,0,0:0:0:0:
144,172,119515,1,8,0:0:0:0:
220,124,119640,1,0,0:0:0:0:
200,184,119702,1,0,0:0:0:0:
148,152,119765,1,8,0:0:0:0:
144,156,119890,1,8,0:0:0:0:
200,140,120015,1,0,0:0:0:0:
200,140,120265,1,8,0:0:0:0:
160,192,120515,1,0,0:0:0:0:
164,196,120640,1,8,0:0:0:0:
168,204,120765,1,0,0:0:0:0:
276,188,120890,1,0,0:0:0:0:
280,188,121015,1,8,0:0:0:0:
176,148,121140,1,0,0:0:0:0:
176,148,121265,1,8,0:0:0:0:
176,148,121390,1,0,0:0:0:0:
176,148,121515,1,8,0:0:0:0:
124,120,121640,1,8,0:0:0:0:
176,180,121702,1,8,0:0:0:0:
124,120,121765,1,0,0:0:0:0:
128,120,121890,1,0,0:0:0:0:
136,120,122015,1,8,0:0:0:0:
196,184,122265,1,0,0:0:0:0:
156,216,122515,1,0,0:0:0:0:
256,236,122765,1,12,0:0:0:0:
256,236,123015,1,12,0:0:0:0:
216,176,123265,1,8,0:0:0:0:
216,176,123390,1,0,0:0:0:0:
216,176,123515,1,0,0:0:0:0:
296,184,123765,1,12,0:0:0:0:
240,216,124015,1,8,0:0:0:0:
240,216,124098,1,8,0:0:0:0:
240,216,124181,1,8,0:0:0:0:
244,224,124265,1,0,0:0:0:0:
204,192,124390,1,0,0:0:0:0:
248,224,124515,1,0,0:0:0:0:
176,132,124765,1,12,0:0:0:0:
236,168,125015,1,0,0:0:0:0:
236,168,125265,1,12,0:0:0:0:
244,148,125515,1,0,0:0:0:0:
244,148,125765,1,12,0:0:0:0:
244,148,126015,1,0,0:0:0:0:
248,152,126265,1,12,0:0:0:0:
244,148,126515,1,0,0:0:0:0:
248,156,126681,1,0,0:0:0:0:
248,156,126765,1,8,0:0:0:0:
248,156,126931,1,8,0:0:0:0:
248,160,127015,1,8,0:0:0:0:
248,160,127181,1,0,0:0:0:0:
248,160,127265,1,8,0:0:0:0:
392,136,127348,1,8,0:0:0:0:
248,160,127431,1,8,0:0:0:0:
248,160,127515,5,0,0:0:0:0:
288,148,128515,5,8,0:0:0:0:
180,160,128931,1,8,0:0:0:0:
236,164,129181,1,8,0:0:0:0:
236,164,129431,1,8,0:0:0:0:
232,152,129514,1,0,0:0:0:0:
112,168,129681,1,0,0:0:0:0:
204,176,129764,1,8,0:0:0:0:
204,176,130014,1,8,0:0:0:0:
288,148,130514,1,0,0:0:0:0:
180,160,130930,1,0,0:0:0:0:
236,164,131180,1,0,0:0:0:0:
236,164,131430,1,0,0:0:0:0:
232,152,131515,1,8,0:0:0:0:
112,168,131680,1,8,0:0:0:0:
204,176,131765,1,0,0:0:0:0:
204,176,132015,1,0,0:0:0:0:
288,148,132515,1,8,0:0:0:0:
180,160,132931,1,8,0:0:0:0:
236,164,133181,1,8,0:0:0:0:
236,164,133431,1,0,0:0:0:0:
232,152,133515,1,8,0:0:0:0:
112,168,133681,1,8,0:0:0:0:
204,176,133764,1,8,0:0:0:0:
204,176,134014,1,8,0:0:0:0:
288,148,134515,1,0,0:0:0:0:
180,160,134931,1,0,0:0:0:0:
236,164,135181,1,0,0:0:0:0:
236,164,135431,1,0,0:0:0:0:
232,152,135515,1,0,0:0:0:0:
112,168,135681,1,8,0:0:0:0:
204,176,135764,1,0,0:0:0:0:
204,176,136015,1,0,0:0:0:0:
220,160,136265,1,0,0:0:0:0:
224,160,136515,1,8,0:0:0:0:
296,236,136890,1,0,0:0:0:0:
168,160,137181,1,8,0:0:0:0:
168,160,137431,1,8,0:0:0:0:
168,160,137515,1,0,0:0:0:0:
68,120,137681,1,8,0:0:0:0:
168,160,137765,1,0,0:0:0:0:
272,80,137931,1,0,0:0:0:0:
272,80,138015,1,8,0:0:0:0:
224,160,138515,1,0,0:0:0:0:
296,236,138890,1,8,0:0:0:0:
168,160,139181,1,0,0:0:0:0:
168,160,139431,1,0,0:0:0:0:
168,160,139515,1,8,0:0:0:0:
68,120,139681,1,0,0:0:0:0:
168,160,139765,1,8,0:0:0:0:
272,80,139931,1,8,0:0:0:0:
272,80,140015,1,0,0:0:0:0:
224,160,140515,1,8,0:0:0:0:
296,236,140890,1,0,0:0:0:0:
168,160,141181,1,8,0:0:0:0:
168,160,141431,1,8,0:0:0:0:
168,160,141515,1,0,0:0:0:0:
68,120,141681,1,8,0:0:0:0:
168,160,141765,1,0,0:0:0:0:
272,80,141931,1,0,0:0:0:0:
272,80,142015,1,8,0:0:0:0:
100,164,142265,1,8,0:0:0:0:
224,160,142515,1,0,0:0:0:0:
296,236,142890,1,8,0:0:0:0:
168,160,143181,1,0,0:0:0:0:
168,160,143431,1,0,0:0:0:0:
168,160,143515,1,8,0:0:0:0:
68,120,143681,1,0,0:0:0:0:
168,160,143765,1,8,0:0:0:0:
272,80,143931,1,8,0:0:0:0:
272,80,144015,1,0,0:0:0:0:
100,184,144265,1,0,0:0:0:0:
280,132,144515,5,0,0:0:0:0:
268,136,145515,1,0,0:0:0:0:
188,184,146515,1,0,0:0:0:0:
188,184,147515,1,0,0:0:0:0:
208,160,147765,1,0,0:0:0:0:
112,152,148015,1,0,0:0:0:0:
216,144,148265,1,0,0:0:0:0:
208,128,148348,1,0,0:0:0:0:
208,128,148431,1,0,0:0:0:0:
196,112,148515,1,8,0:0:0:0:
256,88,148640,1,8,0:0:0:0:
256,104,148765,1,0,0:0:0:0:
256,104,149015,1,8,0:0:0:0:
236,104,149265,1,8,0:0:0:0:
212,112,149348,1,8,0:0:0:0:
212,112,149431,1,8,0:0:0:0:
216,112,149515,1,0,0:0:0:0:
232,104,149765,1,8,0:0:0:0:
212,132,150015,1,8,0:0:0:0:
212,132,150140,1,8,0:0:0:0:
240,128,150265,1,0,0:0:0:0:
200,136,150348,1,0,0:0:0:0:
208,144,150431,1,0,0:0:0:0:
208,144,150515,1,8,0:0:0:0:
260,76,150765,1,8,0:0:0:0:
260,76,150890,1,0,0:0:0:0:
260,76,151015,1,8,0:0:0:0:
236,80,151265,1,8,0:0:0:0:
236,80,151348,1,8,0:0:0:0:
236,80,151431,1,8,0:0:0:0:
236,80,151515,1,0,0:0:0:0:
176,160,151640,1,0,0:0:0:0:
240,140,151765,1,8,0:0:0:0:
244,144,151890,1,0,0:0:0:0:
248,144,152015,1,8,0:0:0:0:
228,104,152265,1,0,0:0:0:0:
228,104,152348,1,0,0:0:0:0:
228,104,152431,1,0,0:0:0:0:
228,104,152515,1,8,0:0:0:0:
264,100,152765,1,8,0:0:0:0:
272,196,153015,1,8,0:0:0:0:
248,192,153140,1,0,0:0:0:0:
288,124,153265,1,8,0:0:0:0:
288,124,153348,1,8,0:0:0:0:
288,124,153431,1,8,0:0:0:0:
288,124,153515,1,0,0:0:0:0:
140,144,153681,1,8,0:0:0:0:
236,128,153890,1,0,0:0:0:0:
236,104,154015,1,8,0:0:0:0:
204,112,154265,1,0,0:0:0:0:
208,112,154348,1,0,0:0:0:0:
208,112,154431,1,0,0:0:0:0:
292,136,154515,1,8,0:0:0:0:
292,136,154765,5,8,0:0:0:0:
224,144,154890,1,0,0:0:0:0:
160,124,155015,5,0,0:0:0:0:
144,184,155140,1,8,0:0:0:0:
224,120,155390,1,0,0:0:0:0:
256,200,155765,5,12,0:0:0:0:
260,148,156515,1,8,0:0:0:0:
248,144,156931,1,8,0:0:0:0:
244,224,157181,1,8,0:0:0:0:
236,232,157431,1,8,0:0:0:0:
236,232,157515,1,0,0:0:0:0:
236,232,157765,1,0,0:0:0:0:
236,232,158015,1,0,0:0:0:0:
244,192,158515,5,4,0:0:0:0:
208,152,159515,1,12,0:0:0:0:
208,152,159890,1,12,0:0:0:0:
336,128,160515,1,4,0:0:0:0:
240,200,160765,1,0,0:0:0:0:
240,200,160890,1,8,0:0:0:0:
240,200,161015,1,0,0:0:0:0:
120,188,161140,1,0,0:0:0:0:
244,184,161265,1,8,0:0:0:0:
244,184,161390,1,0,0:0:0:0:
160,192,161515,1,8,0:0:0:0:
260,176,161598,1,8,0:0:0:0:
252,180,161681,1,8,0:0:0:0:
252,180,161765,1,0,0:0:0:0:
256,184,161848,1,0,0:0:0:0:
256,184,162015,1,8,0:0:0:0:
256,184,162098,1,8,0:0:0:0:
260,184,162181,1,8,0:0:0:0:
260,184,162265,1,0,0:0:0:0:
160,104,162348,1,0,0:0:0:0:
156,216,162515,1,8,0:0:0:0:
64,168,162640,1,0,0:0:0:0:
64,168,162765,1,8,0:0:0:0:
64,168,162890,1,8,0:0:0:0:
212,132,163015,1,0,0:0:0:0:
140,124,163265,1,8,0:0:0:0:
276,120,163390,1,0,0:0:0:0:
184,144,163515,1,8,0:0:0:0:
184,144,163640,1,0,0:0:0:0:
184,144,163765,1,8,0:0:0:0:
184,144,163890,1,8,0:0:0:0:
184,144,164015,1,0,0:0:0:0:
196,160,164181,1,0,0:0:0:0:
196,160,164265,1,8,0:0:0:0:
196,160,164390,1,0,0:0:0:0:
168,148,164515,1,0,0:0:0:0:
280,196,164765,1,12,0:0:0:0:
280,196,165015,1,0,0:0:0:0:
328,244,165265,1,12,0:0:0:0:
328,244,165515,1,0,0:0:0:0:
328,252,165765,1,12,0:0:0:0:
228,96,166015,1,8,0:0:0:0:
228,96,166098,1,8,0:0:0:0:
228,96,166181,1,8,0:0:0:0:
228,96,166265,1,0,0:0:0:0:
228,96,166348,1,0,0:0:0:0:
260,192,166515,1,8,0:0:0:0:
248,136,166640,1,0,0:0:0:0:
224,136,166765,1,8,0:0:0:0:
188,144,166890,1,8,0:0:0:0:
228,136,167015,1,0,0:0:0:0:
188,176,167140,1,0,0:0:0:0:
156,172,167265,1,8,0:0:0:0:
160,176,167390,1,0,0:0:0:0:
144,172,167515,1,8,0:0:0:0:
220,124,167640,1,0,0:0:0:0:
200,184,167702,1,0,0:0:0:0:
148,152,167765,1,8,0:0:0:0:
144,156,167890,1,8,0:0:0:0:
200,140,168015,1,0,0:0:0:0:
200,140,168265,1,8,0:0:0:0:
160,192,168515,1,0,0:0:0:0:
164,196,168640,1,8,0:0:0:0:
168,204,168765,1,0,0:0:0:0:
276,188,168890,1,0,0:0:0:0:
280,188,169015,1,8,0:0:0:0:
176,148,169140,1,0,0:0:0:0:
176,148,169265,1,8,0:0:0:0:
176,148,169390,1,0,0:0:0:0:
176,148,169515,1,8,0:0:0:0:
124,120,169640,1,8,0:0:0:0:
176,180,169702,1,8,0:0:0:0:
124,120,169765,1,0,0:0:0:0:
128,120,169890,1,0,0:0:0:0:
136,120,170015,1,8,0:0:0:0:
196,184,170265,1,0,0:0:0:0:
156,216,170515,1,0,0:0:0:0:
256,236,170765,1,12,0:0:0:0:
256,236,171015,1,12,0:0:0:0:
216,176,171265,1,8,0:0:0:0:
216,176,171390,1,0,0:0:0:0:
216,176,171515,1,0,0:0:0:0:
296,184,171765,1,12,0:0:0:0:
240,216,172015,1,8,0:0:0:0:
240,216,172098,1,8,0:0:0:0:
240,216,172181,1,8,0:0:0:0:
244,224,172265,1,0,0:0:0:0:
204,192,172390,1,0,0:0:0:0:
248,224,172515,1,0,0:0:0:0:
176,132,172765,1,12,0:0:0:0:
236,168,173015,1,0,0:0:0:0:
236,168,173265,1,12,0:0:0:0:
244,148,173515,1,0,0:0:0:0:
244,148,173765,1,12,0:0:0:0:
244,148,174015,1,0,0:0:0:0:
248,152,174265,1,12,0:0:0:0:
244,148,174515,1,0,0:0:0:0:
248,156,174681,1,0,0:0:0:0:
248,156,174765,1,8,0:0:0:0:
248,156,174931,1,8,0:0:0:0:
248,160,175015,1,8,0:0:0:0:
248,160,175181,1,0,0:0:0:0:
248,160,175265,1,8,0:0:0:0:
392,136,175348,1,8,0:0:0:0:
248,160,175431,1,8,0:0:0:0:
248,160,175515,5,0,0:0:0:0:
236,148,176515,5,0,0:0:0:0:
220,168,176765,1,8,0:0:0:0:
208,144,177015,1,0,0:0:0:0:
208,144,177181,1,0,0:0:0:0:
208,144,177265,1,8,0:0:0:0:
180,140,177515,1,0,0:0:0:0:
176,144,177765,1,8,0:0:0:0:
176,144,178015,1,8,0:0:0:0:
176,144,178181,1,0,0:0:0:0:
176,164,178265,1,8,0:0:0:0:
164,168,178515,1,0,0:0:0:0:
220,152,178681,1,0,0:0:0:0:
180,168,178765,1,8,0:0:0:0:
220,152,178931,1,0,0:0:0:0:
180,168,179015,1,0,0:0:0:0:
180,168,179181,1,0,0:0:0:0:
180,168,179265,1,8,0:0:0:0:
288,184,179515,1,0,0:0:0:0:
260,184,179765,1,8,0:0:0:0:
260,184,179848,1,8,0:0:0:0:
264,188,179931,1,8,0:0:0:0:
264,188,180015,1,0,0:0:0:0:
264,188,180098,1,0,0:0:0:0:
264,188,180181,1,0,0:0:0:0:
264,188,180265,1,8,0:0:0:0:
268,192,180515,1,0,0:0:0:0:
56,160,180765,1,8,0:0:0:0:
236,132,181015,1,0,0:0:0:0:
220,208,181181,1,0,0:0:0:0:
220,208,181265,1,8,0:0:0:0:
208,136,181390,1,0,0:0:0:0:
216,136,181515,1,0,0:0:0:0:
204,128,181765,1,8,0:0:0:0:
280,152,182015,1,0,0:0:0:0:
280,152,182098,1,0,0:0:0:0:
280,152,182181,1,0,0:0:0:0:
280,152,182265,1,8,0:0:0:0:
232,152,182390,1,0,0:0:0:0:
232,152,182515,1,0,0:0:0:0:
184,104,182765,1,8,0:0:0:0:
196,152,183015,1,0,0:0:0:0:
192,152,183181,1,0,0:0:0:0:
192,152,183265,1,8,0:0:0:0:
236,104,183515,1,0,0:0:0:0:
160,112,183765,1,8,0:0:0:0:
144,160,184015,1,0,0:0:0:0:
144,160,184181,1,8,0:0:0:0:
256,144,184265,1,0,0:0:0:0:
172,148,184515,1,0,0:0:0:0:
184,144,184681,1,0,0:0:0:0:
184,144,184765,1,8,0:0:0:0:
192,144,185015,1,0,0:0:0:0:
240,152,185181,1,0,0:0:0:0:
240,152,185265,1,8,0:0:0:0:
152,148,185515,1,0,0:0:0:0:
176,180,186515,5,0,0:0:0:0:
264,212,186640,1,8,0:0:0:0:
264,212,186890,1,8,0:0:0:0:
264,212,187015,1,8,0:0:0:0:
264,212,187265,1,0,0:0:0:0:
264,212,187390,1,8,0:0:0:0:
264,212,187640,1,8,0:0:0:0:
264,212,187765,1,8,0:0:0:0:
264,212,188015,1,0,0:0:0:0:
264,212,188265,1,0,0:0:0:0:
216,144,188515,5,12,0:0:0:0:
256,192,188681,12,0,190348,0:0:0:0:
208,132,190515,5,8,0:0:0:0:
208,132,190681,1,8,0:0:0:0:
100,144,190931,1,8,0:0:0:0:
64,156,191181,1,8,0:0:0:0:
64,156,191431,1,0,0:0:0:0:
64,156,191515,1,8,0:0:0:0:
116,144,191765,1,0,0:0:0:0:
224,156,192015,1,12,0:0:0:0:
