osu file format v14

[General]
AudioFilename: audio.ogg
AudioLeadIn: 0
PreviewTime: 57598
Countdown: 0
SampleSet: Soft
StackLeniency: 0.7
Mode: 2
LetterboxInBreaks: 0
WidescreenStoryboard: 0

[Editor]
DistanceSpacing: 2.1
BeatDivisor: 2
GridSize: 8
TimelineZoom: 1.6

[Metadata]
Title:Eyecatch! Too much! (TV Size)
TitleUnicode:Eyecatch! Too much! (TV Size)
Artist:Tomatsu Haruka, Hikasa Yoko, Amamiya Sora
ArtistUnicode:戸松 遥、日笠陽子、雨宮 天
Creator:Kagari
Version:Cup!!
Source:WWW.WORKING!!
Tags:opening anime Japanese WWW.WAGNARIA!! 宮越華 村主さゆり 鎌倉志保 Hana Miyakoshi Sayuri Muranushi Shiho Kamakura 田形美喜子 大隅知宇 Mikiko Tagata Tomotaka Osumi
BeatmapID:1152446
BeatmapSetID:542127

[Difficulty]
HPDrainRate:2
CircleSize:3
OverallDifficulty:6
ApproachRate:6
SliderMultiplier:1.45
SliderTickRate:1

[Events]
//Background and Video events
Video,340,"opvid.avi"
0,0,"wwworking.png",0,0
//Break Periods
//Storyboard Layer 0 (Background)
//Storyboard Layer 1 (Fail)
//Storyboard Layer 2 (Pass)
//Storyboard Layer 3 (Foreground)
//Storyboard Layer 4 (Overlay)
//Storyboard Sound Samples

[TimingPoints]
473,250,4,2,2,60,1,0
473,-133.333333333333,4,2,2,60,0,0
6473,-133.333333333333,4,2,1,80,0,1
23473,-133.333333333333,4,2,1,75,0,0
28598,-133.333333333333,4,2,2,65,0,0
31973,-133.333333333333,4,2,1,70,0,0
36598,-133.333333333333,4,2,2,65,0,0
38473,-133.333333333333,4,2,1,70,0,0
58473,-133.333333333333,4,2,1,80,0,1
75473,-133.333333333333,4,2,1,65,0,0
76473,-133.333333333333,4,2,1,80,0,1
86473,-133.333333333333,4,2,1,75,0,0

[Colours]
Combo1 : 93,84,101
Combo2 : 196,125,69
Combo3 : 178,104,121
Combo4 : 227,207,196
Combo5 : 223,218,106

[HitObjects]
368,256,473,6,0,P|392:152|360:48,1,217.500008296967,2|2,0:0|0:0,0:0:0:0:
168,256,1473,2,0,P|144:152|176:48,1,217.500008296967,2|2,0:0|0:0,0:0:0:0:
376,184,2473,6,0,P|288:240|200:184,1,217.500008296967,2|2,0:0|0:0,0:0:0:0:
400,32,3473,2,0,P|464:168|344:264,1,326.25001244545,2|2,0:0|0:0,0:0:0:0:
224,56,4473,6,0,P|168:184|240:304,1,290.000011062622,2|0,0:0|0:0,0:0:0:0:
360,200,5389,1,0,0:0:0:0:
376,136,5473,1,2,0:0:0:0:
376,200,5723,2,0,L|352:88,1,108.750004148483,0|0,0:0|0:0,0:0:0:0:
248,72,6223,1,0,0:0:0:0:
128,56,6473,6,0,P|48:176|128:328,1,326.25001244545,6|8,1:2|0:0,0:0:0:0:
256,264,7473,1,2,1:2:0:0:
304,216,7723,1,8,0:0:0:0:
208,200,7973,1,2,1:2:0:0:
384,56,8473,6,0,P|464:176|384:328,1,326.25001244545,2|8,1:2|0:0,0:0:0:0:
256,264,9473,1,2,1:2:0:0:
208,208,9723,1,8,0:0:0:0:
304,200,9973,1,2,1:2:0:0:
88,72,10473,5,2,1:2:0:0:
184,96,10723,2,0,P|272:144|336:240,1,217.500008296967,8|8,0:0|0:0,0:0:0:0:
232,224,11473,1,2,1:2:0:0:
328,304,11723,2,0,P|360:232|280:136,1,217.500008296967,8|8,0:0|0:0,0:0:0:0:
168,272,12473,5,2,1:2:0:0:
360,184,12973,1,2,1:2:0:0:
168,168,13473,1,2,1:2:0:0:
72,64,13723,1,8,0:0:0:0:
168,96,13973,1,10,0:0:0:0:
256,64,14223,1,10,0:0:0:0:
376,56,14473,6,0,P|456:176|376:328,1,326.25001244545,6|8,1:2|0:0,0:0:0:0:
280,264,15473,1,2,1:2:0:0:
280,192,15723,1,8,0:0:0:0:
376,192,15973,1,2,1:2:0:0:
160,48,16473,6,0,P|80:168|160:320,1,326.25001244545,2|8,1:2|0:0,0:0:0:0:
264,264,17473,1,2,1:2:0:0:
264,192,17723,1,8,0:0:0:0:
160,192,17973,1,2,1:2:0:0:
384,96,18473,5,2,1:2:0:0:
296,144,18723,1,8,0:0:0:0:
384,176,18973,1,10,1:2:0:0:
160,216,19473,1,2,1:2:0:0:
248,96,19723,2,0,L|160:160,1,108.750004148483,8|10,0:0|0:0,0:0:0:0:
160,288,20223,1,8,0:0:0:0:
288,168,20473,5,2,1:2:0:0:
392,144,20723,2,0,P|392:248|296:288,1,217.500008296967,8|8,0:0|0:0,0:0:0:0:
184,120,21473,1,2,1:2:0:0:
264,120,21723,2,0,P|336:200|304:296,1,217.500008296967,8|8,0:0|0:0,0:0:0:0:
176,64,22473,6,0,P|88:160|176:312,1,326.25001244545,10|8,0:0|0:0,0:0:0:0:
304,256,23473,1,10,0:0:0:0:
416,112,24473,6,0,P|416:200|336:240,1,181.250006914139,6|8,1:2|0:0,0:0:0:0:
240,248,25139,1,8,0:0:0:0:
384,152,25473,2,0,P|384:232|304:280,1,181.250006914139,6|8,1:2|0:0,0:0:0:0:
208,128,26139,1,8,0:0:0:0:
72,104,26473,6,0,P|104:152|144:184,1,108.750004148483,6|8,1:2|0:0,0:0:0:0:
272,112,26973,2,0,L|312:216,1,108.750004148483,10|8,1:2|0:0,0:0:0:0:
176,208,27473,2,0,L|176:136,1,72.5000027656556,2|0,1:2|0:0,0:0:0:0:
280,128,27848,1,2,1:2:0:0:
232,80,27973,1,10,1:2:0:0:
40,80,28473,5,4,0:0:0:0:
392,152,30473,1,2,0:0:0:0:
200,144,31973,1,2,1:2:0:0:
312,72,32223,1,8,0:0:0:0:
200,80,32473,5,2,1:2:0:0:
144,80,32723,2,0,P|144:168|256:208,1,217.500008296967,8|8,0:0|0:0,0:0:0:0:
304,208,33348,1,0,0:0:0:0:
424,184,33598,2,0,L|360:96,1,108.750004148483,0|0,0:0|0:0,0:0:0:0:
296,248,33973,2,0,L|256:144,1,108.750004148483,2|8,1:2|0:0,0:0:0:0:
368,56,34473,1,2,1:2:0:0:
400,64,34723,6,0,P|392:160|288:192,1,217.500008296967,8|8,0:0|0:0,0:0:0:0:
240,192,35348,1,0,0:0:0:0:
360,112,35723,1,8,0:0:0:0:
256,232,35973,1,10,1:2:0:0:
152,184,36223,1,8,0:0:0:0:
256,168,36473,1,6,1:2:0:0:
408,104,38473,5,2,1:2:0:0:
200,96,38973,1,2,1:2:0:0:
368,240,39348,2,0,P|376:168|320:104,1,163.125006222725,2|8,1:2|0:0,0:0:0:0:
200,72,39973,1,2,0:0:0:0:
440,48,40473,5,6,1:2:0:0:
440,72,40723,2,0,P|392:168|288:192,1,217.500008296967,8|8,0:0|0:0,0:0:0:0:
240,192,41348,1,0,0:0:0:0:
128,216,41598,2,0,L|160:112,1,108.750004148483,0|0,0:0|0:0,0:0:0:0:
216,248,41973,2,0,L|272:152,1,108.750004148483,2|8,1:2|0:0,0:0:0:0:
144,48,42473,5,2,1:2:0:0:
72,72,42723,2,0,P|112:176|208:200,1,217.500008296967,8|8,0:0|0:0,0:0:0:0:
248,200,43348,1,0,0:0:0:0:
392,120,43723,1,8,0:0:0:0:
288,240,43973,1,8,0:0:0:0:
392,232,44223,1,8,0:0:0:0:
272,80,44473,5,10,0:3:0:0:
272,112,44723,1,8,0:3:0:0:
272,192,45223,1,8,0:0:0:0:
392,288,45473,2,0,P|352:224|272:192,1,163.125006222725,10|2,1:2|1:2,0:0:0:0:
168,160,46098,1,8,0:0:0:0:
344,104,46473,5,10,0:3:0:0:
344,88,46723,1,8,0:3:0:0:
344,160,47223,1,8,0:0:0:0:
224,272,47473,2,0,P|264:208|344:176,1,163.125006222725,2|0,0:0|0:0,0:0:0:0:
448,144,48098,1,8,0:0:0:0:
272,96,48473,5,10,0:3:0:0:
272,144,48723,1,8,0:3:0:0:
128,144,49223,1,8,0:0:0:0:
248,160,49473,2,0,L|144:288,2,163.125006222725,10|0|8,1:2|0:0|0:0,0:0:0:0:
368,88,50473,6,0,L|448:168,2,108.750004148483,6|8|10,1:2|0:0|1:2,0:0:0:0:
144,240,51473,2,0,L|64:160,2,108.750004148483,10|8|10,1:2|0:0|1:2,0:0:0:0:
368,240,52473,6,0,L|448:160,2,108.750004148483,10|8|10,1:2|0:0|1:2,0:0:0:0:
144,48,53473,1,2,1:2:0:0:
192,96,53723,1,8,0:0:0:0:
280,120,53973,2,0,P|312:208|224:272,1,217.500008296967,2|10,1:2|1:2,0:0:0:0:
120,168,54723,5,8,0:0:0:0:
224,128,54973,1,2,1:2:0:0:
224,64,55139,1,8,0:0:0:0:
328,64,55389,1,8,0:0:0:0:
400,128,55639,1,0,0:0:0:0:
304,192,55973,1,10,1:2:0:0:
224,192,56223,1,8,0:0:0:0:
104,80,56473,5,10,1:2:0:0:
224,80,56723,1,8,0:0:0:0:
104,136,56973,1,8,0:3:0:0:
48,144,57098,2,8,L|48:256,1,108.750004148483,0|6,0:0|1:2,0:0:0:0:
160,200,57723,1,10,0:0:0:0:
400,32,58473,6,0,P|480:152|400:304,1,326.25001244545,6|8,1:2|0:0,0:0:0:0:
272,240,59473,1,2,1:2:0:0:
224,192,59723,1,8,0:0:0:0:
320,176,59973,1,2,1:2:0:0:
112,64,60473,6,0,P|32:184|112:336,1,326.25001244545,2|8,1:2|0:0,0:0:0:0:
240,272,61473,1,2,1:2:0:0:
288,216,61723,1,8,0:0:0:0:
168,200,61973,1,2,1:2:0:0:
376,72,62473,5,6,1:2:0:0:
280,96,62723,2,0,P|304:192|408:248,1,217.500008296967,8|8,0:0|0:0,0:0:0:0:
288,208,63473,1,2,1:2:0:0:
176,256,63723,2,0,P|152:160|224:72,1,217.500008296967,8|8,0:0|0:0,0:0:0:0:
344,224,64473,5,2,1:2:0:0:
152,176,64973,1,2,1:2:0:0:
344,160,65473,1,2,1:2:0:0:
440,200,65723,2,0,P|384:120|272:80,1,217.500008296967,8|8,0:0|0:0,0:0:0:0:
152,224,66473,5,6,1:2:0:0:
64,224,66723,2,0,P|72:120|168:72,1,217.500008296967,8|8,0:0|0:0,0:0:0:0:
280,264,67473,1,2,1:2:0:0:
216,200,67723,1,8,0:0:0:0:
152,128,67973,1,2,1:2:0:0:
376,224,68473,5,2,1:2:0:0:
464,224,68723,2,0,P|456:120|360:72,1,217.500008296967,8|8,0:0|0:0,0:0:0:0:
240,264,69473,1,2,1:2:0:0:
304,192,69723,1,8,0:0:0:0:
368,128,69973,1,2,1:2:0:0:
168,104,70473,6,0,L|96:192,2,108.750004148483,2|8|10,1:2|0:0|1:2,0:0:0:0:
328,104,71473,2,0,L|416:176,2,108.750004148483,2|8|10,1:2|0:0|0:0,0:0:0:0:
144,104,72473,5,2,1:2:0:0:
264,120,72723,2,0,P|272:208|168:264,1,217.500008296967,8|8,0:0|0:0,0:0:0:0:
56,184,73473,1,2,1:2:0:0:
176,112,73723,2,0,P|288:176|296:256,1,217.500008296967,8|8,0:0|0:0,0:0:0:0:
168,64,74473,6,0,P|48:176|144:248,1,326.25001244545,10|8,1:2|0:0,0:0:0:0:
272,208,75473,1,12,0:0:0:0:
456,304,76473,6,0,P|456:192|296:72,1,326.25001244545,6|8,1:2|0:0,0:0:0:0:
184,56,77473,2,0,P|128:144|200:208,1,217.500008296967,2|0,1:2|1:0,0:0:0:0:
432,280,78473,6,0,P|416:136|264:64,1,326.25001244545,6|8,1:2|0:0,0:0:0:0:
168,56,79473,2,0,P|96:128|120:232,1,217.500008296967,2|0,1:2|1:0,0:0:0:0:
352,240,80473,6,0,L|416:152,2,108.750004148483,2|8|2,1:2|0:0|1:2,0:0:0:0:
160,256,81473,2,0,L|96:168,2,108.750004148483,2|8|2,1:2|0:0|1:2,0:0:0:0:
384,264,82473,5,2,1:2:0:0:
440,216,82723,2,0,L|376:128,1,108.750004148483,8|2,0:0|1:2,0:0:0:0:
256,72,83223,1,8,0:0:0:0:
128,264,83473,1,2,1:2:0:0:
72,216,83723,2,0,L|136:128,1,108.750004148483,8|2,0:0|1:2,0:0:0:0:
256,72,84223,1,8,0:0:0:0:
368,128,84473,5,2,1:2:0:0:
368,200,84723,1,8,0:0:0:0:
248,128,84973,1,2,1:2:0:0:
248,200,85223,1,8,0:0:0:0:
128,192,85473,1,2,1:2:0:0:
440,256,86473,5,10,1:2:0:0:
440,176,86598,1,8,0:0:0:0:
328,184,86848,1,10,1:2:0:0:
328,120,86973,1,8,0:0:0:0:
216,152,87223,1,10,1:2:0:0:
216,80,87348,1,8,0:0:0:0:
328,256,87598,5,10,1:2:0:0:
328,192,87723,1,8,0:0:0:0:
440,168,87973,1,10,1:2:0:0:
328,112,88223,1,8,0:0:0:0:
216,104,88473,1,12,1:2:0:0:
