osu file format v14

[General]
AudioFilename: audio.mp3
AudioLeadIn: 0
PreviewTime: 57733
Countdown: 0
SampleSet: Normal
StackLeniency: 0.7
Mode: 1
LetterboxInBreaks: 0
WidescreenStoryboard: 0

[Editor]
Bookmarks: 6478,14478,24478,28478,32477,36478,40478,44478,50478,58478,66478,76478,80478,84478,88478,92478,96478,102478,110478,118478,128477,136478,144478,148478,158478,160478,162478,166478,176478,186478,188478,192478
DistanceSpacing: 0.8
BeatDivisor: 6
GridSize: 32
TimelineZoom: 3.2

[Metadata]
Title:Eyecatch! Too Much!
TitleUnicode:Eyecatch! Too Much!
Artist:Tomatsu Haruka, Hikasa Yoko, Amamiya Sora
ArtistUnicode:戸松 遥、日笠陽子、雨宮 天
Creator:Volta
Version:Nishizumi's Oni
Source:WWW.WORKING!!
Tags:taiko opening full WWW.WAGNARIA!! 宮越華 村主さゆり 鎌倉志保 Hana Miyakoshi Sayuri Muranushi Shiho Kamakura JUDYDANNY Nishizumi
BeatmapID:1179365
BeatmapSetID:554873

[Difficulty]
HPDrainRate:5
CircleSize:4
OverallDifficulty:5.5
ApproachRate:6
SliderMultiplier:1.4
SliderTickRate:3

[Events]
//Background and Video events
0,0,"work.jpg",0,70
//Break Periods
//Storyboard Layer 0 (Background)
//Storyboard Layer 1 (Fail)
//Storyboard Layer 2 (Pass)
//Storyboard Layer 3 (Foreground)
//Storyboard Sound Samples

[TimingPoints]
515,250,4,1,0,90,1,0
6515,-100,4,1,0,90,0,1
24515,-100,4,1,0,90,0,0
28452,-117.647058823529,4,1,0,90,0,0
32452,-100,4,1,0,90,0,0
36452,-117.647058823529,4,1,0,90,0,0
40452,-100,4,1,0,90,0,0
44452,-117.647058823529,4,1,0,90,0,0
50452,-100,4,1,0,90,0,0
58515,-100,4,1,0,90,0,1
76515,-100,4,1,0,90,0,0
80452,-117.647058823529,4,1,0,90,0,0
84452,-100,4,1,0,90,0,0
88452,-117.647058823529,4,1,0,90,0,0
92452,-111.111111111111,4,1,0,90,0,0
94452,-105.263157894737,4,1,0,90,0,0
96452,-100,4,1,0,90,0,0
110515,-100,4,1,0,90,0,1
128515,-100,4,1,0,90,0,0
144452,-117.647058823529,4,1,0,90,0,0
148452,-100,4,1,0,90,0,0
158452,-117.647058823529,4,1,0,90,0,0
160452,-111.111111111111,4,1,0,90,0,0
162452,-100,4,1,0,90,0,0
162515,-100,4,1,0,90,0,1
176515,-100,4,1,0,90,0,0

[HitObjects]
256,192,515,5,4,0:0:0:0:
256,192,1515,1,4,0:0:0:0:
256,192,2515,1,4,0:0:0:0:
256,192,3015,1,4,0:0:0:0:
256,192,3515,1,4,0:0:0:0:
256,192,3765,1,4,0:0:0:0:
256,192,4015,1,4,0:0:0:0:
256,192,4265,1,4,0:0:0:0:
256,192,4515,1,8,0:0:0:0:
256,192,6015,1,0,0:0:0:0:
256,192,6515,1,4,0:0:0:0:
256,192,6765,1,8,0:0:0:0:
256,192,7015,1,0,0:0:0:0:
256,192,7181,1,0,0:0:0:0:
256,192,7265,1,8,0:0:0:0:
256,192,7515,1,0,0:0:0:0:
256,192,7765,1,8,0:0:0:0:
256,192,7931,1,8,0:0:0:0:
256,192,8015,1,0,0:0:0:0:
256,192,8181,1,0,0:0:0:0:
256,192,8265,1,8,0:0:0:0:
256,192,8515,1,4,0:0:0:0:
256,192,8765,1,8,0:0:0:0:
256,192,9015,1,0,0:0:0:0:
256,192,9181,1,0,0:0:0:0:
256,192,9265,1,8,0:0:0:0:
256,192,9515,1,0,0:0:0:0:
256,192,9765,1,8,0:0:0:0:
256,192,9931,1,8,0:0:0:0:
256,192,10015,1,0,0:0:0:0:
256,192,10181,1,0,0:0:0:0:
256,192,10265,1,8,0:0:0:0:
256,192,10515,1,4,0:0:0:0:
256,192,10765,1,8,0:0:0:0:
256,192,11015,1,0,0:0:0:0:
256,192,11181,1,0,0:0:0:0:
256,192,11265,1,8,0:0:0:0:
256,192,11431,1,8,0:0:0:0:
256,192,11515,1,0,0:0:0:0:
256,192,11765,1,8,0:0:0:0:
256,192,12015,1,0,0:0:0:0:
256,192,12181,1,0,0:0:0:0:
256,192,12265,1,8,0:0:0:0:
256,192,12431,1,8,0:0:0:0:
256,192,12515,1,0,0:0:0:0:
256,192,12765,1,12,0:0:0:0:
256,192,13015,1,0,0:0:0:0:
256,192,13265,1,12,0:0:0:0:
256,192,13515,1,0,0:0:0:0:
256,192,13765,1,12,0:0:0:0:
256,192,14015,1,8,0:0:0:0:
256,192,14181,1,8,0:0:0:0:
256,192,14265,1,8,0:0:0:0:
256,192,14431,1,8,0:0:0:0:
256,192,14515,1,0,0:0:0:0:
256,192,14765,1,8,0:0:0:0:
256,192,15015,1,0,0:0:0:0:
256,192,15181,1,0,0:0:0:0:
256,192,15265,1,8,0:0:0:0:
256,192,15515,1,0,0:0:0:0:
256,192,15765,1,8,0:0:0:0:
256,192,15931,1,8,0:0:0:0:
256,192,16015,1,0,0:0:0:0:
256,192,16181,1,0,0:0:0:0:
256,192,16265,1,8,0:0:0:0:
256,192,16515,1,4,0:0:0:0:
256,192,16765,1,8,0:0:0:0:
256,192,17015,1,0,0:0:0:0:
256,192,17181,1,0,0:0:0:0:
256,192,17265,1,8,0:0:0:0:
256,192,17515,1,0,0:0:0:0:
256,192,17765,1,8,0:0:0:0:
256,192,17931,1,8,0:0:0:0:
256,192,18015,1,0,0:0:0:0:
256,192,18181,1,0,0:0:0:0:
256,192,18265,1,8,0:0:0:0:
256,192,18515,1,0,0:0:0:0:
256,192,18765,1,12,0:0:0:0:
256,192,19015,1,8,0:0:0:0:
256,192,19181,1,0,0:0:0:0:
256,192,19265,1,8,0:0:0:0:
256,192,19431,1,8,0:0:0:0:
256,192,19515,1,0,0:0:0:0:
256,192,19765,1,12,0:0:0:0:
256,192,20015,1,8,0:0:0:0:
256,192,20181,1,8,0:0:0:0:
256,192,20265,1,8,0:0:0:0:
256,192,20431,1,8,0:0:0:0:
256,192,20515,1,0,0:0:0:0:
256,192,20765,1,12,0:0:0:0:
256,192,21015,1,0,0:0:0:0:
256,192,21265,1,12,0:0:0:0:
256,192,21515,1,0,0:0:0:0:
256,192,21765,1,12,0:0:0:0:
256,192,22015,1,0,0:0:0:0:
256,192,22265,1,12,0:0:0:0:
256,192,22515,1,12,0:0:0:0:
256,192,22681,1,0,0:0:0:0:
256,192,22765,1,8,0:0:0:0:
256,192,23015,1,12,0:0:0:0:
256,192,23181,1,0,0:0:0:0:
256,192,23265,1,8,0:0:0:0:
256,192,23431,1,8,0:0:0:0:
256,192,23515,1,0,0:0:0:0:
256,192,24515,1,8,0:0:0:0:
256,192,24681,1,0,0:0:0:0:
256,192,24931,1,0,0:0:0:0:
256,192,25181,1,0,0:0:0:0:
256,192,25431,1,0,0:0:0:0:
256,192,25515,1,8,0:0:0:0:
256,192,25681,1,0,0:0:0:0:
256,192,25931,1,0,0:0:0:0:
256,192,26181,1,0,0:0:0:0:
256,192,26431,1,0,0:0:0:0:
256,192,26515,1,8,0:0:0:0:
256,192,26765,1,0,0:0:0:0:
256,192,26890,1,0,0:0:0:0:
256,192,27015,1,8,0:0:0:0:
256,192,27265,1,8,0:0:0:0:
256,192,27390,1,8,0:0:0:0:
256,192,27515,1,0,0:0:0:0:
256,192,27765,1,0,0:0:0:0:
256,192,28015,1,8,0:0:0:0:
256,192,28515,1,4,0:0:0:0:
256,192,28765,1,8,0:0:0:0:
256,192,29265,1,8,0:0:0:0:
256,192,29765,1,8,0:0:0:0:
256,192,30265,1,8,0:0:0:0:
256,192,30515,1,0,0:0:0:0:
256,192,30765,1,8,0:0:0:0:
256,192,31265,1,8,0:0:0:0:
256,192,31765,1,8,0:0:0:0:
256,192,32015,1,0,0:0:0:0:
256,192,32140,1,0,0:0:0:0:
256,192,32264,1,12,0:0:0:0:
256,192,32514,1,0,0:0:0:0:
256,192,32764,1,8,0:0:0:0:
256,192,33015,1,0,0:0:0:0:
256,192,33265,1,8,0:0:0:0:
256,192,33390,1,0,0:0:0:0:
256,192,33640,1,0,0:0:0:0:
256,192,33765,1,8,0:0:0:0:
256,192,33890,1,8,0:0:0:0:
256,192,34015,1,0,0:0:0:0:
256,192,34265,1,8,0:0:0:0:
256,192,34515,1,0,0:0:0:0:
256,192,34765,1,8,0:0:0:0:
256,192,35016,1,0,0:0:0:0:
256,192,35266,1,8,0:0:0:0:
256,192,35391,1,0,0:0:0:0:
256,192,35640,1,0,0:0:0:0:
256,192,35765,1,12,0:0:0:0:
256,192,36015,1,12,0:0:0:0:
256,192,36265,1,12,0:0:0:0:
256,192,36515,1,4,0:0:0:0:
256,192,36765,1,8,0:0:0:0:
256,192,37265,1,8,0:0:0:0:
256,192,37765,1,8,0:0:0:0:
256,192,38265,1,8,0:0:0:0:
256,192,38515,1,0,0:0:0:0:
256,192,38640,1,8,0:0:0:0:
256,192,38890,1,8,0:0:0:0:
256,192,39015,1,0,0:0:0:0:
256,192,39265,1,8,0:0:0:0:
256,192,39390,1,0,0:0:0:0:
256,192,39640,1,0,0:0:0:0:
256,192,39765,1,12,0:0:0:0:
256,192,40015,1,0,0:0:0:0:
256,192,40140,1,0,0:0:0:0:
256,192,40265,1,12,0:0:0:0:
256,192,40515,1,0,0:0:0:0:
256,192,40765,1,8,0:0:0:0:
256,192,41016,1,0,0:0:0:0:
256,192,41266,1,8,0:0:0:0:
256,192,41391,1,0,0:0:0:0:
256,192,41641,1,0,0:0:0:0:
256,192,41766,1,8,0:0:0:0:
256,192,41891,1,8,0:0:0:0:
256,192,42015,1,0,0:0:0:0:
256,192,42266,1,8,0:0:0:0:
256,192,42516,1,0,0:0:0:0:
256,192,42766,1,8,0:0:0:0:
256,192,43015,1,0,0:0:0:0:
256,192,43265,1,8,0:0:0:0:
256,192,43390,1,0,0:0:0:0:
256,192,43641,1,0,0:0:0:0:
256,192,43766,1,12,0:0:0:0:
256,192,44015,1,8,0:0:0:0:
256,192,44140,1,8,0:0:0:0:
256,192,44265,1,0,0:0:0:0:
256,192,44515,1,12,0:0:0:0:
256,192,44765,1,12,0:0:0:0:
256,192,45015,1,0,0:0:0:0:
256,192,45265,1,0,0:0:0:0:
256,192,45515,1,12,0:0:0:0:
256,192,45765,1,0,0:0:0:0:
256,192,45890,1,8,0:0:0:0:
256,192,46140,1,8,0:0:0:0:
256,192,46515,1,12,0:0:0:0:
256,192,46765,1,12,0:0:0:0:
256,192,47015,1,0,0:0:0:0:
256,192,47265,1,0,0:0:0:0:
256,192,47515,1,8,0:0:0:0:
256,192,47640,1,8,0:0:0:0:
256,192,47765,1,0,0:0:0:0:
256,192,48015,1,8,0:0:0:0:
256,192,48140,1,0,0:0:0:0:
256,192,48515,1,12,0:0:0:0:
256,192,48765,1,12,0:0:0:0:
256,192,49015,1,0,0:0:0:0:
256,192,49140,1,0,0:0:0:0:
256,192,49265,1,0,0:0:0:0:
256,192,49515,1,8,0:0:0:0:
256,192,49765,1,8,0:0:0:0:
256,192,49890,1,0,0:0:0:0:
256,192,50140,1,8,0:0:0:0:
256,192,50515,1,4,0:0:0:0:
256,192,50765,1,8,0:0:0:0:
256,192,51015,1,8,0:0:0:0:
256,192,51265,1,8,0:0:0:0:
256,192,51431,1,8,0:0:0:0:
256,192,51515,1,0,0:0:0:0:
256,192,51765,1,8,0:0:0:0:
256,192,52015,1,8,0:0:0:0:
256,192,52265,1,8,0:0:0:0:
256,192,52348,1,8,0:0:0:0:
256,192,52431,1,8,0:0:0:0:
256,192,52515,1,0,0:0:0:0:
256,192,52765,1,8,0:0:0:0:
256,192,53015,1,8,0:0:0:0:
256,192,53265,1,8,0:0:0:0:
256,192,53431,1,8,0:0:0:0:
256,192,53515,1,0,0:0:0:0:
256,192,53765,1,8,0:0:0:0:
256,192,54015,1,8,0:0:0:0:
256,192,54265,1,8,0:0:0:0:
256,192,54348,1,8,0:0:0:0:
256,192,54431,1,8,0:0:0:0:
256,192,54515,1,0,0:0:0:0:
256,192,54765,1,8,0:0:0:0:
256,192,55015,1,8,0:0:0:0:
256,192,55265,1,8,0:0:0:0:
256,192,55431,1,8,0:0:0:0:
256,192,55515,1,0,0:0:0:0:
256,192,55765,1,8,0:0:0:0:
256,192,56015,1,8,0:0:0:0:
256,192,56265,1,8,0:0:0:0:
256,192,56348,1,8,0:0:0:0:
256,192,56431,1,8,0:0:0:0:
256,192,56515,1,0,0:0:0:0:
256,192,56765,1,8,0:0:0:0:
256,192,57015,1,8,0:0:0:0:
256,192,57265,1,8,0:0:0:0:
256,192,57390,1,0,0:0:0:0:
256,192,57765,1,12,0:0:0:0:
256,192,58515,5,4,0:0:0:0:
256,192,58765,1,8,0:0:0:0:
256,192,59015,1,0,0:0:0:0:
256,192,59181,1,0,0:0:0:0:
256,192,59265,1,8,0:0:0:0:
256,192,59515,1,0,0:0:0:0:
256,192,59765,1,8,0:0:0:0:
256,192,59931,1,8,0:0:0:0:
256,192,60015,1,0,0:0:0:0:
256,192,60181,1,0,0:0:0:0:
256,192,60265,1,8,0:0:0:0:
256,192,60515,1,4,0:0:0:0:
256,192,60765,1,8,0:0:0:0:
256,192,61015,1,0,0:0:0:0:
256,192,61181,1,0,0:0:0:0:
256,192,61265,1,8,0:0:0:0:
256,192,61515,1,0,0:0:0:0:
256,192,61765,1,8,0:0:0:0:
256,192,61931,1,8,0:0:0:0:
256,192,62015,1,0,0:0:0:0:
256,192,62181,1,0,0:0:0:0:
256,192,62265,1,8,0:0:0:0:
256,192,62515,1,4,0:0:0:0:
256,192,62765,1,8,0:0:0:0:
256,192,63015,1,0,0:0:0:0:
256,192,63181,1,0,0:0:0:0:
256,192,63265,1,8,0:0:0:0:
256,192,63431,1,8,0:0:0:0:
256,192,63515,1,0,0:0:0:0:
256,192,63765,1,8,0:0:0:0:
256,192,64015,1,0,0:0:0:0:
256,192,64181,1,0,0:0:0:0:
256,192,64265,1,8,0:0:0:0:
256,192,64431,1,8,0:0:0:0:
256,192,64515,1,0,0:0:0:0:
256,192,64765,1,12,0:0:0:0:
256,192,65015,1,0,0:0:0:0:
256,192,65265,1,12,0:0:0:0:
256,192,65515,1,0,0:0:0:0:
256,192,65765,1,12,0:0:0:0:
256,192,66015,1,8,0:0:0:0:
256,192,66181,1,8,0:0:0:0:
256,192,66265,1,8,0:0:0:0:
256,192,66431,1,8,0:0:0:0:
256,192,66515,1,0,0:0:0:0:
256,192,66765,1,8,0:0:0:0:
256,192,67015,1,0,0:0:0:0:
256,192,67181,1,0,0:0:0:0:
256,192,67265,1,8,0:0:0:0:
256,192,67515,1,0,0:0:0:0:
256,192,67765,1,8,0:0:0:0:
256,192,67931,1,8,0:0:0:0:
256,192,68015,1,0,0:0:0:0:
256,192,68181,1,0,0:0:0:0:
256,192,68265,1,8,0:0:0:0:
256,192,68515,1,4,0:0:0:0:
256,192,68765,1,8,0:0:0:0:
256,192,69015,1,0,0:0:0:0:
256,192,69181,1,0,0:0:0:0:
256,192,69265,1,8,0:0:0:0:
256,192,69515,1,0,0:0:0:0:
256,192,69765,1,8,0:0:0:0:
256,192,69931,1,8,0:0:0:0:
256,192,70015,1,0,0:0:0:0:
256,192,70181,1,0,0:0:0:0:
256,192,70265,1,8,0:0:0:0:
256,192,70515,1,0,0:0:0:0:
256,192,70765,1,12,0:0:0:0:
256,192,71015,1,8,0:0:0:0:
256,192,71181,1,0,0:0:0:0:
256,192,71265,1,8,0:0:0:0:
256,192,71431,1,8,0:0:0:0:
256,192,71515,1,0,0:0:0:0:
256,192,71765,1,12,0:0:0:0:
256,192,72015,1,8,0:0:0:0:
256,192,72181,1,8,0:0:0:0:
256,192,72265,1,8,0:0:0:0:
256,192,72431,1,8,0:0:0:0:
256,192,72515,1,0,0:0:0:0:
256,192,72765,1,12,0:0:0:0:
256,192,73015,1,0,0:0:0:0:
256,192,73265,1,12,0:0:0:0:
256,192,73515,1,0,0:0:0:0:
256,192,73765,1,12,0:0:0:0:
256,192,74015,1,0,0:0:0:0:
256,192,74265,1,12,0:0:0:0:
256,192,74515,1,12,0:0:0:0:
256,192,74681,1,0,0:0:0:0:
256,192,74765,1,8,0:0:0:0:
256,192,75015,1,12,0:0:0:0:
256,192,75181,1,0,0:0:0:0:
256,192,75265,1,8,0:0:0:0:
256,192,75348,1,8,0:0:0:0:
256,192,75431,1,8,0:0:0:0:
256,192,75515,1,0,0:0:0:0:
256,192,76515,1,8,0:0:0:0:
256,192,76681,1,0,0:0:0:0:
256,192,76931,1,0,0:0:0:0:
256,192,77181,1,0,0:0:0:0:
256,192,77431,1,0,0:0:0:0:
256,192,77515,1,8,0:0:0:0:
256,192,77681,1,0,0:0:0:0:
256,192,77931,1,0,0:0:0:0:
256,192,78181,1,0,0:0:0:0:
256,192,78431,1,0,0:0:0:0:
256,192,78515,1,8,0:0:0:0:
256,192,78765,1,0,0:0:0:0:
256,192,78848,1,0,0:0:0:0:
256,192,78931,1,0,0:0:0:0:
256,192,79015,1,8,0:0:0:0:
256,192,79265,1,8,0:0:0:0:
256,192,79348,1,8,0:0:0:0:
256,192,79431,1,8,0:0:0:0:
256,192,79515,1,0,0:0:0:0:
256,192,79765,1,0,0:0:0:0:
256,192,80015,1,8,0:0:0:0:
256,192,80515,1,4,0:0:0:0:
256,192,80765,1,8,0:0:0:0:
256,192,81265,1,8,0:0:0:0:
256,192,81765,1,8,0:0:0:0:
256,192,82265,1,8,0:0:0:0:
256,192,82515,1,0,0:0:0:0:
256,192,82765,1,8,0:0:0:0:
256,192,83265,1,8,0:0:0:0:
256,192,83765,1,8,0:0:0:0:
256,192,84015,1,0,0:0:0:0:
256,192,84140,1,0,0:0:0:0:
256,192,84264,1,12,0:0:0:0:
256,192,84514,1,0,0:0:0:0:
256,192,84765,1,8,0:0:0:0:
256,192,84890,1,0,0:0:0:0:
256,192,85015,1,8,0:0:0:0:
256,192,85265,1,8,0:0:0:0:
256,192,85390,1,0,0:0:0:0:
256,192,85640,1,0,0:0:0:0:
256,192,85890,1,0,0:0:0:0:
256,192,86015,1,8,0:0:0:0:
256,192,86265,1,8,0:0:0:0:
256,192,86515,1,0,0:0:0:0:
256,192,86765,1,8,0:0:0:0:
256,192,86890,1,0,0:0:0:0:
256,192,87015,1,8,0:0:0:0:
256,192,87265,1,8,0:0:0:0:
256,192,87390,1,0,0:0:0:0:
256,192,87640,1,0,0:0:0:0:
256,192,87890,1,0,0:0:0:0:
256,192,88015,1,8,0:0:0:0:
256,192,88265,1,8,0:0:0:0:
256,192,88515,1,4,0:0:0:0:
256,192,89015,1,8,0:0:0:0:
256,192,89181,1,0,0:0:0:0:
256,192,89431,1,0,0:0:0:0:
256,192,89765,1,12,0:0:0:0:
256,192,90515,1,8,0:0:0:0:
256,192,90640,1,8,0:0:0:0:
256,192,90765,1,0,0:0:0:0:
256,192,91015,1,0,0:0:0:0:
256,192,91140,1,8,0:0:0:0:
256,192,91390,1,8,0:0:0:0:
256,192,91765,1,12,0:0:0:0:
256,192,92015,1,0,0:0:0:0:
256,192,92140,1,8,0:0:0:0:
256,192,92390,1,8,0:0:0:0:
256,192,92515,1,0,0:0:0:0:
256,192,92765,1,8,0:0:0:0:
256,192,92890,1,0,0:0:0:0:
256,192,93015,1,8,0:0:0:0:
256,192,93265,1,8,0:0:0:0:
256,192,93390,1,0,0:0:0:0:
256,192,93640,1,8,0:0:0:0:
256,192,93890,1,0,0:0:0:0:
256,192,94015,1,8,0:0:0:0:
256,192,94265,1,0,0:0:0:0:
256,192,94515,1,8,0:0:0:0:
256,192,94640,1,0,0:0:0:0:
256,192,94890,1,8,0:0:0:0:
256,192,95015,1,0,0:0:0:0:
256,192,95265,1,8,0:0:0:0:
256,192,95390,1,0,0:0:0:0:
256,192,95640,1,8,0:0:0:0:
256,192,95765,1,0,0:0:0:0:
256,192,96015,1,8,0:0:0:0:
256,192,96098,1,8,0:0:0:0:
256,192,96181,1,8,0:0:0:0:
256,192,96265,1,0,0:0:0:0:
256,192,96515,1,12,0:0:0:0:
256,192,96765,1,12,0:0:0:0:
256,192,97015,1,0,0:0:0:0:
256,192,97265,1,0,0:0:0:0:
256,192,97515,1,12,0:0:0:0:
256,192,97765,1,0,0:0:0:0:
256,192,97890,1,8,0:0:0:0:
256,192,98140,1,8,0:0:0:0:
256,192,98515,1,12,0:0:0:0:
256,192,98765,1,12,0:0:0:0:
256,192,99015,1,0,0:0:0:0:
256,192,99265,1,0,0:0:0:0:
256,192,99515,1,8,0:0:0:0:
256,192,99598,1,8,0:0:0:0:
256,192,99681,1,8,0:0:0:0:
256,192,99765,1,0,0:0:0:0:
256,192,100015,1,8,0:0:0:0:
256,192,100140,1,0,0:0:0:0:
256,192,100515,1,12,0:0:0:0:
256,192,100765,1,12,0:0:0:0:
256,192,101015,1,8,0:0:0:0:
256,192,101098,1,8,0:0:0:0:
256,192,101181,1,8,0:0:0:0:
256,192,101265,1,0,0:0:0:0:
256,192,101515,1,12,0:0:0:0:
256,192,101765,1,8,0:0:0:0:
256,192,101890,1,0,0:0:0:0:
256,192,102140,1,8,0:0:0:0:
256,192,102515,1,4,0:0:0:0:
256,192,102765,1,8,0:0:0:0:
256,192,103015,1,8,0:0:0:0:
256,192,103265,1,8,0:0:0:0:
256,192,103431,1,8,0:0:0:0:
256,192,103515,1,0,0:0:0:0:
256,192,103765,1,8,0:0:0:0:
256,192,104015,1,8,0:0:0:0:
256,192,104265,1,8,0:0:0:0:
256,192,104348,1,8,0:0:0:0:
256,192,104431,1,8,0:0:0:0:
256,192,104515,1,0,0:0:0:0:
256,192,104765,1,8,0:0:0:0:
256,192,105015,1,8,0:0:0:0:
256,192,105265,1,8,0:0:0:0:
256,192,105431,1,8,0:0:0:0:
256,192,105515,1,0,0:0:0:0:
256,192,105765,1,8,0:0:0:0:
256,192,106015,1,8,0:0:0:0:
256,192,106265,1,8,0:0:0:0:
256,192,106348,1,8,0:0:0:0:
256,192,106431,1,8,0:0:0:0:
256,192,106515,1,0,0:0:0:0:
256,192,106765,1,8,0:0:0:0:
256,192,107015,1,8,0:0:0:0:
256,192,107265,1,8,0:0:0:0:
256,192,107431,1,8,0:0:0:0:
256,192,107515,1,0,0:0:0:0:
256,192,107765,1,8,0:0:0:0:
256,192,108015,1,8,0:0:0:0:
256,192,108265,1,8,0:0:0:0:
256,192,108348,1,8,0:0:0:0:
256,192,108431,1,8,0:0:0:0:
256,192,108515,1,0,0:0:0:0:
256,192,108765,1,8,0:0:0:0:
256,192,109015,1,8,0:0:0:0:
256,192,109265,1,8,0:0:0:0:
256,192,109390,1,0,0:0:0:0:
256,192,109765,5,12,0:0:0:0:
256,192,110515,5,4,0:0:0:0:
256,192,110765,1,8,0:0:0:0:
256,192,111015,1,0,0:0:0:0:
256,192,111181,1,0,0:0:0:0:
256,192,111265,1,8,0:0:0:0:
256,192,111515,1,0,0:0:0:0:
256,192,111765,1,8,0:0:0:0:
256,192,111931,1,8,0:0:0:0:
256,192,112015,1,0,0:0:0:0:
256,192,112181,1,0,0:0:0:0:
256,192,112265,1,8,0:0:0:0:
256,192,112515,1,4,0:0:0:0:
256,192,112765,1,8,0:0:0:0:
256,192,113015,1,0,0:0:0:0:
256,192,113181,1,0,0:0:0:0:
256,192,113265,1,8,0:0:0:0:
256,192,113515,1,0,0:0:0:0:
256,192,113765,1,8,0:0:0:0:
256,192,113931,1,8,0:0:0:0:
256,192,114015,1,0,0:0:0:0:
256,192,114181,1,0,0:0:0:0:
256,192,114265,1,8,0:0:0:0:
256,192,114515,1,4,0:0:0:0:
256,192,114765,1,8,0:0:0:0:
256,192,115015,1,0,0:0:0:0:
256,192,115181,1,0,0:0:0:0:
256,192,115265,1,8,0:0:0:0:
256,192,115431,1,8,0:0:0:0:
256,192,115515,1,0,0:0:0:0:
256,192,115765,1,8,0:0:0:0:
256,192,116015,1,0,0:0:0:0:
256,192,116181,1,0,0:0:0:0:
256,192,116265,1,8,0:0:0:0:
256,192,116431,1,8,0:0:0:0:
256,192,116515,1,0,0:0:0:0:
256,192,116765,1,12,0:0:0:0:
256,192,117015,1,0,0:0:0:0:
256,192,117265,1,12,0:0:0:0:
256,192,117515,1,0,0:0:0:0:
256,192,117765,1,12,0:0:0:0:
256,192,118015,1,8,0:0:0:0:
256,192,118181,1,8,0:0:0:0:
256,192,118265,1,8,0:0:0:0:
256,192,118348,1,8,0:0:0:0:
256,192,118431,1,8,0:0:0:0:
256,192,118515,1,0,0:0:0:0:
256,192,118765,1,8,0:0:0:0:
256,192,119015,1,0,0:0:0:0:
256,192,119181,1,0,0:0:0:0:
256,192,119265,1,8,0:0:0:0:
256,192,119515,1,0,0:0:0:0:
256,192,119765,1,8,0:0:0:0:
256,192,119931,1,8,0:0:0:0:
256,192,120015,1,0,0:0:0:0:
256,192,120181,1,0,0:0:0:0:
256,192,120265,1,8,0:0:0:0:
256,192,120515,1,4,0:0:0:0:
256,192,120765,1,8,0:0:0:0:
256,192,121015,1,0,0:0:0:0:
256,192,121181,1,0,0:0:0:0:
256,192,121265,1,8,0:0:0:0:
256,192,121515,1,0,0:0:0:0:
256,192,121765,1,8,0:0:0:0:
256,192,121931,1,8,0:0:0:0:
256,192,122015,1,0,0:0:0:0:
256,192,122181,1,0,0:0:0:0:
256,192,122265,1,8,0:0:0:0:
256,192,122515,1,0,0:0:0:0:
256,192,122765,1,12,0:0:0:0:
256,192,123015,1,8,0:0:0:0:
256,192,123181,1,0,0:0:0:0:
256,192,123265,1,8,0:0:0:0:
256,192,123431,1,8,0:0:0:0:
256,192,123515,1,0,0:0:0:0:
256,192,123765,1,12,0:0:0:0:
256,192,124015,1,8,0:0:0:0:
256,192,124181,1,8,0:0:0:0:
256,192,124265,1,8,0:0:0:0:
256,192,124348,1,8,0:0:0:0:
256,192,124431,1,8,0:0:0:0:
256,192,124515,1,0,0:0:0:0:
256,192,124765,1,12,0:0:0:0:
256,192,125015,1,0,0:0:0:0:
256,192,125265,1,12,0:0:0:0:
256,192,125515,1,0,0:0:0:0:
256,192,125765,1,12,0:0:0:0:
256,192,126015,1,0,0:0:0:0:
256,192,126265,1,12,0:0:0:0:
256,192,126515,1,12,0:0:0:0:
256,192,126681,1,0,0:0:0:0:
256,192,126765,1,8,0:0:0:0:
256,192,127015,1,12,0:0:0:0:
256,192,127181,1,0,0:0:0:0:
256,192,127265,1,8,0:0:0:0:
256,192,127348,1,8,0:0:0:0:
256,192,127431,1,8,0:0:0:0:
256,192,127515,1,0,0:0:0:0:
256,192,128515,1,0,0:0:0:0:
256,192,128681,1,0,0:0:0:0:
256,192,128931,1,0,0:0:0:0:
256,192,129181,1,0,0:0:0:0:
256,192,129431,1,0,0:0:0:0:
256,192,129514,1,8,0:0:0:0:
256,192,129764,1,8,0:0:0:0:
256,192,130014,1,12,0:0:0:0:
256,192,130514,1,8,0:0:0:0:
256,192,130681,1,8,0:0:0:0:
256,192,130931,1,8,0:0:0:0:
256,192,131181,1,8,0:0:0:0:
256,192,131431,1,8,0:0:0:0:
256,192,131515,1,0,0:0:0:0:
256,192,131765,1,0,0:0:0:0:
256,192,132015,1,4,0:0:0:0:
256,192,132515,1,8,0:0:0:0:
256,192,132682,1,8,0:0:0:0:
256,192,132932,1,8,0:0:0:0:
256,192,133182,1,8,0:0:0:0:
256,192,133431,1,0,0:0:0:0:
256,192,133514,1,8,0:0:0:0:
256,192,133764,1,8,0:0:0:0:
256,192,134014,1,12,0:0:0:0:
256,192,134515,1,0,0:0:0:0:
256,192,134681,1,0,0:0:0:0:
256,192,134931,1,0,0:0:0:0:
256,192,135181,1,0,0:0:0:0:
256,192,135431,1,8,0:0:0:0:
256,192,135515,1,0,0:0:0:0:
256,192,135765,1,0,0:0:0:0:
256,192,136015,1,4,0:0:0:0:
256,192,136265,1,8,0:0:0:0:
256,192,136515,1,4,0:0:0:0:
256,192,136681,1,8,0:0:0:0:
256,192,136931,1,8,0:0:0:0:
256,192,137181,1,8,0:0:0:0:
256,192,137431,1,8,0:0:0:0:
256,192,137515,1,0,0:0:0:0:
256,192,137765,1,0,0:0:0:0:
256,192,138015,1,8,0:0:0:0:
256,160,138515,1,8,0:0:0:0:
256,160,138681,1,0,0:0:0:0:
256,160,138931,1,0,0:0:0:0:
256,160,139181,1,0,0:0:0:0:
256,160,139431,1,0,0:0:0:0:
256,160,139515,1,8,0:0:0:0:
256,160,139765,1,8,0:0:0:0:
256,160,140015,1,0,0:0:0:0:
256,192,140515,1,0,0:0:0:0:
256,192,140681,1,8,0:0:0:0:
256,192,140931,1,8,0:0:0:0:
256,192,141181,1,8,0:0:0:0:
256,192,141431,1,0,0:0:0:0:
256,192,141515,1,8,0:0:0:0:
256,192,141765,1,8,0:0:0:0:
256,192,142015,1,8,0:0:0:0:
256,192,142515,1,8,0:0:0:0:
256,192,142681,1,0,0:0:0:0:
256,192,142931,1,0,0:0:0:0:
256,192,143181,1,0,0:0:0:0:
256,192,143431,1,8,0:0:0:0:
256,192,143515,1,0,0:0:0:0:
256,192,143765,1,0,0:0:0:0:
256,192,144015,1,0,0:0:0:0:
256,192,144265,1,8,0:0:0:0:
256,192,144515,5,4,0:0:0:0:
256,192,145515,5,4,0:0:0:0:
256,192,146515,5,4,0:0:0:0:
256,192,147515,5,4,0:0:0:0:
256,192,147765,1,8,0:0:0:0:
256,192,148015,1,8,0:0:0:0:
256,192,148181,1,0,0:0:0:0:
256,192,148265,1,8,0:0:0:0:
256,192,148515,1,4,0:0:0:0:
256,192,148765,1,8,0:0:0:0:
256,192,149015,1,8,0:0:0:0:
256,192,149265,1,8,0:0:0:0:
256,192,149431,1,8,0:0:0:0:
256,192,149515,1,0,0:0:0:0:
256,192,149765,1,8,0:0:0:0:
256,192,150015,1,8,0:0:0:0:
256,192,150265,1,8,0:0:0:0:
256,192,150348,1,8,0:0:0:0:
256,192,150431,1,8,0:0:0:0:
256,192,150515,1,0,0:0:0:0:
256,192,150765,1,8,0:0:0:0:
256,192,151015,1,8,0:0:0:0:
256,192,151265,1,8,0:0:0:0:
256,192,151431,1,8,0:0:0:0:
256,192,151515,1,0,0:0:0:0:
256,192,151765,1,8,0:0:0:0:
256,192,152015,1,8,0:0:0:0:
256,192,152265,1,8,0:0:0:0:
256,192,152348,1,8,0:0:0:0:
256,192,152431,1,8,0:0:0:0:
256,192,152515,1,0,0:0:0:0:
256,192,152765,1,8,0:0:0:0:
256,192,153015,1,8,0:0:0:0:
256,192,153265,1,8,0:0:0:0:
256,192,153431,1,8,0:0:0:0:
256,192,153515,1,0,0:0:0:0:
256,192,153765,1,8,0:0:0:0:
256,192,154015,1,8,0:0:0:0:
256,192,154265,1,8,0:0:0:0:
256,192,154348,1,8,0:0:0:0:
256,192,154431,1,8,0:0:0:0:
256,192,154515,1,0,0:0:0:0:
256,192,154765,1,8,0:0:0:0:
256,192,155015,1,8,0:0:0:0:
256,192,155265,1,8,0:0:0:0:
256,192,155390,1,0,0:0:0:0:
256,192,155765,1,12,0:0:0:0:
256,192,156515,1,0,0:0:0:0:
256,192,158515,1,4,0:0:0:0:
256,192,159515,1,0,0:0:0:0:
256,192,159681,1,8,0:0:0:0:
256,192,159931,1,8,0:0:0:0:
256,192,160515,1,4,0:0:0:0:
256,192,160765,1,0,0:0:0:0:
256,192,160931,1,0,0:0:0:0:
256,192,161015,1,8,0:0:0:0:
256,192,161265,1,0,0:0:0:0:
256,192,161515,1,8,0:0:0:0:
256,192,161598,1,8,0:0:0:0:
256,192,161681,1,8,0:0:0:0:
256,192,161765,1,0,0:0:0:0:
256,192,162015,1,0,0:0:0:0:
256,192,162098,1,0,0:0:0:0:
256,192,162181,1,0,0:0:0:0:
256,192,162265,1,8,0:0:0:0:
256,192,162515,1,4,0:0:0:0:
256,192,162765,1,8,0:0:0:0:
256,192,163015,1,0,0:0:0:0:
256,192,163181,1,0,0:0:0:0:
256,192,163265,1,8,0:0:0:0:
256,192,163431,1,8,0:0:0:0:
256,192,163515,1,0,0:0:0:0:
256,192,163765,1,8,0:0:0:0:
256,192,164015,1,0,0:0:0:0:
256,192,164181,1,0,0:0:0:0:
256,192,164265,1,8,0:0:0:0:
256,192,164431,1,8,0:0:0:0:
256,192,164515,1,0,0:0:0:0:
256,192,164765,1,12,0:0:0:0:
256,192,165015,1,0,0:0:0:0:
256,192,165265,1,12,0:0:0:0:
256,192,165515,1,0,0:0:0:0:
256,192,165765,1,12,0:0:0:0:
256,192,166015,1,8,0:0:0:0:
256,192,166098,1,8,0:0:0:0:
256,192,166181,1,8,0:0:0:0:
256,192,166265,1,8,0:0:0:0:
256,192,166348,1,8,0:0:0:0:
256,192,166431,1,8,0:0:0:0:
256,192,166515,1,0,0:0:0:0:
256,192,166765,1,8,0:0:0:0:
256,192,167015,1,0,0:0:0:0:
256,192,167181,1,0,0:0:0:0:
256,192,167265,1,8,0:0:0:0:
256,192,167515,1,0,0:0:0:0:
256,192,167765,1,8,0:0:0:0:
256,192,167931,1,8,0:0:0:0:
256,192,168015,1,0,0:0:0:0:
256,192,168181,1,0,0:0:0:0:
256,192,168265,1,8,0:0:0:0:
256,192,168515,1,4,0:0:0:0:
256,192,168765,1,8,0:0:0:0:
256,192,169015,1,0,0:0:0:0:
256,192,169181,1,0,0:0:0:0:
256,192,169265,1,8,0:0:0:0:
256,192,169515,1,0,0:0:0:0:
256,192,169765,1,8,0:0:0:0:
256,192,169931,1,8,0:0:0:0:
256,192,170015,1,0,0:0:0:0:
256,192,170181,1,0,0:0:0:0:
256,192,170265,1,8,0:0:0:0:
256,192,170515,1,0,0:0:0:0:
256,192,170765,1,12,0:0:0:0:
256,192,171015,1,8,0:0:0:0:
256,192,171181,1,0,0:0:0:0:
256,192,171265,1,8,0:0:0:0:
256,192,171348,1,8,0:0:0:0:
256,192,171431,1,8,0:0:0:0:
256,192,171515,1,0,0:0:0:0:
256,192,171765,1,12,0:0:0:0:
256,192,172015,1,8,0:0:0:0:
256,192,172098,1,8,0:0:0:0:
256,192,172181,1,8,0:0:0:0:
256,192,172265,1,8,0:0:0:0:
256,192,172348,1,8,0:0:0:0:
256,192,172431,1,8,0:0:0:0:
256,192,172515,1,0,0:0:0:0:
256,192,172765,1,12,0:0:0:0:
256,192,173015,1,0,0:0:0:0:
256,192,173265,1,12,0:0:0:0:
256,192,173515,1,0,0:0:0:0:
256,192,173765,1,12,0:0:0:0:
256,192,174015,1,0,0:0:0:0:
256,192,174265,1,12,0:0:0:0:
256,192,174515,1,12,0:0:0:0:
256,192,174681,1,0,0:0:0:0:
256,192,174765,1,8,0:0:0:0:
256,192,174931,1,0,0:0:0:0:
256,192,175015,1,8,0:0:0:0:
256,192,175181,1,0,0:0:0:0:
256,192,175265,1,8,0:0:0:0:
256,192,175348,1,8,0:0:0:0:
256,192,175431,1,8,0:0:0:0:
256,192,175515,1,0,0:0:0:0:
256,192,176515,1,4,0:0:0:0:
256,192,176765,1,8,0:0:0:0:
256,192,177181,1,0,0:0:0:0:
256,192,177265,1,8,0:0:0:0:
256,192,177515,1,0,0:0:0:0:
256,192,177765,1,8,0:0:0:0:
256,192,178015,1,0,0:0:0:0:
256,192,178181,1,0,0:0:0:0:
256,192,178265,1,8,0:0:0:0:
256,192,178515,1,4,0:0:0:0:
256,192,178765,1,8,0:0:0:0:
256,192,179181,1,0,0:0:0:0:
256,192,179265,1,8,0:0:0:0:
256,192,179515,1,0,0:0:0:0:
256,192,179765,1,8,0:0:0:0:
256,192,180015,1,0,0:0:0:0:
256,192,180181,1,0,0:0:0:0:
256,192,180265,1,8,0:0:0:0:
256,192,180515,1,0,0:0:0:0:
256,192,180765,1,12,0:0:0:0:
256,192,181015,1,0,0:0:0:0:
256,192,181265,1,12,0:0:0:0:
256,192,181515,1,0,0:0:0:0:
256,192,181765,1,12,0:0:0:0:
256,192,182015,1,8,0:0:0:0:
256,192,182098,1,8,0:0:0:0:
256,192,182181,1,8,0:0:0:0:
256,192,182265,1,8,0:0:0:0:
256,192,182348,1,8,0:0:0:0:
256,192,182431,1,8,0:0:0:0:
256,192,182515,1,0,0:0:0:0:
256,192,182765,1,12,0:0:0:0:
256,192,183015,1,0,0:0:0:0:
256,192,183265,1,12,0:0:0:0:
256,192,183515,1,0,0:0:0:0:
256,192,183765,1,12,0:0:0:0:
256,192,184015,1,0,0:0:0:0:
256,192,184265,1,12,0:0:0:0:
256,192,184515,1,12,0:0:0:0:
256,192,184681,1,0,0:0:0:0:
256,192,184765,1,8,0:0:0:0:
256,192,184931,1,0,0:0:0:0:
256,192,185015,1,8,0:0:0:0:
256,192,185181,1,0,0:0:0:0:
256,192,185265,1,8,0:0:0:0:
256,192,185348,1,8,0:0:0:0:
256,192,185431,1,8,0:0:0:0:
256,192,185515,1,0,0:0:0:0:
256,192,186515,1,0,0:0:0:0:
256,192,186640,1,0,0:0:0:0:
256,192,186890,1,8,0:0:0:0:
256,192,187015,1,8,0:0:0:0:
256,192,187265,1,0,0:0:0:0:
256,192,187390,1,0,0:0:0:0:
256,192,187640,1,8,0:0:0:0:
256,192,187765,1,8,0:0:0:0:
256,192,188015,1,0,0:0:0:0:
256,192,188265,1,0,0:0:0:0:
256,192,188515,1,12,0:0:0:0:
256,192,188640,12,0,190390,0:0:0:0:
256,192,190515,5,8,0:0:0:0:
256,192,190681,1,0,0:0:0:0:
256,192,190931,1,8,0:0:0:0:
256,192,191181,1,8,0:0:0:0:
256,192,191431,1,0,0:0:0:0:
256,192,191515,1,8,0:0:0:0:
256,192,191765,1,8,0:0:0:0:
256,192,192015,1,4,0:0:0:0:
