osu file format v14

[General]
AudioFilename: audio.mp3
AudioLeadIn: 0
PreviewTime: 57733
Countdown: 0
SampleSet: Normal
StackLeniency: 0.7
Mode: 1
LetterboxInBreaks: 0
WidescreenStoryboard: 0

[Editor]
DistanceSpacing: 0.8
BeatDivisor: 2
GridSize: 32
TimelineZoom: 1.600001

[Metadata]
Title:Eyecatch! Too Much!
TitleUnicode:Eyecatch! Too Much!
Artist:Tomatsu Haruka, Hikasa Yoko, Amamiya Sora
ArtistUnicode:戸松 遥、日笠陽子、雨宮 天
Creator:Volta
Version:JuDa's Muzukashii
Source:WWW.WORKING!!
Tags:taiko opening full WWW.WAGNARIA!! 宮越華 村主さゆり 鎌倉志保 Hana Miyakoshi Sayuri Muranushi Shiho Kamakura JUDYDANNY Nishizumi
BeatmapID:1179364
BeatmapSetID:554873

[Difficulty]
HPDrainRate:6
CircleSize:6
OverallDifficulty:5
ApproachRate:6
SliderMultiplier:1.4
SliderTickRate:3

[Events]
//Background and Video events
0,0,"work.jpg",0,70
//Break Periods
//Storyboard Layer 0 (Background)
//Storyboard Layer 1 (Fail)
//Storyboard Layer 2 (Pass)
//Storyboard Layer 3 (Foreground)
//Storyboard Sound Samples

[TimingPoints]
515,250,4,1,0,90,1,0
6515,-100,4,1,0,90,0,1
24515,-100,4,1,0,90,0,0
58515,-100,4,1,0,90,0,1
76515,-100,4,1,0,90,0,0
110515,-100,4,1,0,90,0,1
128514,-100,4,1,0,90,0,0
162515,-100,4,1,0,90,0,1
176515,-100,4,1,0,90,0,0

[HitObjects]
256,192,515,5,0,0:0:0:0:
256,192,1515,1,0,0:0:0:0:
256,192,2515,1,0,0:0:0:0:
256,192,3015,1,0,0:0:0:0:
256,192,3515,1,0,0:0:0:0:
256,192,3765,1,0,0:0:0:0:
256,192,4015,1,0,0:0:0:0:
256,192,4265,1,0,0:0:0:0:
256,192,4515,1,8,0:0:0:0:
234,130,4681,1,8,0:0:0:0:
234,130,4931,1,8,0:0:0:0:
234,130,5181,1,8,0:0:0:0:
256,32,5431,1,8,0:0:0:0:
231,94,5515,1,8,0:0:0:0:
256,192,5765,1,8,0:0:0:0:
256,192,6015,1,8,0:0:0:0:
256,192,6515,5,4,0:0:0:0:
256,192,6765,1,8,0:0:0:0:
256,192,6890,1,8,0:0:0:0:
201,101,7015,1,0,0:0:0:0:
256,192,7265,1,8,0:0:0:0:
256,192,7515,1,0,0:0:0:0:
224,160,7640,1,8,0:0:0:0:
256,192,7890,1,8,0:0:0:0:
256,192,8015,1,0,0:0:0:0:
256,192,8515,1,4,0:0:0:0:
256,192,8765,1,8,0:0:0:0:
256,192,8890,1,8,0:0:0:0:
256,192,9015,1,0,0:0:0:0:
256,192,9265,1,8,0:0:0:0:
256,192,9515,1,8,0:0:0:0:
256,192,9640,1,0,0:0:0:0:
256,192,9890,1,0,0:0:0:0:
256,160,10015,1,8,0:0:0:0:
160,32,10515,1,0,0:0:0:0:
192,96,10765,1,8,0:0:0:0:
160,0,11015,1,0,0:0:0:0:
160,32,11140,1,0,0:0:0:0:
160,32,11265,1,8,0:0:0:0:
160,32,11515,1,0,0:0:0:0:
160,32,11765,1,8,0:0:0:0:
160,32,12015,1,0,0:0:0:0:
192,0,12140,1,0,0:0:0:0:
160,32,12265,1,8,0:0:0:0:
160,32,12390,1,8,0:0:0:0:
160,32,12515,1,0,0:0:0:0:
160,32,12765,1,12,0:0:0:0:
160,32,13015,1,0,0:0:0:0:
160,32,13265,1,12,0:0:0:0:
160,32,13515,1,0,0:0:0:0:
160,32,13765,1,12,0:0:0:0:
256,0,14015,1,12,0:0:0:0:
160,32,14515,1,4,0:0:0:0:
128,128,14765,1,8,0:0:0:0:
160,64,14890,1,8,0:0:0:0:
160,32,15015,1,0,0:0:0:0:
160,64,15265,1,8,0:0:0:0:
160,64,15515,1,0,0:0:0:0:
160,64,15640,1,8,0:0:0:0:
160,64,15890,1,8,0:0:0:0:
160,64,16015,1,0,0:0:0:0:
160,64,16515,1,4,0:0:0:0:
160,64,16765,1,8,0:0:0:0:
160,64,16890,1,8,0:0:0:0:
160,64,17015,1,0,0:0:0:0:
160,64,17265,1,8,0:0:0:0:
160,64,17515,1,8,0:0:0:0:
160,64,17640,1,0,0:0:0:0:
160,64,17890,1,0,0:0:0:0:
160,64,18015,1,8,0:0:0:0:
160,64,18265,1,8,0:0:0:0:
160,64,18515,1,0,0:0:0:0:
160,64,18765,1,12,0:0:0:0:
164,32,19015,1,12,0:0:0:0:
160,64,19515,1,0,0:0:0:0:
160,64,19765,1,12,0:0:0:0:
160,64,20015,1,12,0:0:0:0:
160,64,20515,1,0,0:0:0:0:
160,64,20765,1,8,0:0:0:0:
160,64,21015,1,0,0:0:0:0:
160,64,21265,1,8,0:0:0:0:
160,64,21515,1,0,0:0:0:0:
160,64,21765,1,8,0:0:0:0:
160,64,22015,1,0,0:0:0:0:
160,64,22265,1,8,0:0:0:0:
160,64,22515,1,12,0:0:0:0:
160,64,22765,1,12,0:0:0:0:
160,64,23015,1,12,0:0:0:0:
160,64,23265,1,12,0:0:0:0:
146,27,23515,1,4,0:0:0:0:
160,64,24515,5,8,0:0:0:0:
160,64,24681,1,0,0:0:0:0:
160,64,24931,1,0,0:0:0:0:
160,64,25181,1,0,0:0:0:0:
160,64,25515,5,8,0:0:0:0:
164,35,25681,1,0,0:0:0:0:
164,35,25931,1,0,0:0:0:0:
164,35,26181,1,0,0:0:0:0:
164,35,26515,1,8,0:0:0:0:
227,114,26765,1,8,0:0:0:0:
188,25,26890,1,8,0:0:0:0:
227,114,27015,1,0,0:0:0:0:
233,123,27265,1,8,0:0:0:0:
202,39,27515,1,12,0:0:0:0:
188,25,27765,1,4,0:0:0:0:
188,25,28015,1,12,0:0:0:0:
188,25,28515,5,0,0:0:0:0:
188,25,28765,1,8,0:0:0:0:
188,25,29265,1,8,0:0:0:0:
188,25,29765,1,8,0:0:0:0:
188,25,30265,1,8,0:0:0:0:
188,25,30515,1,0,0:0:0:0:
188,25,30765,1,8,0:0:0:0:
188,25,31265,1,8,0:0:0:0:
188,25,31765,1,8,0:0:0:0:
188,25,32015,1,0,0:0:0:0:
161,37,32140,1,0,0:0:0:0:
188,25,32265,1,8,0:0:0:0:
188,25,32515,5,4,0:0:0:0:
188,25,32765,1,8,0:0:0:0:
188,25,33015,1,0,0:0:0:0:
188,25,33265,1,0,0:0:0:0:
188,25,33390,1,8,0:0:0:0:
188,25,33640,1,8,0:0:0:0:
188,25,34015,1,0,0:0:0:0:
188,25,34265,1,8,0:0:0:0:
188,25,34515,1,0,0:0:0:0:
188,25,34765,1,8,0:0:0:0:
188,25,35015,1,0,0:0:0:0:
188,25,35265,1,0,0:0:0:0:
188,25,35390,1,8,0:0:0:0:
188,25,35640,1,8,0:0:0:0:
188,25,35765,5,0,0:0:0:0:
188,25,36015,1,8,0:0:0:0:
188,25,36265,1,8,0:0:0:0:
188,25,36515,5,0,0:0:0:0:
188,25,36765,1,8,0:0:0:0:
188,25,37265,1,8,0:0:0:0:
188,25,37765,1,8,0:0:0:0:
188,25,38265,1,8,0:0:0:0:
188,25,38515,1,8,0:0:0:0:
188,25,38640,1,0,0:0:0:0:
188,25,38890,1,0,0:0:0:0:
188,25,39015,1,8,0:0:0:0:
188,25,39265,1,8,0:0:0:0:
188,25,39390,1,0,0:0:0:0:
188,25,39765,1,8,0:0:0:0:
188,25,40015,1,0,0:0:0:0:
188,25,40265,1,8,0:0:0:0:
188,25,40515,5,4,0:0:0:0:
188,25,40765,1,8,0:0:0:0:
188,25,41015,1,0,0:0:0:0:
188,25,41265,1,0,0:0:0:0:
188,25,41390,1,8,0:0:0:0:
188,25,41640,1,8,0:0:0:0:
188,25,42015,1,0,0:0:0:0:
188,25,42140,1,0,0:0:0:0:
188,25,42265,1,8,0:0:0:0:
188,25,42515,1,0,0:0:0:0:
188,25,42765,1,8,0:0:0:0:
188,25,43015,1,0,0:0:0:0:
188,25,43140,1,0,0:0:0:0:
188,25,43265,1,8,0:0:0:0:
188,25,43390,1,0,0:0:0:0:
188,25,43640,1,0,0:0:0:0:
188,25,43765,1,8,0:0:0:0:
188,25,44015,1,8,0:0:0:0:
188,25,44265,1,8,0:0:0:0:
188,25,44515,1,4,0:0:0:0:
188,25,44765,1,4,0:0:0:0:
188,25,45515,1,4,0:0:0:0:
188,25,45890,1,12,0:0:0:0:
188,25,46140,1,12,0:0:0:0:
188,25,46515,1,4,0:0:0:0:
188,25,46765,1,4,0:0:0:0:
188,25,47515,1,4,0:0:0:0:
188,25,47890,1,12,0:0:0:0:
188,25,48140,1,12,0:0:0:0:
188,25,48515,1,4,0:0:0:0:
188,25,48765,1,4,0:0:0:0:
188,25,49515,1,4,0:0:0:0:
188,25,49890,1,12,0:0:0:0:
188,25,50265,1,8,0:0:0:0:
188,25,50515,5,0,0:0:0:0:
188,25,50765,1,8,0:0:0:0:
188,25,51015,1,8,0:0:0:0:
188,25,51265,1,0,0:0:0:0:
188,25,51390,1,0,0:0:0:0:
188,25,51515,1,8,0:0:0:0:
188,25,51765,1,8,0:0:0:0:
188,25,52015,1,0,0:0:0:0:
188,25,52265,1,8,0:0:0:0:
188,25,52515,1,8,0:0:0:0:
188,25,52765,1,0,0:0:0:0:
188,25,52890,1,0,0:0:0:0:
188,25,53015,1,8,0:0:0:0:
188,25,53265,1,8,0:0:0:0:
188,25,53515,1,0,0:0:0:0:
188,25,53765,1,8,0:0:0:0:
188,25,54015,1,0,0:0:0:0:
188,25,54515,5,8,0:0:0:0:
188,25,54765,1,0,0:0:0:0:
188,25,55015,1,8,0:0:0:0:
188,25,55181,1,8,0:0:0:0:
188,25,55431,1,0,0:0:0:0:
188,25,55681,1,8,0:0:0:0:
188,25,55890,1,8,0:0:0:0:
188,25,56015,1,0,0:0:0:0:
188,25,56265,1,8,0:0:0:0:
188,25,56515,1,8,0:0:0:0:
188,25,56765,1,8,0:0:0:0:
188,25,57015,1,0,0:0:0:0:
188,25,57181,1,8,0:0:0:0:
151,3,57390,1,0,0:0:0:0:
305,33,57765,1,12,0:0:0:0:
176,8,58515,5,4,0:0:0:0:
176,8,58765,1,8,0:0:0:0:
176,8,58890,1,8,0:0:0:0:
176,8,59015,1,0,0:0:0:0:
176,8,59265,1,8,0:0:0:0:
176,8,59515,1,0,0:0:0:0:
176,8,59640,1,8,0:0:0:0:
176,8,59890,1,8,0:0:0:0:
176,8,60015,1,0,0:0:0:0:
176,8,60515,1,4,0:0:0:0:
176,8,60765,1,8,0:0:0:0:
176,8,60890,1,8,0:0:0:0:
176,8,61015,1,0,0:0:0:0:
176,8,61265,1,8,0:0:0:0:
176,8,61515,1,8,0:0:0:0:
176,8,61640,1,0,0:0:0:0:
176,8,61890,1,0,0:0:0:0:
176,8,62015,1,8,0:0:0:0:
176,8,62515,5,0,0:0:0:0:
176,8,62765,1,8,0:0:0:0:
176,8,63015,1,0,0:0:0:0:
176,8,63140,1,0,0:0:0:0:
176,8,63265,1,8,0:0:0:0:
176,8,63515,1,0,0:0:0:0:
176,8,63765,1,8,0:0:0:0:
176,8,64015,1,0,0:0:0:0:
224,0,64140,1,0,0:0:0:0:
176,8,64265,1,8,0:0:0:0:
176,8,64390,1,8,0:0:0:0:
176,8,64515,1,0,0:0:0:0:
176,8,64765,1,12,0:0:0:0:
176,8,65015,1,0,0:0:0:0:
176,8,65265,1,12,0:0:0:0:
176,8,65515,1,0,0:0:0:0:
176,8,65765,1,12,0:0:0:0:
176,8,66015,1,12,0:0:0:0:
176,8,66515,5,4,0:0:0:0:
176,8,66765,1,8,0:0:0:0:
176,8,66890,1,8,0:0:0:0:
176,8,67015,1,0,0:0:0:0:
176,8,67265,1,8,0:0:0:0:
176,8,67515,1,0,0:0:0:0:
176,8,67640,1,8,0:0:0:0:
176,8,67890,1,8,0:0:0:0:
176,8,68015,1,0,0:0:0:0:
176,8,68515,1,4,0:0:0:0:
176,8,68765,1,8,0:0:0:0:
176,8,68890,1,8,0:0:0:0:
176,8,69015,1,0,0:0:0:0:
176,8,69265,1,8,0:0:0:0:
176,8,69515,1,8,0:0:0:0:
176,8,69640,1,0,0:0:0:0:
176,8,69890,1,0,0:0:0:0:
176,8,70015,1,8,0:0:0:0:
176,8,70265,1,8,0:0:0:0:
176,8,70515,1,0,0:0:0:0:
176,8,70765,1,12,0:0:0:0:
176,8,71015,1,12,0:0:0:0:
176,8,71515,1,0,0:0:0:0:
176,8,71765,1,12,0:0:0:0:
176,8,72015,1,12,0:0:0:0:
176,8,72515,1,0,0:0:0:0:
176,8,72765,1,8,0:0:0:0:
176,8,73015,1,0,0:0:0:0:
176,8,73265,1,8,0:0:0:0:
176,8,73515,1,0,0:0:0:0:
176,8,73765,1,8,0:0:0:0:
176,8,74015,1,0,0:0:0:0:
176,8,74265,1,8,0:0:0:0:
176,8,74515,1,12,0:0:0:0:
176,8,74765,1,12,0:0:0:0:
176,8,75015,1,12,0:0:0:0:
176,8,75265,1,12,0:0:0:0:
176,8,75515,1,4,0:0:0:0:
176,8,76515,5,8,0:0:0:0:
192,64,76681,1,0,0:0:0:0:
192,64,76931,1,0,0:0:0:0:
192,64,77181,1,0,0:0:0:0:
192,64,77515,5,8,0:0:0:0:
256,32,77681,1,0,0:0:0:0:
192,64,77931,1,0,0:0:0:0:
192,64,78181,1,0,0:0:0:0:
192,64,78515,1,8,0:0:0:0:
192,64,78765,1,8,0:0:0:0:
192,64,78890,1,8,0:0:0:0:
192,64,79015,1,0,0:0:0:0:
192,64,79265,1,8,0:0:0:0:
192,64,79515,1,12,0:0:0:0:
192,64,79765,1,4,0:0:0:0:
192,64,80015,1,12,0:0:0:0:
192,64,80515,5,0,0:0:0:0:
288,96,80765,1,8,0:0:0:0:
96,32,81265,1,8,0:0:0:0:
288,96,81765,1,8,0:0:0:0:
64,32,82265,1,8,0:0:0:0:
192,0,82515,1,0,0:0:0:0:
192,0,82765,1,8,0:0:0:0:
192,0,83015,1,0,0:0:0:0:
192,32,83181,1,8,0:0:0:0:
192,32,83431,1,0,0:0:0:0:
32,0,83765,1,8,0:0:0:0:
192,0,84015,1,0,0:0:0:0:
192,0,84265,1,8,0:0:0:0:
224,64,84515,1,0,0:0:0:0:
64,0,84890,1,0,0:0:0:0:
224,64,85015,1,8,0:0:0:0:
224,64,85390,1,0,0:0:0:0:
160,32,85640,1,0,0:0:0:0:
224,64,86015,1,8,0:0:0:0:
192,32,86265,1,8,0:0:0:0:
192,0,86515,1,0,0:0:0:0:
192,32,86890,1,0,0:0:0:0:
192,32,87015,1,8,0:0:0:0:
192,0,87390,1,0,0:0:0:0:
192,0,87640,1,8,0:0:0:0:
192,0,87890,1,0,0:0:0:0:
192,0,88015,1,8,0:0:0:0:
192,0,88515,1,0,0:0:0:0:
192,0,88765,1,0,0:0:0:0:
192,0,89015,1,8,0:0:0:0:
192,0,89181,1,0,0:0:0:0:
192,0,89431,1,0,0:0:0:0:
192,0,89765,1,4,0:0:0:0:
192,0,90515,1,8,0:0:0:0:
192,0,90765,1,8,0:0:0:0:
192,0,91015,1,0,0:0:0:0:
192,0,91181,1,8,0:0:0:0:
192,0,91431,1,8,0:0:0:0:
192,0,91765,1,12,0:0:0:0:
192,0,92515,1,0,0:0:0:0:
96,128,92890,1,0,0:0:0:0:
160,32,93015,1,8,0:0:0:0:
160,32,93390,1,0,0:0:0:0:
160,32,93640,1,0,0:0:0:0:
192,64,94015,1,8,0:0:0:0:
160,32,94265,1,0,0:0:0:0:
160,32,94515,1,8,0:0:0:0:
160,32,94640,1,0,0:0:0:0:
160,32,94890,1,0,0:0:0:0:
192,64,95015,1,8,0:0:0:0:
256,128,95265,1,8,0:0:0:0:
160,32,95390,1,0,0:0:0:0:
160,32,95640,1,0,0:0:0:0:
224,96,95765,1,8,0:0:0:0:
160,32,96015,1,8,0:0:0:0:
192,32,96140,1,8,0:0:0:0:
224,96,96265,1,8,0:0:0:0:
160,32,96515,1,4,0:0:0:0:
224,96,96765,1,4,0:0:0:0:
128,0,97515,1,4,0:0:0:0:
224,96,97890,1,12,0:0:0:0:
224,96,98140,1,12,0:0:0:0:
224,96,98515,1,4,0:0:0:0:
224,96,98765,1,4,0:0:0:0:
128,0,99515,1,4,0:0:0:0:
224,96,99890,1,12,0:0:0:0:
224,96,100140,1,12,0:0:0:0:
128,0,100515,1,4,0:0:0:0:
128,0,100765,1,4,0:0:0:0:
128,0,101515,1,4,0:0:0:0:
128,0,101890,1,12,0:0:0:0:
224,128,102265,1,8,0:0:0:0:
128,0,102515,1,0,0:0:0:0:
128,0,102765,1,8,0:0:0:0:
128,0,103015,1,8,0:0:0:0:
128,0,103265,1,0,0:0:0:0:
160,0,103390,1,0,0:0:0:0:
128,0,103515,1,8,0:0:0:0:
128,0,103765,1,8,0:0:0:0:
128,0,104015,1,0,0:0:0:0:
128,0,104265,1,8,0:0:0:0:
128,0,104515,1,8,0:0:0:0:
128,0,104765,1,0,0:0:0:0:
160,0,104890,1,0,0:0:0:0:
128,0,105015,1,8,0:0:0:0:
128,0,105265,1,8,0:0:0:0:
128,0,105515,1,0,0:0:0:0:
128,0,105765,1,8,0:0:0:0:
160,0,106015,1,0,0:0:0:0:
128,0,106515,1,8,0:0:0:0:
128,0,106765,1,0,0:0:0:0:
128,0,107015,1,8,0:0:0:0:
128,0,107181,1,8,0:0:0:0:
128,0,107431,1,0,0:0:0:0:
128,0,107681,1,8,0:0:0:0:
128,0,107890,1,8,0:0:0:0:
128,0,108015,1,0,0:0:0:0:
128,0,108265,1,8,0:0:0:0:
192,96,108515,1,8,0:0:0:0:
128,0,108765,1,8,0:0:0:0:
128,0,109015,1,0,0:0:0:0:
128,0,109140,1,8,0:0:0:0:
128,0,109390,1,0,0:0:0:0:
224,128,109765,1,12,0:0:0:0:
160,64,110515,5,4,0:0:0:0:
160,64,110765,1,8,0:0:0:0:
192,0,110890,1,8,0:0:0:0:
160,64,111015,1,0,0:0:0:0:
160,64,111265,1,8,0:0:0:0:
160,64,111515,1,0,0:0:0:0:
192,0,111640,1,8,0:0:0:0:
160,96,111890,1,8,0:0:0:0:
160,64,112015,1,0,0:0:0:0:
160,64,112515,1,4,0:0:0:0:
160,64,112765,1,8,0:0:0:0:
192,0,112890,1,8,0:0:0:0:
160,64,113015,1,0,0:0:0:0:
160,64,113265,1,8,0:0:0:0:
160,64,113515,1,8,0:0:0:0:
192,0,113640,1,0,0:0:0:0:
160,96,113890,1,0,0:0:0:0:
160,64,114015,1,8,0:0:0:0:
160,64,114515,1,0,0:0:0:0:
160,64,114765,1,8,0:0:0:0:
160,64,115015,1,0,0:0:0:0:
192,0,115140,1,0,0:0:0:0:
160,64,115265,1,8,0:0:0:0:
160,64,115515,1,0,0:0:0:0:
160,64,115765,1,8,0:0:0:0:
160,64,116015,1,0,0:0:0:0:
160,64,116140,1,0,0:0:0:0:
160,64,116265,1,8,0:0:0:0:
160,64,116390,1,8,0:0:0:0:
192,32,116515,1,0,0:0:0:0:
96,96,116765,1,12,0:0:0:0:
192,32,117015,1,0,0:0:0:0:
160,64,117265,1,12,0:0:0:0:
160,64,117515,1,0,0:0:0:0:
160,64,117765,1,12,0:0:0:0:
160,64,118015,1,12,0:0:0:0:
160,64,118515,1,4,0:0:0:0:
160,64,118765,1,8,0:0:0:0:
192,32,118890,1,8,0:0:0:0:
160,64,119015,1,0,0:0:0:0:
160,64,119265,1,8,0:0:0:0:
160,64,119515,1,0,0:0:0:0:
192,0,119640,1,8,0:0:0:0:
160,96,119890,1,8,0:0:0:0:
160,32,120015,1,0,0:0:0:0:
288,224,120515,1,4,0:0:0:0:
224,160,120765,1,8,0:0:0:0:
192,96,120890,1,8,0:0:0:0:
192,64,121015,1,0,0:0:0:0:
96,0,121265,1,8,0:0:0:0:
192,64,121515,1,8,0:0:0:0:
128,32,121640,1,0,0:0:0:0:
224,64,121890,1,0,0:0:0:0:
192,64,122015,1,8,0:0:0:0:
96,0,122265,1,8,0:0:0:0:
192,64,122515,1,0,0:0:0:0:
96,0,122765,1,12,0:0:0:0:
160,64,123015,1,12,0:0:0:0:
160,64,123515,1,0,0:0:0:0:
160,64,123765,1,12,0:0:0:0:
160,64,124015,1,12,0:0:0:0:
224,288,124515,1,0,0:0:0:0:
192,192,124765,1,8,0:0:0:0:
160,96,125015,1,0,0:0:0:0:
160,96,125265,1,8,0:0:0:0:
160,96,125515,1,0,0:0:0:0:
160,96,125765,1,8,0:0:0:0:
160,96,126015,1,0,0:0:0:0:
160,96,126265,1,8,0:0:0:0:
160,96,126515,1,12,0:0:0:0:
160,96,126765,1,12,0:0:0:0:
160,96,127015,1,12,0:0:0:0:
160,96,127265,1,12,0:0:0:0:
160,96,127515,1,4,0:0:0:0:
256,96,128514,5,0,0:0:0:0:
192,64,128681,1,0,0:0:0:0:
288,96,128931,1,0,0:0:0:0:
192,64,129181,1,0,0:0:0:0:
288,0,129431,1,0,0:0:0:0:
320,128,129514,1,0,0:0:0:0:
224,64,129765,1,0,0:0:0:0:
288,160,130015,1,8,0:0:0:0:
224,64,130514,1,8,0:0:0:0:
224,64,130681,1,8,0:0:0:0:
224,64,130931,1,8,0:0:0:0:
224,64,131181,1,8,0:0:0:0:
192,0,131431,1,8,0:0:0:0:
192,0,131515,1,8,0:0:0:0:
224,64,131765,1,0,0:0:0:0:
224,64,132015,1,8,0:0:0:0:
128,32,132515,1,0,0:0:0:0:
160,32,132681,1,0,0:0:0:0:
160,32,132931,1,0,0:0:0:0:
160,32,133181,1,0,0:0:0:0:
192,0,133431,1,0,0:0:0:0:
288,0,133515,1,0,0:0:0:0:
192,32,133765,1,0,0:0:0:0:
192,32,134015,1,8,0:0:0:0:
160,32,134515,1,8,0:0:0:0:
160,32,134681,1,8,0:0:0:0:
160,32,134931,1,8,0:0:0:0:
160,32,135181,1,8,0:0:0:0:
192,0,135431,1,8,0:0:0:0:
192,32,135515,1,8,0:0:0:0:
192,32,135765,1,8,0:0:0:0:
192,32,136015,1,0,0:0:0:0:
192,32,136265,1,8,0:0:0:0:
192,32,136515,5,4,0:0:0:0:
192,32,136765,1,8,0:0:0:0:
96,96,137015,1,0,0:0:0:0:
192,0,137181,1,8,0:0:0:0:
192,32,137431,1,8,0:0:0:0:
192,0,137765,1,0,0:0:0:0:
192,0,138015,1,8,0:0:0:0:
192,32,138515,1,0,0:0:0:0:
192,32,138765,1,8,0:0:0:0:
192,32,139015,1,0,0:0:0:0:
192,32,139181,1,8,0:0:0:0:
192,0,139431,1,8,0:0:0:0:
192,32,139765,1,8,0:0:0:0:
128,0,140015,1,0,0:0:0:0:
192,32,140515,1,8,0:0:0:0:
192,32,140765,1,8,0:0:0:0:
192,0,141015,1,0,0:0:0:0:
192,32,141181,1,8,0:0:0:0:
160,0,141431,1,8,0:0:0:0:
192,32,141765,1,8,0:0:0:0:
160,0,142015,1,0,0:0:0:0:
192,32,142265,1,8,0:0:0:0:
192,32,142515,1,0,0:0:0:0:
192,0,142765,1,8,0:0:0:0:
192,32,143015,1,0,0:0:0:0:
192,32,143181,1,8,0:0:0:0:
160,32,143431,1,8,0:0:0:0:
192,32,143765,1,8,0:0:0:0:
192,32,144015,1,0,0:0:0:0:
192,32,144265,1,8,0:0:0:0:
192,32,144515,1,4,0:0:0:0:
192,32,145015,1,8,0:0:0:0:
192,32,145515,1,4,0:0:0:0:
192,0,146015,1,8,0:0:0:0:
192,32,146515,1,4,0:0:0:0:
160,0,147015,1,8,0:0:0:0:
192,32,147515,1,4,0:0:0:0:
192,32,148015,1,8,0:0:0:0:
192,32,148265,1,8,0:0:0:0:
192,32,148515,1,4,0:0:0:0:
192,32,148765,1,8,0:0:0:0:
192,32,149015,1,8,0:0:0:0:
192,32,149265,1,0,0:0:0:0:
192,32,149390,1,0,0:0:0:0:
192,32,149515,1,8,0:0:0:0:
192,32,149765,1,8,0:0:0:0:
192,32,150015,1,0,0:0:0:0:
192,32,150140,1,0,0:0:0:0:
192,32,150265,1,8,0:0:0:0:
192,32,150515,1,8,0:0:0:0:
192,32,150765,1,0,0:0:0:0:
192,32,150890,1,0,0:0:0:0:
192,32,151015,1,8,0:0:0:0:
192,32,151265,1,8,0:0:0:0:
192,32,151515,1,0,0:0:0:0:
192,32,151765,1,8,0:0:0:0:
160,64,151890,1,8,0:0:0:0:
192,32,152015,1,0,0:0:0:0:
96,96,152265,1,0,0:0:0:0:
192,32,152515,1,8,0:0:0:0:
192,32,152765,1,0,0:0:0:0:
192,32,153015,1,8,0:0:0:0:
192,32,153181,1,8,0:0:0:0:
192,32,153431,1,0,0:0:0:0:
192,32,153681,1,8,0:0:0:0:
192,32,153890,1,8,0:0:0:0:
192,32,154015,1,0,0:0:0:0:
192,32,154265,1,8,0:0:0:0:
224,0,154515,5,8,0:0:0:0:
160,96,154765,1,8,0:0:0:0:
224,32,155015,1,0,0:0:0:0:
192,64,155140,1,8,0:0:0:0:
192,64,155390,1,0,0:0:0:0:
192,64,155765,1,12,0:0:0:0:
224,32,156515,1,8,0:0:0:0:
224,32,156681,1,8,0:0:0:0:
224,32,156931,1,8,0:0:0:0:
224,32,157181,1,8,0:0:0:0:
128,32,157431,1,8,0:0:0:0:
224,32,157515,1,8,0:0:0:0:
224,32,157765,1,8,0:0:0:0:
224,32,158015,1,8,0:0:0:0:
224,32,158515,1,4,0:0:0:0:
224,32,159515,1,4,0:0:0:0:
224,32,159890,1,12,0:0:0:0:
224,32,160515,1,4,0:0:0:0:
224,32,161015,1,4,0:0:0:0:
224,32,161515,1,12,0:0:0:0:
224,32,161890,1,12,0:0:0:0:
224,32,162515,1,4,0:0:0:0:
224,32,162765,1,8,0:0:0:0:
224,32,163015,1,0,0:0:0:0:
224,32,163140,1,0,0:0:0:0:
224,32,163265,1,8,0:0:0:0:
224,32,163390,1,0,0:0:0:0:
224,32,163515,1,0,0:0:0:0:
224,32,163765,1,8,0:0:0:0:
224,32,164015,1,0,0:0:0:0:
224,32,164140,1,0,0:0:0:0:
224,32,164265,1,8,0:0:0:0:
224,32,164390,1,8,0:0:0:0:
224,32,164515,1,0,0:0:0:0:
224,32,164765,1,12,0:0:0:0:
224,32,165015,1,0,0:0:0:0:
224,32,165265,1,12,0:0:0:0:
224,32,165515,1,0,0:0:0:0:
224,32,165765,1,12,0:0:0:0:
224,32,166015,1,12,0:0:0:0:
224,32,166515,1,4,0:0:0:0:
224,32,166765,1,8,0:0:0:0:
224,32,166890,1,8,0:0:0:0:
224,32,167015,1,0,0:0:0:0:
224,32,167265,1,8,0:0:0:0:
224,32,167515,1,0,0:0:0:0:
224,32,167640,1,8,0:0:0:0:
224,32,167890,1,8,0:0:0:0:
224,32,168015,1,0,0:0:0:0:
224,32,168515,1,4,0:0:0:0:
224,32,168765,1,8,0:0:0:0:
224,32,168890,1,8,0:0:0:0:
224,32,169015,1,0,0:0:0:0:
224,32,169265,1,8,0:0:0:0:
224,32,169515,1,8,0:0:0:0:
224,32,169640,1,0,0:0:0:0:
224,32,169890,1,0,0:0:0:0:
224,32,170015,1,8,0:0:0:0:
224,32,170265,1,8,0:0:0:0:
224,32,170515,1,0,0:0:0:0:
224,32,170765,1,12,0:0:0:0:
224,32,171015,1,12,0:0:0:0:
224,32,171265,1,0,0:0:0:0:
224,32,171515,1,0,0:0:0:0:
224,32,171765,1,12,0:0:0:0:
224,32,172015,1,12,0:0:0:0:
224,32,172515,1,0,0:0:0:0:
224,32,172765,1,8,0:0:0:0:
224,32,173015,1,0,0:0:0:0:
224,32,173265,1,8,0:0:0:0:
224,32,173515,1,0,0:0:0:0:
224,32,173765,1,8,0:0:0:0:
224,32,174015,1,0,0:0:0:0:
224,32,174265,1,8,0:0:0:0:
224,32,174515,1,12,0:0:0:0:
224,32,174765,1,12,0:0:0:0:
224,32,175015,1,12,0:0:0:0:
224,32,175265,1,12,0:0:0:0:
224,32,175515,1,4,0:0:0:0:
224,32,176515,1,4,0:0:0:0:
128,32,176765,1,8,0:0:0:0:
192,32,176890,1,8,0:0:0:0:
192,32,177015,1,0,0:0:0:0:
192,32,177265,1,8,0:0:0:0:
192,32,177515,1,0,0:0:0:0:
192,32,177640,1,8,0:0:0:0:
192,32,177890,1,8,0:0:0:0:
192,32,178015,1,0,0:0:0:0:
192,32,178515,1,4,0:0:0:0:
192,32,178765,1,8,0:0:0:0:
192,32,178890,1,8,0:0:0:0:
192,32,179015,1,0,0:0:0:0:
192,32,179265,1,8,0:0:0:0:
192,32,179515,1,8,0:0:0:0:
192,32,179640,1,0,0:0:0:0:
192,32,179890,1,0,0:0:0:0:
192,32,180015,1,8,0:0:0:0:
192,32,180265,1,8,0:0:0:0:
192,32,180515,1,0,0:0:0:0:
192,32,180765,1,8,0:0:0:0:
192,32,181015,1,8,0:0:0:0:
192,32,181265,1,0,0:0:0:0:
192,32,181515,1,0,0:0:0:0:
192,32,181765,1,8,0:0:0:0:
192,32,182015,1,8,0:0:0:0:
192,32,182265,1,8,0:0:0:0:
192,32,182515,1,0,0:0:0:0:
192,32,182640,1,8,0:0:0:0:
160,96,182890,1,8,0:0:0:0:
192,32,183015,1,0,0:0:0:0:
192,32,183515,1,0,0:0:0:0:
192,32,183640,1,8,0:0:0:0:
192,32,183890,1,8,0:0:0:0:
192,32,184015,1,0,0:0:0:0:
192,32,184515,1,12,0:0:0:0:
192,32,184765,1,12,0:0:0:0:
192,32,185015,1,12,0:0:0:0:
192,32,185265,1,12,0:0:0:0:
192,32,185515,1,4,0:0:0:0:
192,32,186515,1,8,0:0:0:0:
160,32,186640,1,8,0:0:0:0:
192,32,186890,1,0,0:0:0:0:
160,32,187015,1,0,0:0:0:0:
192,32,187265,1,8,0:0:0:0:
160,32,187390,1,8,0:0:0:0:
192,32,187640,1,0,0:0:0:0:
128,32,187765,1,0,0:0:0:0:
192,32,188015,1,8,0:0:0:0:
192,32,188265,1,8,0:0:0:0:
256,192,188515,12,0,190015,0:0:0:0:
192,32,190515,5,0,0:0:0:0:
192,32,190681,1,0,0:0:0:0:
192,32,190931,1,0,0:0:0:0:
192,32,191181,1,0,0:0:0:0:
192,32,191431,1,0,0:0:0:0:
192,32,191515,1,0,0:0:0:0:
192,32,191765,1,0,0:0:0:0:
192,32,192015,1,12,0:0:0:0:
