osu file format v14

[General]
AudioFilename: audio.mp3
AudioLeadIn: 0
PreviewTime: 57733
Countdown: 0
SampleSet: Normal
StackLeniency: 0.7
Mode: 1
LetterboxInBreaks: 0
WidescreenStoryboard: 1

[Editor]
Bookmarks: 6478,14478,24478,28478,32477,36478,40478,44478,50478,58478,66478,76478,80478,84478,88478,92478,96478,102478,110478,118478,128477,136478,144478,148478,158478,160478,162478,166478,176478,186478,188478,192478
DistanceSpacing: 0.8
BeatDivisor: 1
GridSize: 4
TimelineZoom: 0.5000009

[Metadata]
Title:Eyecatch! Too Much!
TitleUnicode:Eyecatch! Too Much!
Artist:Tomatsu Haruka, Hikasa Yoko, Amamiya Sora
ArtistUnicode:戸松 遥、日笠陽子、雨宮 天
Creator:Volta
Version:Beginner
Source:WWW.WORKING!!
Tags:taiko opening full WWW.WAGNARIA!! 宮越華 村主さゆり 鎌倉志保 Hana Miyakoshi Sayuri Muranushi Shiho Kamakura JUDYDANNY Nishizumi
BeatmapID:1175149
BeatmapSetID:554873

[Difficulty]
HPDrainRate:8
CircleSize:6
OverallDifficulty:3
ApproachRate:6
SliderMultiplier:1.2
SliderTickRate:3

[Events]
//Background and Video events
0,0,"work.jpg",0,70
//Break Periods
//Storyboard Layer 0 (Background)
//Storyboard Layer 1 (Fail)
//Storyboard Layer 2 (Pass)
//Storyboard Layer 3 (Foreground)
//Storyboard Sound Samples

[TimingPoints]
515,250,4,1,0,90,1,0
6515,-100,4,1,0,90,0,1
24515,-100,4,1,0,90,0,0
58515,-100,4,1,0,90,0,1
76515,-100,4,1,0,90,0,0
110515,-100,4,1,0,90,0,1
128514,-100,4,1,0,90,0,0
162515,-100,4,1,0,90,0,1
176515,-100,4,1,0,90,0,0

[HitObjects]
144,144,515,5,4,0:0:0:0:
176,156,1515,1,4,0:0:0:0:
176,156,2515,1,4,0:0:0:0:
160,168,4515,1,8,0:0:0:0:
96,144,6515,1,0,0:0:0:0:
96,144,7515,1,8,0:0:0:0:
96,144,8515,1,0,0:0:0:0:
96,144,9515,1,8,0:0:0:0:
52,136,10515,1,0,0:0:0:0:
56,128,11515,1,0,0:0:0:0:
56,128,12515,1,8,0:0:0:0:
56,128,13515,1,8,0:0:0:0:
56,128,14015,1,0,0:0:0:0:
56,128,14515,1,8,0:0:0:0:
72,116,15515,1,0,0:0:0:0:
76,120,16515,1,8,0:0:0:0:
76,120,17515,1,0,0:0:0:0:
76,120,18515,1,8,0:0:0:0:
76,120,19515,1,8,0:0:0:0:
76,116,20515,1,0,0:0:0:0:
76,116,21515,1,0,0:0:0:0:
192,192,22015,1,0,0:0:0:0:
76,116,22515,1,8,0:0:0:0:
76,116,23015,1,8,0:0:0:0:
76,116,23515,1,0,0:0:0:0:
76,116,24515,1,8,0:0:0:0:
56,132,26515,1,8,0:0:0:0:
80,168,27515,1,0,0:0:0:0:
312,164,28015,1,8,0:0:0:0:
80,168,28515,1,4,0:0:0:0:
144,128,30515,1,8,0:0:0:0:
144,128,31515,1,8,0:0:0:0:
144,128,32515,1,0,0:0:0:0:
52,136,34515,1,0,0:0:0:0:
52,140,36515,1,4,0:0:0:0:
148,156,38515,1,8,0:0:0:0:
168,160,39515,1,8,0:0:0:0:
40,144,40515,5,0,0:0:0:0:
152,164,42515,1,0,0:0:0:0:
152,164,44515,1,8,0:0:0:0:
152,164,46515,1,8,0:0:0:0:
164,176,48515,1,8,0:0:0:0:
160,112,50515,1,0,0:0:0:0:
160,112,51515,1,0,0:0:0:0:
160,112,52515,1,8,0:0:0:0:
160,112,53515,1,8,0:0:0:0:
164,148,54515,1,0,0:0:0:0:
164,148,55515,1,8,0:0:0:0:
192,120,56015,1,0,0:0:0:0:
164,148,56515,1,8,0:0:0:0:
96,144,58515,1,0,0:0:0:0:
96,144,59515,1,8,0:0:0:0:
96,144,60515,1,0,0:0:0:0:
96,144,61515,1,8,0:0:0:0:
52,136,62515,1,0,0:0:0:0:
56,128,63515,1,0,0:0:0:0:
56,128,64515,1,8,0:0:0:0:
56,128,65515,1,8,0:0:0:0:
56,128,66015,1,0,0:0:0:0:
56,128,66515,1,8,0:0:0:0:
72,116,67515,1,0,0:0:0:0:
76,120,68515,1,8,0:0:0:0:
76,120,69515,1,0,0:0:0:0:
76,120,70515,1,8,0:0:0:0:
76,120,71515,1,8,0:0:0:0:
76,116,72515,1,0,0:0:0:0:
76,116,73515,1,0,0:0:0:0:
120,156,74015,1,0,0:0:0:0:
76,116,74515,1,8,0:0:0:0:
76,116,75015,1,8,0:0:0:0:
76,116,75515,1,0,0:0:0:0:
76,116,76515,5,8,0:0:0:0:
144,200,78515,1,8,0:0:0:0:
144,200,79515,1,0,0:0:0:0:
144,200,80015,1,8,0:0:0:0:
144,200,80515,1,4,0:0:0:0:
164,104,82515,1,8,0:0:0:0:
100,128,84515,1,0,0:0:0:0:
196,160,85015,1,8,0:0:0:0:
96,116,86515,1,0,0:0:0:0:
288,124,87015,1,8,0:0:0:0:
96,112,88515,1,4,0:0:0:0:
196,124,90515,1,0,0:0:0:0:
152,120,92515,1,0,0:0:0:0:
152,120,93015,1,8,0:0:0:0:
192,144,94515,1,0,0:0:0:0:
88,140,95515,1,0,0:0:0:0:
88,144,96515,1,8,0:0:0:0:
256,156,98515,1,8,0:0:0:0:
256,156,100515,1,8,0:0:0:0:
164,168,102515,1,0,0:0:0:0:
164,168,103515,1,0,0:0:0:0:
164,168,104515,1,8,0:0:0:0:
164,168,105515,1,8,0:0:0:0:
164,168,106515,1,0,0:0:0:0:
164,168,107515,1,8,0:0:0:0:
120,160,108015,1,0,0:0:0:0:
164,168,108515,1,8,0:0:0:0:
96,144,110515,5,0,0:0:0:0:
96,144,111515,1,8,0:0:0:0:
96,144,112515,1,0,0:0:0:0:
96,144,113515,1,8,0:0:0:0:
52,136,114515,1,0,0:0:0:0:
56,128,115515,1,0,0:0:0:0:
56,128,116515,1,8,0:0:0:0:
56,128,117515,1,8,0:0:0:0:
56,128,118015,1,0,0:0:0:0:
56,128,118515,1,8,0:0:0:0:
72,116,119515,1,0,0:0:0:0:
76,120,120515,1,8,0:0:0:0:
76,120,121515,1,0,0:0:0:0:
76,120,122515,1,8,0:0:0:0:
76,120,123515,1,8,0:0:0:0:
76,116,124515,1,0,0:0:0:0:
76,116,125515,1,0,0:0:0:0:
212,200,126015,1,0,0:0:0:0:
76,116,126515,1,8,0:0:0:0:
76,116,127015,1,8,0:0:0:0:
76,116,127515,1,0,0:0:0:0:
76,116,128515,5,8,0:0:0:0:
104,152,130015,1,8,0:0:0:0:
196,152,130515,1,0,0:0:0:0:
140,144,132015,1,0,0:0:0:0:
140,144,132515,1,8,0:0:0:0:
144,140,134015,1,8,0:0:0:0:
144,140,134515,1,0,0:0:0:0:
144,140,136015,1,0,0:0:0:0:
144,140,136515,1,0,0:0:0:0:
144,140,138515,1,8,0:0:0:0:
144,140,140515,1,0,0:0:0:0:
88,152,142515,1,8,0:0:0:0:
88,152,144515,1,0,0:0:0:0:
236,156,146515,1,0,0:0:0:0:
88,152,148515,1,0,0:0:0:0:
88,152,149515,1,0,0:0:0:0:
88,152,150515,1,8,0:0:0:0:
88,152,151515,1,8,0:0:0:0:
88,152,152515,1,0,0:0:0:0:
88,152,153515,1,8,0:0:0:0:
88,152,154515,1,8,0:0:0:0:
228,116,156515,1,8,0:0:0:0:
120,144,158515,1,4,0:0:0:0:
76,168,159515,1,12,0:0:0:0:
76,168,160515,1,4,0:0:0:0:
92,160,161515,1,8,0:0:0:0:
92,160,162015,1,8,0:0:0:0:
56,156,162515,1,0,0:0:0:0:
56,160,163515,1,0,0:0:0:0:
56,160,164515,1,8,0:0:0:0:
56,160,165515,1,8,0:0:0:0:
180,140,166015,1,0,0:0:0:0:
180,140,166515,1,8,0:0:0:0:
168,140,167515,1,0,0:0:0:0:
168,140,168515,1,8,0:0:0:0:
168,140,169515,1,0,0:0:0:0:
168,140,170515,1,8,0:0:0:0:
168,140,171515,1,8,0:0:0:0:
168,140,172515,1,0,0:0:0:0:
168,140,173515,1,0,0:0:0:0:
336,296,174015,1,0,0:0:0:0:
168,140,174515,1,8,0:0:0:0:
168,140,175015,1,8,0:0:0:0:
168,140,175515,1,0,0:0:0:0:
168,140,176515,1,8,0:0:0:0:
208,124,178515,1,0,0:0:0:0:
208,124,179515,1,0,0:0:0:0:
208,124,180015,1,8,0:0:0:0:
208,124,180515,1,0,0:0:0:0:
208,124,181515,1,0,0:0:0:0:
208,124,182515,1,8,0:0:0:0:
208,124,183515,1,0,0:0:0:0:
208,124,184515,1,8,0:0:0:0:
208,124,185015,1,8,0:0:0:0:
208,124,185515,1,0,0:0:0:0:
208,124,186515,1,8,0:0:0:0:
208,124,188515,1,12,0:0:0:0:
208,124,190515,5,8,0:0:0:0:
208,124,192015,1,12,0:0:0:0:
