osu file format v14

[General]
AudioFilename: audio.mp3
AudioLeadIn: 0
PreviewTime: -1
Countdown: 0
SampleSet: Normal
StackLeniency: 0.7
Mode: 0
LetterboxInBreaks: 0
WidescreenStoryboard: 0

[Editor]
DistanceSpacing: 1
BeatDivisor: 4
GridSize: 4
TimelineZoom: 1.4

[Metadata]
Title:courage
TitleUnicode:courage
Artist:Tomatsu Haruka
ArtistUnicode:戸松遥
Creator:ju_
Version:Easy-ish
Source:Sword Art Online II
Tags:mapping is cool
BeatmapID:1886324
BeatmapSetID:903613

[Difficulty]
HPDrainRate:3
CircleSize:3
OverallDifficulty:3
ApproachRate:4
SliderMultiplier:0.5
SliderTickRate:1

[Events]
//Background and Video events
//Break Periods
//Storyboard Layer 0 (Background)
//Storyboard Layer 1 (Fail)
//Storyboard Layer 2 (Pass)
//Storyboard Layer 3 (Foreground)
//Storyboard Sound Samples

[TimingPoints]
2455,306.122448979592,4,1,0,30,1,0
10796,-100,4,1,0,50,0,0
11944,-111.111111111111,4,2,0,30,0,0
19291,-100,4,2,0,50,0,0
20516,-100,4,1,0,50,0,0
21740,-100,4,1,0,70,0,0
22361,-90.9090909090909,4,1,0,50,0,0
30312,-90.9090909090909,4,1,0,60,0,0
30924,-90.9090909090909,4,1,0,70,0,0
31548,-90.9090909090909,4,1,0,55,0,0
35480,-90.9090909090909,4,1,0,60,0,0
40414,-111.111111111111,4,1,0,65,0,0
45010,-111.111111111111,4,1,0,70,0,0
45618,-111.111111111111,4,1,0,75,0,0
46230,-111.111111111111,4,1,0,65,0,0
49903,-111.111111111111,4,1,0,80,0,0
50822,-83.3333333333333,4,1,0,70,0,0
51433,-83.3333333333333,4,1,0,70,0,1
67965,-83.3333333333333,4,1,0,80,0,1
68577,-83.3333333333333,4,1,0,90,0,1
69189,-83.3333333333333,4,1,0,100,0,1
71027,-125,4,2,0,30,0,0
78067,-125,4,3,0,45,0,0
80516,-100,4,1,0,60,0,1
82965,-100,4,1,0,70,0,1

[HitObjects]
44,178,2455,6,8,P|89:208|119:206,1,75,0|0,3:3|0:0,0:0:0:0:
213,174,3526,1,0,0:0:0:0:
272,64,4291,1,8,0:0:0:0:
367,93,4903,6,0,P|389:118|383:159,1,75,0|0,3:0|0:0,0:0:0:0:
311,225,5975,1,8,0:0:0:0:
91,174,7352,6,0,P|133:113|164:106,1,100,0|8,3:3|0:0,0:0:0:0:
254,114,8577,2,0,P|285:180|276:211,1,100,0|8,3:3|0:0,0:0:0:0:
221,283,9801,2,0,P|147:277|125:253,1,100,0|8,3:0|0:0,0:0:0:0:
91,169,11026,5,8,0:3:0:0:
136,79,11638,1,4,0:0:0:0:
231,49,12250,5,0,0:0:0:0:
414,106,13475,5,0,0:0:0:0:
350,300,14699,5,0,0:0:0:0:
166,226,15924,5,0,0:0:0:0:
233,37,17148,5,0,0:0:0:0:
427,84,18373,6,0,P|429:144|409:173,1,89.9999972534181,0|8,3:0|0:0,0:0:0:0:
317,191,19597,2,0,P|264:162|248:130,1,89.9999972534181,0|8,3:0|0:0,0:0:0:0:
272,29,20822,2,0,P|322:-2|358:0,1,89.9999972534181,0|8,3:0|0:0,0:0:0:0:
449,47,22046,5,4,0:0:0:0:
394,142,22659,1,0,0:0:0:0:
322,225,23271,2,0,P|287:257|241:270,2,96.250002937317,0|0|0,3:0|0:0|3:0,0:0:0:0:
328,142,24801,6,0,P|309:113|280:100,1,55.0000016784668,0|0,3:0|0:0,0:0:0:0:
183,83,25720,2,0,P|140:89|111:117,2,82.5000025177003,0|0|4,3:0|0:0|3:0,0:0:0:0:
448,295,28169,6,2,P|391:311|340:279,1,110.000003356934,0|0,3:3|0:3,0:3:0:0:
303,188,29393,2,2,P|277:140|219:120,1,110.000003356934,0|0,3:0|0:0,0:0:0:0:
117,129,30618,5,8,1:3:0:0:
48,215,31230,5,4,0:0:0:0:
120,297,31842,6,0,P|184:315|229:298,1,110.000003356934,0|0,3:0|0:0,0:0:0:0:
296,219,33067,2,0,P|302:152|278:111,1,110.000003356934,0|0,3:0|0:0,0:0:0:0:
190,55,34291,1,4,0:0:0:0:
43,235,36740,6,0,P|80:269|145:262,1,110.000003356934,0|0,3:0|0:0,0:0:0:0:
224,199,37965,2,0,P|273:177|323:196,1,110.000003356934,0|0,3:0|0:0,0:0:0:0:
413,258,39189,1,4,0:0:0:0:
43,244,41638,6,0,P|88:246|132:269,1,89.9999972534181,0|0,3:0|0:0,0:0:0:0:
210,301,42863,2,0,P|254:305|297:292,1,89.9999972534181,0|0,3:0|0:0,0:0:0:0:
356,225,44087,2,0,P|361:180|346:133,1,89.9999972534181,0|0,3:0|0:0,0:0:0:0:
271,91,45312,5,8,0:3:0:0:
183,69,45924,5,4,0:3:0:0:
94,46,46536,6,0,P|73:96|89:133,1,89.9999972534181,0|0,3:0|0:0,0:0:0:0:
163,171,47761,2,0,P|216:164|240:131,1,89.9999972534181,0|0,3:0|0:0,0:0:0:0:
296,69,48985,2,0,P|335:50|377:64,1,89.9999972534181,0|0,3:0|0:0,0:0:0:0:
448,120,50210,5,4,0:0:0:0:
46,46,51434,6,0,P|73:97|141:123,1,119.999996337891,0|0,3:0|0:0,0:0:0:0:
247,127,52659,1,8,0:3:0:0:
362,95,53271,1,4,0:3:0:0:
469,44,53883,6,0,P|492:112|470:162,1,119.999996337891,0|0,3:0|0:0,0:0:0:0:
385,233,55108,1,8,0:3:0:0:
272,190,55720,1,4,0:3:0:0:
174,120,56332,6,0,P|119:107|85:124,2,89.9999972534181,0|0|0,3:0|0:0|3:0,0:0:0:0:
325,122,57863,2,0,L|388:96,2,59.9999981689454,0|0|0,3:0|0:0|3:0,0:0:0:0:
222,184,59087,5,8,0:3:0:0:
289,283,59699,1,4,0:0:0:0:
386,212,60312,5,8,0:3:0:0:
312,117,60924,2,0,P|287:102|252:95,1,59.9999981689454,4|4,3:0|0:2,0:0:0:0:
139,95,61842,5,8,3:3:0:0:
125,214,62455,1,8,3:3:0:0:
28,142,63067,1,8,3:3:0:0:
124,70,63679,6,0,P|175:64|203:89,2,89.9999972534181,0|0|0,3:0|0:0|3:0,0:0:0:0:
45,161,65210,1,8,0:3:0:0:
114,258,65822,1,12,0:3:0:0:
233,258,66434,6,2,P|350:189|360:84,1,239.999992675781,0|0,3:0|0:0,0:0:0:0:
265,26,68271,5,8,0:3:0:0:
152,68,68883,5,8,0:3:0:0:
114,181,69495,5,4,0:0:0:0:
207,256,70108,6,2,P|253:262|304:242,2,89.9999972534181,4|0|2,3:0|0:2|3:0,0:0:0:0:
96,148,72250,5,0,0:0:0:0:
250,107,73475,1,0,0:0:0:0:
301,254,74699,1,0,0:0:0:0:
150,301,75924,6,0,P|121:272|106:233,1,80,0|0,3:0|0:0,0:0:0:0:
113,156,77148,1,8,2:0:0:0:
182,116,77761,1,4,0:2:0:0:
259,95,78373,6,0,B|348:85|397:158,1,160,0|8,3:0|0:0,0:0:0:0:
403,237,80210,1,12,0:0:0:0:
344,291,80822,6,0,P|294:307|250:287,1,100,0|0,3:0|0:0,0:0:0:0:
181,218,82046,1,8,0:0:0:0:
220,125,82659,1,4,0:0:0:0:
314,92,83271,6,0,P|362:111|383:155,1,100,0|0,3:0|0:0,0:0:0:0:
348,246,84495,1,8,0:0:0:0:
256,287,85108,1,4,0:0:0:0:
157,267,85720,6,2,P|145:193|205:84,1,200,8|4,3:3|0:0,0:0:0:0:
345,44,87863,6,0,L|405:57,2,50,0|0|0,3:0|0:0|3:0,0:0:0:0:
248,68,89087,6,0,P|203:98|147:102,2,100,0|0|4,0:0|0:0|0:0,0:0:0:0:
