osu file format v14

[General]
AudioFilename: audio.mp3
AudioLeadIn: 0
PreviewTime: 118958
Countdown: 0
SampleSet: Soft
StackLeniency: 0.3
Mode: 0
LetterboxInBreaks: 0
WidescreenStoryboard: 1

[Editor]
DistanceSpacing: 1
BeatDivisor: 4
GridSize: 16
TimelineZoom: 1.6

[Metadata]
Title:courage
TitleUnicode:courage
Artist:Tomatsu Haruka
ArtistUnicode:戸松遥
Creator:dahkjdas
Version:Normal
Source:ソードアート・オンラインⅡ
Tags:SAO sword art online 2 ii Ⅱ mothers rosario anime opening Japanese rock pop jrock jpop op
BeatmapID:3027127
BeatmapSetID:1474960

[Difficulty]
HPDrainRate:3
CircleSize:3
OverallDifficulty:3
ApproachRate:5
SliderMultiplier:0.899999999999999
SliderTickRate:1

[Events]
//Background and Video events
0,0,"BG.jpg",0,0
//Break Periods
2,70025,78574
2,119158,122044
2,148393,151431
2,187729,191227
//Storyboard Layer 0 (Background)
//Storyboard Layer 1 (Fail)
//Storyboard Layer 2 (Pass)
//Storyboard Layer 3 (Foreground)
//Storyboard Layer 4 (Overlay)
//Storyboard Sound Samples

[TimingPoints]
183,306.122448979592,4,2,0,30,1,0
1407,-111.111111111111,4,2,1,20,0,0
6152,-111.111111111111,4,2,2,30,0,0
6305,-111.111111111111,4,2,1,20,0,0
8754,-111.111111111111,4,2,1,20,0,0
11203,-111.111111111111,4,2,1,30,0,0
19315,-111.111111111111,4,2,1,40,0,0
19774,-100,4,2,1,40,0,0
20999,-100,4,2,1,60,0,0
30795,-100,4,2,1,70,0,0
49621,-100,4,2,1,50,0,0
50080,-100,4,2,1,60,0,0
50387,-100,4,2,1,70,0,1
50693,-100,4,2,1,80,0,1
69825,-100,4,2,1,60,0,0
79009,-100,4,2,1,40,0,0
79162,-100,4,2,1,40,0,0
81611,-100,4,2,1,60,0,0
82070,-100,4,2,1,60,0,0
89570,-100,4,2,1,60,0,0
99366,-100,4,2,1,70,0,0
117734,-100,4,2,1,70,0,0
118346,-100,4,2,1,50,0,0
118754,-100,4,2,1,40,0,0
118958,-100,4,2,1,30,0,0
123244,-100,4,2,1,50,0,0
123550,-100,4,2,1,50,0,0
123856,-100,4,2,1,60,0,0
127989,-100,4,2,1,50,0,0
128448,-100,4,2,1,60,0,0
128754,-100,4,2,1,70,0,0
129060,-100,4,2,1,80,0,1
148193,-100,4,2,1,60,0,0
152631,-100,4,2,1,60,0,0
153091,-100,4,2,1,50,0,0
157989,-100,4,2,1,80,0,0
167938,-100,4,2,1,70,0,0
186305,-100,4,2,1,50,0,0
186917,-100,4,2,1,40,0,0
187529,-100,4,2,1,30,0,0
192427,-100,4,2,1,40,0,0
195795,-100,4,2,1,40,0,0
196246,-100,4,2,1,40,0,0
196254,-100,4,2,1,60,0,0
197325,-100,4,2,1,40,0,0
202223,-100,4,2,1,60,0,0
203448,-100,4,2,1,70,0,0
204060,-100,4,2,1,80,0,0
207121,-100,4,2,1,70,0,0
207427,-100,4,2,1,70,0,0
216917,-100,4,2,1,80,0,1
226101,-100,4,2,1,60,0,0
227325,-100,4,2,1,60,0,0
227938,-100,4,2,1,30,0,0
229009,-100,4,2,1,70,0,0
238805,-100,4,2,1,50,0,0
245234,-100,4,2,1,50,0,0
245387,-100,4,2,1,50,0,0

[Colours]
Combo1 : 255,128,128
Combo2 : 128,255,128
Combo3 : 255,128,255
Combo4 : 255,255,128

[HitObjects]
354,255,1407,5,2,0:0:0:0:
438,342,1866,2,0,L|452:172,1,161.999995056152,2|2,0:0|0:0,0:0:0:0:
270,351,3244,2,0,L|263:268,1,80.9999975280762,2|0,0:0|0:0,0:0:0:0:
312,198,3856,5,2,0:0:0:0:
181,242,4315,2,0,P|116:252|52:187,1,161.999995056152,2|2,0:0|0:0,0:0:0:0:
92,111,5234,1,2,0:0:0:0:
92,111,5387,2,0,P|170:128|259:136,1,161.999995056152,2|2,0:0|0:0,0:0:0:0:
324,89,6305,6,0,P|370:77|433:224,1,242.999992584228,2|0,0:0|0:0,0:0:0:0:
472,307,7529,2,0,B|377:319|399:273|315:283,1,161.999995056152,2|0,0:0|0:0,0:0:0:0:
138,184,8754,6,0,P|172:164|221:176,1,80.9999975280762,2|0,0:0|0:0,0:0:0:0:
249,183,9213,2,0,L|257:103,1,80.9999975280762,2|0,0:0|0:0,0:0:0:0:
274,65,9672,2,0,L|267:16,2,40.4999987640381,2|0|2,0:0|0:0|0:0,0:0:0:0:
202,210,10591,1,0,0:0:0:0:
82,100,11203,6,0,P|87:148|94:199,1,80.9999975280762,0|2,0:0|0:0,0:0:0:0:
116,257,11815,1,2,0:0:0:0:
56,366,12427,1,2,0:0:0:0:
56,366,12580,2,0,P|105:355|151:351,1,80.9999975280762,2|2,0:0|0:0,0:0:0:0:
214,370,13193,1,2,0:0:0:0:
246,295,13499,6,0,P|254:231|264:160,1,121.499996292114,2|2,0:0|0:0,0:0:0:0:
279,140,14111,1,2,0:0:0:0:
279,140,14264,1,2,0:0:0:0:
404,37,14876,2,0,P|445:41|472:147,2,161.999995056152,2|0|2,0:0|0:0|0:0,0:0:0:0:
284,59,16560,6,0,P|288:124|292:194,1,121.499996292114
226,228,17325,2,0,P|178:248|96:189,1,161.999995056152,2|0,0:0|0:0,0:0:0:0:
133,29,18550,6,0,B|201:22|185:63|254:55,1,121.499996292114,2|2,0:0|0:0,0:0:0:0:
288,48,19162,2,0,L|335:38,2,40.4999987640381,2|2|2,0:0|0:0|0:0,0:0:0:0:
273,136,19774,2,0,P|282:203|292:328,1,180,10|10,0:0|0:0,0:0:0:0:
295,360,20540,1,8,0:0:0:0:
159,359,20999,6,0,P|112:353|51:344,1,89.9999999999999,4|10,3:2|0:0,0:0:0:0:
43,260,21611,2,0,P|85:253|152:247,1,89.9999999999999,2|8,3:2|0:0,3:2:0:0:
200,190,22223,1,2,3:2:0:0:
286,216,22529,1,8,0:0:0:0:
286,216,22682,2,0,P|290:177|301:109,1,89.9999999999999,2|2,3:2|3:2,0:0:0:0:
314,85,23142,1,8,0:0:0:0:
348,56,23295,6,0,P|403:46|457:116,1,135,4|10,0:0|0:0,0:0:0:0:
489,181,24060,2,0,P|432:184|384:193,1,89.9999999999999,2|8,3:2|0:0,0:0:0:0:
311,172,24672,2,0,P|319:222|325:269,1,89.9999999999999,2|8,3:2|0:0,0:0:0:0:
253,317,25285,2,0,P|197:313|145:308,1,89.9999999999999,0|8,0:0|0:0,0:0:0:0:
121,326,25744,6,0,P|58:336|3:280,1,135,6|8,3:2|0:0,0:0:0:0:
57,217,26509,2,0,P|48:160|45:121,1,89.9999999999999,0|8,3:2|0:0,0:0:0:0:
113,69,27121,2,2,P|160:77|206:86,1,89.9999999999999,2|8,3:2|0:0,3:2:0:0:
245,95,27580,1,2,3:2:0:0:
288,82,27734,2,0,P|279:137|272:189,1,89.9999999999999,2|4,0:0|0:3,0:0:0:0:
329,242,28346,6,0,P|287:219|200:225,1,135,6|2,3:2|3:2,0:0:0:0:
165,249,28958,2,0,L|108:236,2,45,2|0|8,3:2|3:2|0:0,0:0:0:0:
203,330,29570,2,0,P|246:322|312:317,1,89.9999999999999,10|10,3:2|0:0,0:0:0:0:
375,282,30183,2,0,L|386:340,2,45,8|8|8,0:3|0:3|0:3,0:0:0:0:
374,237,30641,1,8,0:3:0:0:
353,195,30795,6,0,P|294:185|249:177,1,89.9999999999999,14|8,0:0|0:0,0:0:0:0:
240,92,31407,2,0,P|277:45|306:10,1,89.9999999999999,8|10,0:0|0:0,0:0:0:0:
386,36,32019,2,0,P|406:90|422:133,1,89.9999999999999,10|10,0:0|0:0,0:0:0:0:
505,140,32631,2,0,P|494:191|483:244,1,89.9999999999999,10|10,0:0|0:0,0:0:0:0:
510,311,33244,6,0,B|481:268|421:264|388:317|390:368|354:381|312:375|283:350,1,270,4|8,3:2|0:3,3:2:0:0:
259,311,34315,2,0,P|219:310|173:275,1,89.9999999999999,8|0,0:3|0:0,0:0:0:0:
155,195,34927,1,8,0:3:0:0:
242,215,35234,2,0,P|236:161|229:116,1,89.9999999999999,4|0,0:0|0:0,0:0:0:0:
220,81,35693,6,0,P|164:63|116:54,1,89.9999999999999,14|8,0:0|0:0,0:0:0:0:
65,115,36305,2,0,P|77:172|93:218,1,89.9999999999999,8|10,0:0|0:0,0:0:0:0:
173,229,36917,2,0,P|216:189|248:152,1,89.9999999999999,10|10,0:0|0:0,0:0:0:0:
303,105,37529,2,0,P|318:156|336:209,1,89.9999999999999,10|10,0:0|0:0,0:0:0:0:
290,272,38142,6,0,B|254:262|206:279|206:279|172:274|142:250|142:250|77:280|23:278,1,270,4|8,3:2|0:3,0:0:0:0:
14,237,39213,2,0,P|4:172|6:138,1,89.9999999999999,8|0,0:3|0:0,0:0:0:0:
38,64,39825,1,8,0:3:0:0:
127,95,40131,1,8,0:3:0:0:
127,95,40285,2,0,P|169:79|180:73,1,45,8|8,0:3|0:3,0:0:0:0:
208,57,40591,6,0,P|199:113|195:201,2,135,6|2|10,0:0|0:0|0:0,3:2:0:0:
297,66,41815,2,0,P|356:59|389:55,1,89.9999999999999,2|10,3:2|0:0,0:0:0:0:
417,139,42427,2,0,P|369:144|318:150,1,89.9999999999999,2|10,3:2|0:0,0:0:0:0:
261,210,43040,6,0,P|220:249|139:242,1,135,6|2,3:2|3:2,0:0:0:0:
105,225,43652,2,0,P|100:269|96:331,1,89.9999999999999,2|8,3:2|0:0,0:0:0:0:
176,356,44264,2,0,P|213:342|268:330,1,89.9999999999999,2|10,3:2|0:0,0:0:0:0:
349,350,44876,1,2,0:0:0:0:
319,264,45182,1,10,3:2:0:0:
408,278,45489,6,0,P|453:286|499:292,1,89.9999999999999,6|8,3:2|0:0,3:2:0:0:
488,202,46101,2,0,P|447:196|396:189,1,89.9999999999999,0|10,3:2|0:0,3:2:0:0:
324,142,46713,2,0,P|277:153|226:170,1,89.9999999999999,10|10,3:2|3:2,0:0:0:0:
195,182,47172,1,0,3:2:0:0:
156,205,47325,2,0,P|93:199|48:190,1,89.9999999999999,10|10,3:2|3:2,0:0:0:0:
10,123,47938,6,0,L|19:79,1,45,10|10,3:2|3:2,0:0:0:0:
102,105,48397,2,0,L|110:60,1,45,10|10,3:2|3:2,0:0:0:0:
193,86,48856,2,0,L|202:42,1,45,10|10,3:2|3:2,0:0:0:0:
308,198,49621,6,0,P|315:131|322:60,1,135,2|2,0:0|3:2,0:0:0:0:
406,17,50387,5,6,3:2:0:0:
414,106,50693,1,10,0:0:0:0:
414,106,50846,2,0,P|421:152|426:206,1,89.9999999999999,2|2,0:0|3:2,0:0:0:0:
361,259,51458,1,2,0:0:0:0:
361,259,51611,2,0,P|288:253|259:251,1,89.9999999999999,2|10,3:2|0:0,0:0:0:0:
243,166,52223,2,0,P|303:169|351:173,1,89.9999999999999,2|10,3:2|0:0,0:0:0:0:
398,109,52836,6,0,P|392:73|234:74,1,225,6|2,3:2|3:2,0:0:0:0:
214,98,53754,2,0,P|223:162|243:284,1,180,10|8,0:0|0:0,0:0:0:0:
171,332,54672,1,2,3:2:0:0:
157,243,54978,1,10,0:0:0:0:
241,273,55285,6,0,P|314:269|387:260,2,135,6|2|8,3:2|0:0|0:0,0:0:0:0:
157,238,56509,2,0,P|147:185|136:129,1,89.9999999999999,2|10,3:2|0:0,0:0:0:0:
214,99,57121,2,0,P|226:142|237:192,1,89.9999999999999,2|10,3:2|0:0,0:0:0:0:
317,223,57734,5,6,3:2:0:0:
382,161,58040,1,10,0:0:0:0:
382,161,58193,2,0,P|423:172|506:113,1,135,2|8,0:0|0:0,0:0:0:0:
481,39,58958,2,0,B|342:26|373:108|219:86,1,270,12|10,3:2|3:2,0:0:0:0:
136,56,60182,6,0,P|144:106|150:162,1,89.9999999999999,6|8,3:2|0:0,0:0:0:0:
134,187,60642,1,2,0:0:0:0:
111,226,60795,2,0,P|57:223|14:215,1,89.9999999999999,2|10,3:2|0:0,3:2:0:0:
4,128,61407,2,0,P|37:89|156:122,1,180,2|2,3:2|3:2,0:0:0:0:
139,202,62325,1,10,0:0:0:0:
221,177,62631,6,0,P|270:172|322:165,1,89.9999999999999,6|10,3:2|0:0,0:0:0:0:
355,161,63091,2,0,P|346:111|337:54,1,89.9999999999999,2|2,0:0|3:2,0:0:0:0:
251,85,63703,1,2,0:0:0:0:
251,85,63856,2,0,P|180:78|144:68,1,89.9999999999999,2|10,3:2|0:0,0:0:0:0:
73,54,64468,1,2,3:2:0:0:
102,138,64774,1,10,0:0:0:0:
13,123,65080,5,6,3:2:0:0:
47,206,65387,1,10,0:0:0:0:
47,206,65540,2,0,B|85:254|159:260|220:215|221:149|221:149|239:196|285:205,1,315,2|8,0:0|0:0,0:0:0:0:
360,177,66917,2,0,P|352:231|347:287,1,89.9999999999999,0|10,3:2|0:0,3:2:0:0:
294,338,67529,5,6,3:2:0:0:
256,256,67836,1,8,3:2:0:0:
194,321,68142,2,0,P|159:327|87:340,1,89.9999999999999,8|10,3:2|3:2,0:0:0:0:
27,291,68754,1,10,3:2:0:0:
27,291,68907,2,0,P|31:243|37:190,2,89.9999999999999,10|10|2,3:2|3:2|3:2,0:0:0:0:
17,380,69825,1,14,0:0:0:0:
256,192,79774,12,0,80999,0:0:0:0:
83,216,81611,6,0,P|85:181|98:121,1,89.9999999999999,10|8,3:2|0:0,3:2:0:0:
111,84,82070,6,0,P|144:113|241:107,1,135,6|10,0:0|0:0,0:0:0:0:
311,71,82836,2,0,P|319:107|329:167,1,89.9999999999999,2|8,3:2|0:0,3:2:0:0:
414,134,83448,1,2,3:2:0:0:
414,134,83601,2,0,P|414:188|406:234,2,89.9999999999999,2|2|2,3:2|3:2|3:2,0:0:0:0:
354,66,84519,6,0,P|288:55|232:100,1,135,6|8,0:0|0:0,0:0:0:0:
145,89,85285,2,0,P|95:79|55:74,1,89.9999999999999,0|8,3:2|0:0,3:2:0:0:
4,147,85897,2,0,P|14:186|26:243,1,89.9999999999999,2|8,3:2|0:0,0:0:0:0:
56,265,86356,1,2,0:2:0:0:
100,275,86509,2,0,P|145:265|198:259,1,89.9999999999999,2|10,0:0|0:0,0:0:0:0:
247,191,87121,6,0,P|314:177|367:231,1,135,6|2,3:2|3:2,0:0:0:0:
378,258,87734,2,0,P|409:299|490:297,1,135,2|2,3:2|3:2,0:0:0:0:
511,260,88346,1,10,3:2:0:0:
461,185,88652,2,0,P|450:120|446:81,2,89.9999999999999,10|10|10,3:2|3:2|3:2,0:0:0:0:
374,210,89570,6,0,B|277:199|292:261|199:246,1,180,12|10,3:2|3:2,0:0:0:0:
75,199,90642,2,0,L|19:216,2,45,2|10|2,0:0|3:2|3:2,0:0:0:0:
158,164,91254,2,0,P|166:97|173:53,1,89.9999999999999,2|2,3:2|3:2,0:0:0:0:
242,22,91866,6,0,P|291:9|388:136,1,225,14|10,0:0|3:2,0:0:0:0:
423,261,93091,1,2,3:2:0:0:
423,261,93244,2,0,P|381:265|274:296,1,135,10|2,3:2|3:2,3:2:0:0:
267,326,93856,1,10,0:0:0:0:
228,349,94009,2,0,P|175:345|131:312,1,89.9999999999999,2|14,3:2|0:0,0:0:0:0:
61,355,94621,5,2,0:0:0:0:
61,355,94774,2,0,P|47:315|38:165,1,180,2|0,0:0|0:0,0:0:0:0:
88,105,95693,2,2,P|141:94|221:186,1,180,8|8,3:2|0:0,0:0:0:0:
250,261,96611,1,0,0:0:0:0:
338,242,96917,6,0,P|341:176|336:91,1,135,12|10,3:2|3:2,0:0:0:0:
301,80,97529,2,0,P|262:75|187:133,1,135,2|2,3:2|3:2,0:0:0:0:
171,170,98142,2,0,P|119:164|71:157,2,89.9999999999999,10|10|8,3:2|0:0|0:3,0:0:0:0:
217,246,99060,1,8,0:3:0:0:
156,312,99366,6,0,P|106:324|55:344,1,89.9999999999999,14|8,0:0|0:0,0:0:0:0:
13,267,99978,2,0,P|27:217|35:163,1,89.9999999999999,8|10,0:0|0:0,0:0:0:0:
120,153,100591,2,0,P|155:190|198:224,1,89.9999999999999,10|10,0:0|0:0,0:0:0:0:
260,166,101203,2,0,P|264:126|268:62,1,89.9999999999999,10|10,0:0|0:0,0:0:0:0:
344,30,101815,6,0,B|392:6|455:20|480:71|464:120|455:132|441:138|409:153|412:206,1,270,4|4,3:2|0:3,0:0:0:0:
381,228,102887,2,0,P|333:216|274:204,1,89.9999999999999,4|0,0:3|0:0,0:0:0:0:
231,274,103499,1,4,0:3:0:0:
146,241,103805,2,0,P|154:199|164:148,1,89.9999999999999,4|8,0:3|0:3,0:0:0:0:
168,112,104264,6,0,P|123:126|66:146,1,89.9999999999999,6|8,0:0|0:0,0:0:0:0:
61,227,104876,2,0,P|95:258|141:298,1,89.9999999999999,8|10,0:0|0:0,0:0:0:0:
215,267,105489,2,0,P|225:221|236:161,1,89.9999999999999,10|10,0:0|0:0,0:0:0:0:
314,139,106101,2,0,P|323:206|328:242,1,89.9999999999999,10|10,0:0|0:0,0:0:0:0:
395,276,106713,6,0,B|455:229|534:315|467:388|375:381|339:343,1,270,4|4,3:2|0:3,3:2:0:0:
308,317,107785,2,0,P|262:306|207:322,1,89.9999999999999,4|0,0:3|0:0,0:0:0:0:
138,351,108397,1,4,0:3:0:0:
65,297,108703,1,8,0:3:0:0:
65,297,108856,2,0,P|70:256|73:231,1,45,8|8,0:3|0:3,0:0:0:0:
63,207,109162,6,0,P|111:220|206:235,2,135,6|2|10,3:2|0:0|0:0,0:0:0:0:
56,116,110387,2,0,P|46:73|32:13,1,89.9999999999999,2|10,3:2|0:0,0:0:0:0:
127,10,110999,2,0,P|141:64|152:117,1,89.9999999999999,2|10,3:2|0:0,0:0:0:0:
216,157,111611,6,0,P|272:139|347:182,1,135,6|2,3:2|3:2,0:0:0:0:
378,190,112223,2,0,P|392:143|407:89,1,89.9999999999999,2|8,3:2|0:0,0:0:0:0:
371,22,112836,2,0,B|279:11|294:69|196:52,1,180,2|2,3:2|0:0,0:0:0:0:
115,15,113754,1,10,3:2:0:0:
123,104,114060,6,0,P|134:168|139:213,1,89.9999999999999,4|8,3:2|0:0,0:0:0:0:
58,237,114672,2,0,P|49:193|42:141,1,89.9999999999999,0|10,3:2|0:0,0:0:0:0:
81,67,115285,2,0,P|132:38|230:184,1,270,2|10,3:2|0:0,0:0:0:0:
150,197,116509,6,0,B|246:186|228:248|325:240,1,180,10|10,3:2|3:2,0:0:0:0:
405,210,117427,1,10,3:2:0:0:
327,149,117734,2,8,L|319:72,2,59.9999999999999,8|8|8,3:3|0:3|0:3,0:3:0:0:
235,130,118346,2,8,L|171:136,2,59.9999999999999,8|8|8,0:3|0:3|0:3,0:3:0:0:
243,41,118958,1,4,0:2:0:0:
10,63,123244,6,0,P|41:71|106:76,1,89.9999999999999,10|0,0:0|3:0,0:0:0:0:
170,21,123856,6,0,P|223:4|290:60,1,135,14|2,3:2|3:2,0:0:0:0:
309,83,124468,2,0,P|341:111|403:113,1,89.9999999999999,8|0,3:2|0:0,0:0:0:0:
431,110,124927,1,2,3:2:0:0:
475,114,125080,2,0,P|488:165|497:213,1,89.9999999999999,10|2,3:2|3:2,0:0:0:0:
419,250,125693,2,0,P|367:240|322:230,1,89.9999999999999,0|2,3:2|3:2,0:0:0:0:
240,200,126305,6,0,L|247:260,1,45,10|10,3:2|3:2,0:0:0:0:
153,192,126764,2,0,L|160:252,1,45,10|10,3:2|3:2,0:0:0:0:
64,184,127223,2,0,L|71:244,1,45,10|10,3:2|3:2,0:0:0:0:
8,372,127989,6,0,P|45:340|141:360,1,135,2|2,0:0|3:2,0:0:0:0:
210,380,128754,5,6,3:2:0:0:
196,291,129060,1,10,0:0:0:0:
196,291,129213,2,0,P|185:240|183:195,1,89.9999999999999,2|0,0:0|3:2,0:0:0:0:
222,121,129825,1,2,0:0:0:0:
222,121,129978,2,0,P|281:130|320:137,1,89.9999999999999,2|10,3:2|0:0,0:0:0:0:
358,212,130591,2,0,P|309:220|258:230,1,89.9999999999999,2|10,3:2|0:0,0:0:0:0:
205,290,131203,6,0,P|137:312|45:200,1,225,6|2,3:2|3:2,0:0:0:0:
37,166,132121,2,0,B|137:149|113:204|214:188,1,180,10|8,0:0|0:0,0:0:0:0:
296,217,133040,1,2,3:2:0:0:
275,129,133346,1,10,0:0:0:0:
362,150,133652,6,0,P|420:136|510:119,2,135,6|2|8,3:2|0:0|0:0,0:0:0:0:
310,224,134876,2,0,P|303:269|297:328,1,89.9999999999999,2|10,3:2|0:0,0:0:0:0:
374,361,135489,2,0,P|383:324|394:269,1,89.9999999999999,2|10,3:2|0:0,0:0:0:0:
479,246,136101,5,6,3:2:0:0:
410,187,136407,1,10,0:0:0:0:
410,187,136560,2,0,P|358:183|265:163,1,135,2|8,0:0|0:0,0:0:0:0:
188,147,137325,2,0,P|128:108|58:242,1,270,12|10,3:2|3:2,0:0:0:0:
60,332,138550,6,0,P|116:327|152:318,1,89.9999999999999,6|8,3:2|0:0,0:0:0:0:
185,295,139009,1,2,0:0:0:0:
224,274,139162,2,0,P|268:261|318:255,1,89.9999999999999,2|10,3:2|0:0,3:2:0:0:
385,307,139774,2,0,P|442:327|510:240,1,180,2|2,3:2|3:2,0:0:0:0:
496,157,140693,1,10,0:0:0:0:
426,213,140999,6,0,P|368:224|319:233,1,89.9999999999999,6|10,3:2|0:0,0:0:0:0:
292,233,141458,2,0,P|251:204|231:159,1,89.9999999999999,2|2,0:0|3:2,0:0:0:0:
259,86,142070,1,2,0:0:0:0:
259,86,142223,2,0,P|309:78|365:60,1,89.9999999999999,2|10,3:2|0:0,0:0:0:0:
433,41,142836,1,2,3:2:0:0:
417,129,143142,1,10,0:0:0:0:
502,101,143448,5,6,3:2:0:0:
486,189,143754,1,10,0:0:0:0:
486,189,143907,2,0,P|456:304|270:310,1,315,2|8,0:0|0:0,0:0:0:0:
223,251,145285,2,0,P|215:204|211:145,1,89.9999999999999,0|10,3:2|0:0,0:0:0:0:
196,73,145897,5,6,3:2:0:0:
128,132,146203,1,8,3:2:0:0:
211,165,146509,2,0,P|274:152|309:145,1,89.9999999999999,8|10,3:2|3:2,0:0:0:0:
385,172,147121,1,10,3:2:0:0:
385,172,147274,2,0,P|391:116|398:69,2,89.9999999999999,2|10|10,3:2|3:2|0:0,0:0:0:0:
318,232,148193,1,14,0:0:0:0:
501,13,152631,5,8,3:2:0:0:
501,13,152785,1,8,3:2:0:0:
431,69,153091,6,0,P|385:87|334:80,1,89.9999999999999,6|2,0:0|0:0,0:0:0:0:
302,69,153550,1,2,3:2:0:0:
244,138,153856,2,0,P|251:180|262:273,2,135,10|2|2,3:2|3:2|3:2,0:0:0:0:
287,151,154927,2,0,P|331:163|382:178,1,89.9999999999999,2|2,3:2|0:0,0:0:0:0:
419,181,155387,1,10,3:2:0:0:
458,157,155540,6,0,P|447:107|434:56,1,89.9999999999999,6|2,3:2|0:0,0:0:0:0:
427,25,155999,1,2,3:2:0:0:
343,59,156305,2,0,P|274:47|209:34,2,135,10|2|2,3:2|3:2|3:2,0:0:0:0:
387,50,157376,2,0,B|372:124|417:107|405:180,1,135,10|0,3:2|0:0,0:0:0:0:
393,224,157989,6,0,P|343:210|266:267,1,135,6|10,3:2|3:2,0:0:0:0:
246,332,158754,2,0,P|187:324|136:320,1,89.9999999999999,2|10,3:2|0:0,0:0:0:0:
113,335,159213,2,0,P|78:340|10:277,1,135,2|10,3:2|3:2,0:0:0:0:
22,188,159978,1,2,3:2:0:0:
97,247,160285,1,10,0:0:0:0:
97,247,160438,6,0,P|144:243|235:228,1,135,6|10,3:2|3:2,0:0:0:0:
316,201,161203,1,2,3:2:0:0:
382,262,161509,1,10,0:0:0:0:
382,262,161662,2,0,P|405:212|374:129,1,135,2|10,0:0|3:2,0:0:0:0:
344,57,162427,1,2,3:2:0:0:
296,133,162734,1,0,3:2:0:0:
296,133,162887,6,0,P|253:127|154:109,1,135,6|10,3:2|3:2,0:0:0:0:
84,66,163652,2,0,P|75:106|85:159,1,89.9999999999999,2|10,3:2|0:0,0:0:0:0:
146,217,164264,2,0,P|157:261|152:313,1,89.9999999999999,2|10,3:2|0:0,0:0:0:0:
68,334,164876,1,2,3:2:0:0:
55,244,165182,1,10,3:2:0:0:
55,244,165336,6,0,P|59:162|66:106,1,135,6|10,0:0|3:2,0:0:0:0:
139,58,166101,1,10,3:2:0:0:
203,120,166407,1,10,3:2:0:0:
278,71,166713,1,10,3:2:0:0:
278,71,166866,2,0,P|325:66|369:58,2,89.9999999999999,10|10|10,3:2|3:2|3:2,0:0:0:0:
208,4,167785,6,0,P|190:42|212:139,1,135,6|10,3:2|0:0,0:0:0:0:
264,198,168550,2,0,P|306:195|359:184,1,89.9999999999999,2|8,3:2|0:0,3:2:0:0:
435,150,169162,2,0,P|443:198|452:249,1,89.9999999999999,0|10,0:0|0:0,0:0:0:0:
386,301,169774,2,0,P|344:295|290:283,1,89.9999999999999,2|10,3:2|0:0,3:2:0:0:
216,324,170387,6,0,P|212:281|207:215,1,89.9999999999999,6|10,3:2|0:0,0:0:0:0:
204,189,170846,1,2,0:0:0:0:
278,138,171152,1,2,3:2:0:0:
228,63,171458,2,0,P|172:72|92:92,1,135,2|10,0:0|0:0,0:0:0:0:
38,160,172223,2,0,P|52:211|66:260,1,89.9999999999999,2|10,3:2|3:2,0:0:0:0:
135,298,172836,6,0,P|176:292|228:284,1,89.9999999999999,4|10,3:2|3:2,0:0:0:0:
296,338,173448,2,0,P|337:346|395:358,1,89.9999999999999,10|10,3:2|3:2,0:0:0:0:
469,328,174060,1,4,3:2:0:0:
401,268,174366,1,10,3:2:0:0:
485,236,174672,2,0,P|480:191|472:136,1,89.9999999999999,10|10,3:2|3:2,0:0:0:0:
392,109,175285,6,0,P|361:125|296:144,1,89.9999999999999,6|8,3:2|0:0,0:0:0:0:
264,150,175744,2,2,P|226:141|146:203,1,135,2|8,0:0|0:0,0:0:0:0:
174,277,176509,1,0,3:2:0:0:
84,267,176815,1,8,0:0:0:0:
113,352,177121,2,8,P|163:371|207:380,1,89.9999999999999,8|4,3:2|0:3,3:2:0:0:
275,331,177734,6,0,P|271:274|267:228,1,89.9999999999999,6|10,3:2|0:0,0:0:0:0:
263,196,178193,1,2,0:0:0:0:
323,129,178499,1,2,3:2:0:0:
234,111,178805,2,0,P|193:124|124:62,1,135,2|8,0:0|0:0,0:0:0:0:
49,120,179570,2,0,P|54:181|59:227,1,89.9999999999999,2|10,0:0|3:2,0:0:0:0:
125,268,180182,6,0,P|175:259|217:251,1,89.9999999999999,14|10,3:2|3:2,0:0:0:0:
299,278,180795,2,0,P|306:225|314:180,1,89.9999999999999,10|10,3:2|3:2,0:0:0:0:
298,100,181407,1,8,3:2:0:0:
386,81,181713,2,10,P|429:69|472:57,2,89.9999999999999,10|8|4,3:2|3:2|0:3,3:2:0:0:
435,160,182631,6,0,P|443:217|450:267,1,89.9999999999999,6|10,3:2|0:0,0:0:0:0:
457,293,183091,1,2,0:0:0:0:
390,353,183397,1,2,3:2:0:0:
305,322,183703,2,0,P|258:290|185:305,1,135,2|10,0:0|0:0,0:0:0:0:
108,353,184468,2,0,P|57:344|19:333,1,89.9999999999999,2|10,3:2|0:0,0:0:0:0:
20,243,185080,6,0,P|63:249|110:260,1,89.9999999999999,10|8,3:2|3:2,0:0:0:0:
182,209,185693,2,0,P|177:162|168:107,1,89.9999999999999,8|8,3:2|3:2,0:0:0:0:
164,75,186152,1,8,0:0:0:0:
152,31,186305,2,0,B|97:70|30:35|30:35|-6:125|26:190|26:190|57:171|101:173,1,360,4|6,3:2|0:0,0:0:0:0:
256,192,192427,12,0,195489,0:0:0:0:
229,292,196101,6,0,P|172:310|82:232,1,180,0|10,3:2|0:0,0:0:0:0:
92,152,197019,1,10,0:0:0:0:
168,199,197325,6,0,P|178:151|186:104,1,89.9999999999999,6|0,3:2|3:2,0:0:0:0:
212,24,197938,2,0,P|248:56|285:87,1,89.9999999999999,2|0,3:2|3:2,3:2:0:0:
337,151,198550,2,0,P|290:166|245:182,1,89.9999999999999,2|0,3:2|3:2,0:0:0:0:
170,219,199162,2,0,P|103:209|66:199,1,89.9999999999999,2|2,3:2|3:2,0:0:0:0:
16,141,199774,6,0,P|43:77|148:96,1,180,6|0,3:2|3:2,0:0:0:0:
205,23,200693,1,0,3:2:0:0:
229,109,200999,2,0,P|282:121|415:139,1,180,2|2,3:2|3:2,0:0:0:0:
480,87,201917,1,2,3:2:0:0:
489,176,202223,6,0,P|498:229|503:278,1,89.9999999999999,6|2,3:2|3:2,0:0:0:0:
429,317,202836,2,0,P|378:311|333:295,1,89.9999999999999,8|8,3:2|0:0,0:0:0:0:
268,245,203448,2,0,P|222:251|169:270,1,89.9999999999999,8|8,3:2|3:2,0:0:0:0:
105,316,204060,1,8,3:2:0:0:
93,226,204366,1,10,3:2:0:0:
18,276,204672,6,0,P|8:226|2:171,1,89.9999999999999,10|8,3:2|3:2,0:0:0:0:
55,114,205285,2,0,P|105:124|156:128,1,89.9999999999999,10|2,0:0|3:2,0:0:0:0:
188,129,205744,1,2,0:0:0:0:
232,120,205897,2,0,P|305:105|365:190,1,180,6|10,0:0|0:0,0:0:0:0:
389,358,207121,6,0,P|312:337|193:328,1,180,6|8,3:2|0:0,0:0:0:0:
131,366,208040,1,0,0:0:0:0:
135,276,208346,2,0,P|108:233|150:113,1,180,2|10,0:0|0:0,0:0:0:0:
168,30,209264,1,2,0:0:0:0:
232,92,209570,6,0,P|289:92|432:91,1,180,6|8,3:2|0:0,0:0:0:0:
462,165,210489,1,2,3:2:0:0:
372,177,210795,2,0,P|385:232|405:361,1,180,0|10,3:2|0:0,3:2:0:0:
315,371,211713,1,2,0:0:0:0:
295,282,212019,6,0,P|243:294|195:297,1,89.9999999999999,6|2,3:2|3:2,0:0:0:0:
161,294,212478,2,0,P|165:240|171:190,1,89.9999999999999,2|2,3:2|0:0,0:0:0:0:
182,115,213091,1,2,3:2:0:0:
311,151,213550,2,0,P|359:144|414:135,2,89.9999999999999,2|10|2,0:0|0:0|0:0,0:0:0:0:
233,196,214468,6,0,P|189:193|138:179,1,89.9999999999999,6|2,3:2|3:2,0:0:0:0:
105,158,214927,2,0,P|131:107|213:113,1,135,0|8,3:2|3:2,0:0:0:0:
287,133,215693,2,0,P|286:86|285:31,1,89.9999999999999,12|8,3:2|3:2,0:0:0:0:
365,2,216305,1,10,0:0:0:0:
408,80,216611,1,10,3:2:0:0:
485,34,216917,6,0,P|495:85|496:144,1,89.9999999999999,6|8,3:2|0:0,0:0:0:0:
429,182,217529,2,0,P|364:174|330:162,1,89.9999999999999,2|10,3:2|0:0,0:0:0:0:
258,202,218142,2,0,P|266:250|269:300,1,89.9999999999999,2|8,3:2|0:0,0:0:0:0:
232,318,218601,1,0,3:0:0:0:
187,327,218754,2,0,P|122:321|84:309,1,89.9999999999999,2|10,3:2|0:0,0:0:0:0:
53,235,219366,6,0,P|64:173|72:143,1,89.9999999999999,6|10,3:2|0:0,0:0:0:0:
84,104,219825,1,2,0:0:0:0:
170,131,220131,1,10,3:2:0:0:
150,43,220438,1,10,3:2:0:0:
150,43,220591,2,0,P|197:51|250:59,1,89.9999999999999,2|10,3:2|0:0,0:0:0:0:
321,21,221203,2,0,P|330:77|335:120,1,89.9999999999999,2|10,3:2|0:0,0:0:0:0:
417,144,221815,6,0,P|408:198|402:249,1,89.9999999999999,6|10,3:2|0:0,0:0:0:0:
397,277,222274,2,0,P|345:268|272:307,1,135,2|8,0:0|0:0,0:0:0:0:
194,347,223040,2,0,P|179:305|174:252,1,89.9999999999999,0|8,3:2|0:0,0:0:0:0:
176,215,223499,1,0,0:0:0:0:
193,173,223652,2,0,P|234:180|298:184,1,89.9999999999999,2|8,3:2|0:0,0:0:0:0:
362,143,224264,6,0,P|368:190|374:240,1,89.9999999999999,14|8,3:2|3:2,0:0:0:0:
455,195,224876,2,0,P|463:242|468:295,1,89.9999999999999,10|8,3:2|3:2,0:0:0:0:
474,329,225336,1,0,3:2:0:0:
478,373,225489,2,0,P|451:342|318:345,1,180,14|14,3:2|3:2,0:0:0:0:
172,241,226713,6,0,P|166:188|162:135,1,89.9999999999999
151,62,227325,1,8,3:2:0:0:
151,62,227478,1,8,3:2:0:0:
272,120,227938,1,2,0:0:0:0:
272,120,228091,2,0,P|277:70|280:21,2,89.9999999999999,2|2|2,0:0|0:0|0:0,0:0:0:0:
258,209,229009,6,0,P|215:202|133:250,1,135,6|10,0:0|3:2,0:0:0:0:
58,287,229774,2,0,P|49:227|44:183,1,89.9999999999999,2|10,0:0|3:2,0:0:0:0:
38,153,230234,1,0,3:2:0:0:
24,64,230540,1,10,0:0:0:0:
109,90,230846,2,0,P|160:78|208:66,1,89.9999999999999,2|0,3:2|3:2,0:0:0:0:
233,93,231305,1,10,3:2:0:0:
267,121,231458,6,0,P|304:115|374:180,1,135,6|10,3:2|3:2,0:0:0:0:
457,219,232223,1,10,0:0:0:0:
384,272,232529,1,0,3:2:0:0:
384,272,232682,2,0,P|350:278|286:288,1,89.9999999999999,10|0,3:2|3:2,0:0:0:0:
224,342,233295,1,10,3:2:0:0:
211,252,233601,2,0,P|215:214|224:152,2,89.9999999999999,10|10|10,3:2|3:2|0:0,0:0:0:0:
139,306,234519,5,0,3:2:0:0:
139,306,234672,2,0,P|99:298|33:281,1,89.9999999999999,6|10,3:2|0:0,0:0:0:0:
8,273,235131,1,2,0:0:0:0:
65,203,235438,1,10,0:0:0:0:
17,126,235744,2,0,P|10:70|10:18,1,89.9999999999999,2|0,3:2|3:2,0:0:0:0:
49,15,236203,1,10,3:2:0:0:
93,20,236356,6,0,B|167:10|146:53|225:43,1,135,6|10,3:2|3:2,0:0:0:0:
258,125,237121,1,10,0:0:0:0:
346,98,237427,1,8,3:2:0:0:
346,98,237580,2,0,P|339:158|333:203,2,89.9999999999999,10|10|10,3:2|3:2|3:2,0:0:0:0:
427,136,238499,1,10,3:2:0:0:
421,46,238805,1,6,3:2:0:0:
256,192,238881,12,0,243550,0:0:0:0:
124,178,244392,6,0,B|213:171|213:171|266:203|266:203|365:195,1,247.5,6|0,0:0|3:2,0:0:0:0:
402,190,245387,1,0,3:2:0:0:
