osu file format v14

[General]
AudioFilename: audio.mp3
AudioLeadIn: 0
PreviewTime: 118958
Countdown: 0
SampleSet: Soft
StackLeniency: 0.3
Mode: 0
LetterboxInBreaks: 0
WidescreenStoryboard: 1

[Editor]
DistanceSpacing: 1.1
BeatDivisor: 4
GridSize: 16
TimelineZoom: 2.200006

[Metadata]
Title:courage
TitleUnicode:courage
Artist:Tomatsu Haruka
ArtistUnicode:戸松遥
Creator:dahkjdas
Version:Hard
Source:ソードアート・オンラインⅡ
Tags:SAO sword art online 2 ii Ⅱ mothers rosario anime opening Japanese rock pop jrock jpop op
BeatmapID:3028786
BeatmapSetID:1474960

[Difficulty]
HPDrainRate:4
CircleSize:3.8
OverallDifficulty:6
ApproachRate:8
SliderMultiplier:1.5
SliderTickRate:1

[Events]
//Background and Video events
0,0,"BG.jpg",0,0
//Break Periods
2,70025,78259
2,119158,122494
2,148852,151881
2,187729,191677
//Storyboard Layer 0 (Background)
//Storyboard Layer 1 (Fail)
//Storyboard Layer 2 (Pass)
//Storyboard Layer 3 (Foreground)
//Storyboard Layer 4 (Overlay)
//Storyboard Sound Samples

[TimingPoints]
183,306.122448979592,4,2,0,30,1,0
1407,-133.333333333333,4,2,1,20,0,0
6152,-133.333333333333,4,2,2,30,0,0
6305,-133.333333333333,4,2,1,20,0,0
8754,-133.333333333333,4,2,1,20,0,0
11203,-133.333333333333,4,2,1,30,0,0
19315,-133.333333333333,4,2,1,40,0,0
20999,-100,4,2,1,60,0,0
30795,-100,4,2,1,70,0,0
49621,-100,4,2,1,50,0,0
50080,-100,4,2,1,60,0,0
50387,-100,4,2,1,70,0,1
50693,-100,4,2,1,80,0,1
69825,-100,4,2,1,60,0,0
79009,-111.111111111111,4,2,1,40,0,0
81611,-100,4,2,1,60,0,0
82070,-100,4,2,1,60,0,0
89570,-100,4,2,1,60,0,0
99366,-100,4,2,1,70,0,0
117734,-100,4,2,1,70,0,0
118346,-100,4,2,1,50,0,0
118754,-100,4,2,1,40,0,0
118958,-133.333333333333,4,2,1,30,0,0
123244,-133.333333333333,4,2,1,50,0,0
123550,-133.333333333333,4,2,1,50,0,0
123856,-100,4,2,1,60,0,0
127989,-100,4,2,1,50,0,0
128448,-100,4,2,1,60,0,0
128754,-100,4,2,1,70,0,0
129060,-100,4,2,1,80,0,1
148193,-133.333333333333,4,2,1,60,0,0
152631,-100,4,2,1,60,0,0
153091,-100,4,2,1,50,0,0
157989,-100,4,2,1,80,0,0
167938,-100,4,2,1,70,0,0
186305,-133.333333333333,4,2,1,50,0,0
186917,-133.333333333333,4,2,1,40,0,0
187529,-133.333333333333,4,2,1,30,0,0
192427,-133.333333333333,4,2,1,40,0,0
196101,-100,4,2,1,40,0,0
196254,-100,4,2,1,60,0,0
197325,-100,4,2,1,40,0,0
202223,-100,4,2,1,60,0,0
203448,-100,4,2,1,70,0,0
204060,-100,4,2,1,80,0,0
205897,-133.333333333333,4,2,1,80,0,0
206509,-100,4,2,1,80,0,0
207121,-100,4,2,1,70,0,0
207427,-100,4,2,1,70,0,0
216917,-100,4,2,1,80,0,1
226101,-133.333333333333,4,2,1,60,0,0
227325,-100,4,2,1,60,0,0
227938,-133.333333333333,4,2,1,30,0,0
229009,-100,4,2,1,70,0,0
238805,-133.333333333333,4,2,1,50,0,0
244392,-200,4,2,1,50,0,0
245387,-133.333333333333,4,2,1,50,0,0

[Colours]
Combo1 : 255,128,128
Combo2 : 128,255,128
Combo3 : 255,128,255
Combo4 : 255,255,128

[HitObjects]
34,119,1407,6,0,P|60:79|182:92,2,168.750006437302,2|2|0,0:0|0:0|0:0,0:0:0:0:
120,146,2478,1,2,0:0:0:0:
468,209,3244,6,0,P|409:204|345:198,1,112.500004291535,2|0,0:0|0:0,0:0:0:0:
278,225,3856,6,0,P|275:190|270:103,1,112.500004291535,2|0,0:0|0:0,0:0:0:0:
332,56,4315,1,2,0:0:0:0:
181,155,4774,1,2,0:0:0:0:
181,155,4927,6,0,P|126:161|46:168,1,112.500004291535,2|2,0:0|0:0,0:0:0:0:
12,112,5387,2,0,L|15:49,1,56.2500021457673,2|0,0:0|0:0,0:0:0:0:
97,17,5693,2,0,L|94:86,1,56.2500021457673,2|0,0:0|0:0,0:0:0:0:
165,126,5999,2,0,L|233:122,1,56.2500021457673,2|2,0:0|0:0,0:0:0:0:
234,118,6228,1,2,0:0:0:0:
247,112,6305,6,0,B|235:229|298:199|289:329,1,225.000008583069,2|0,0:0|0:0,0:0:0:0:
72,346,7529,6,0,P|64:281|188:292,1,225.000008583069,2|0,0:0|0:0,0:0:0:0:
268,369,8754,6,0,L|390:362,1,112.500004291535,2|0,0:0|0:0,0:0:0:0:
409,281,9213,2,0,L|289:288,1,112.500004291535,2|0,0:0|0:0,0:0:0:0:
211,295,9672,2,0,P|214:267|224:241,1,56.2500021457673,2|0,0:0|0:0,0:0:0:0:
301,203,9978,5,2,0:0:0:0:
121,266,10591,1,0,0:0:0:0:
301,203,11203,6,0,L|315:84,2,112.500004291535,0|2|2,0:0|0:0|0:0,0:0:0:0:
220,19,12274,5,2,0:0:0:0:
145,57,12427,1,2,0:0:0:0:
145,57,12580,2,0,L|153:177,2,112.500004291535,2|2|2,0:0|0:0|0:0,0:0:0:0:
90,236,13499,6,0,P|146:193|243:214,1,168.750006437302,2|2,0:0|0:0,0:0:0:0:
303,261,14111,1,2,0:0:0:0:
303,261,14264,1,2,0:0:0:0:
422,299,14723,5,2,0:0:0:0:
371,365,14876,1,2,0:0:0:0:
371,365,15029,2,0,L|251:379,2,112.500004291535,2|2|2,0:0|0:0|0:0,0:0:0:0:
499,277,15948,5,0,0:0:0:0:
499,277,16101,2,0,P|458:228|362:246,1,168.750006437302,2|0,0:0|0:0,0:0:0:0:
198,224,17172,5,2,0:0:0:0:
275,190,17325,1,2,0:0:0:0:
275,190,17478,2,0,L|285:318,2,112.500004291535,2|2|2,0:0|0:0|0:0,0:0:0:0:
402,124,18550,6,0,B|311:142|328:91|235:109,1,168.750006437302,2|2,0:0|0:0,0:0:0:0:
160,69,19162,2,0,P|157:97|157:126,1,56.2500021457673,2|2,0:0|0:0,0:0:0:0:
117,197,19468,1,2,0:0:0:0:
117,197,19774,6,0,P|148:175|224:185,2,112.500004291535,10|10|10,0:0|0:0|0:0,0:0:0:0:
77,266,20540,1,8,0:0:0:0:
77,266,20693,1,2,0:0:0:0:
267,333,20999,6,0,L|422:326,2,150,4|10|2,3:2|0:0|3:2,0:0:0:0:
192,366,21764,1,0,3:2:0:0:
192,366,21917,2,0,P|192:315|195:273,1,75,8|2,0:0|0:0,0:0:0:0:
255,231,22223,6,0,P|217:201|238:94,1,150,2|8,3:2|0:0,0:0:0:0:
294,66,22682,2,0,P|304:120|307:152,1,75,2|0,3:2|0:0,0:0:0:0:
383,170,22989,2,0,P|372:229|366:277,1,75,2|8,3:2|0:0,0:0:0:0:
419,305,23295,6,0,P|371:268|273:280,1,150,4|0,0:0|0:0,0:0:0:0:
251,344,23754,1,10,0:0:0:0:
251,344,23907,1,2,0:0:0:0:
199,277,24060,2,0,P|144:290|105:296,1,75,2|0,3:2|3:2,0:0:0:0:
58,240,24366,2,0,P|45:275|38:312,1,75,8|2,0:0|0:0,0:0:0:0:
135,208,24672,5,2,3:2:0:0:
135,208,24825,2,0,P|114:157|94:118,1,75,2|8,3:2|0:0,0:0:0:0:
40,88,25131,2,0,P|106:104|210:115,1,150,2|2,3:2|3:2,0:0:0:0:
263,143,25591,1,8,0:0:0:0:
254,60,25744,6,0,P|294:27|403:53,1,150,6|0,3:2|3:2,0:0:0:0:
470,19,26203,2,0,P|463:73|457:103,1,75,8|0,0:0|0:0,0:0:0:0:
380,117,26509,1,0,3:2:0:0:
380,117,26662,1,0,3:2:0:0:
439,174,26815,2,0,P|487:168|530:157,1,75,8|2,0:0|0:0,0:0:0:0:
486,255,27121,5,2,3:2:0:0:
486,255,27274,2,0,P|499:309|506:350,1,75,2|8,0:0|0:0,0:0:0:0:
419,326,27580,2,0,L|432:382,2,37.5,2|2|2,3:2|0:0|0:0,0:0:0:0:
339,297,27887,2,0,P|292:314|246:330,1,75,2|4,3:2|0:3,0:0:0:0:
197,281,28193,1,4,0:3:0:0:
197,281,28269,1,4,0:3:0:0:
197,281,28346,6,0,P|228:224|314:235,1,150,6|8,3:2|0:0,0:0:0:0:
379,269,28805,1,2,3:2:0:0:
379,269,28958,2,0,P|385:204|395:115,1,150,2|8,3:2|0:0,0:0:0:0:
401,44,29417,1,2,3:2:0:0:
330,75,29570,6,0,P|274:69|252:66,1,75,10|2,3:2|0:0,0:0:0:0:
177,51,29876,2,0,L|186:114,3,37.5,10|0|2|0,0:0|0:0|0:0|0:0,0:0:0:0:
167,118,30182,2,0,L|176:181,3,37.5,8|8|8|8,0:3|0:3|0:3|0:3,0:0:0:0:
153,186,30489,2,0,L|162:249,3,37.5,8|8|8|8,0:3|0:3|0:3|0:3,0:0:0:0:
141,260,30795,6,0,P|96:278|11:209,2,150,14|8|8,0:0|0:0|0:0,0:0:0:0:
267,179,31713,2,0,P|261:208|254:265,1,75,10|0,0:0|3:2,0:0:0:0:
205,322,32019,6,0,P|275:276|347:297,1,150,10|10,0:0|0:0,0:0:0:0:
392,360,32478,1,0,0:0:0:0:
392,360,32631,2,0,P|434:374|472:378,1,75,10|0,0:0|3:2,0:0:0:0:
494,299,32938,2,0,P|462:290|403:277,1,75,10|0,0:0|0:0,0:0:0:0:
364,221,33244,6,0,P|337:185|386:77,1,150,4|0,3:2|3:2,3:2:0:0:
425,42,33703,1,4,0:3:0:0:
363,90,33856,2,0,B|307:82|307:82|272:98|272:98|200:89,1,150,8|8,3:2|0:3,0:0:0:0:
134,69,34315,6,0,P|140:116|149:154,1,75,8|0,0:3|0:0,0:0:0:0:
210,196,34621,2,0,P|270:187|304:178,1,75,0|8,0:0|0:3,0:0:0:0:
357,225,34927,2,0,P|350:280|346:316,1,75,8|8,0:3|0:3,0:0:0:0:
275,343,35234,2,0,B|218:351|218:351|178:339|178:339|137:350|112:353,1,150,4|0,0:0|0:0,0:0:0:0:
60,304,35693,6,0,P|48:249|41:147,2,150,14|8|8,0:0|0:0|0:0,0:0:0:0:
121,141,36611,2,0,P|168:148|219:161,1,75,10|0,0:0|0:0,0:0:0:0:
273,189,36917,6,0,P|280:236|286:276,1,75,10|0,0:0|0:0,0:0:0:0:
361,286,37223,2,0,P|372:233|383:188,1,75,10|0,0:0|0:0,0:0:0:0:
460,172,37529,1,10,0:0:0:0:
460,172,37606,1,0,0:0:0:0:
460,172,37683,1,0,3:2:0:0:
376,129,37836,2,0,P|315:116|271:101,1,75,10|0,0:0|0:0,0:0:0:0:
231,149,38142,6,0,P|221:100|213:-4,1,150,4|0,3:2|3:2,0:0:0:0:
212,0,38601,1,4,0:3:0:0:
295,38,38754,2,0,P|350:14|410:88,1,150,8|8,3:2|0:3,0:0:0:0:
454,138,39213,6,0,P|401:150|349:136,1,75,8|0,0:3|0:0,0:0:0:0:
306,128,39519,1,0,0:0:0:0:
306,128,39672,1,4,0:3:0:0:
322,209,39825,2,4,P|273:213|155:242,1,150,8|8,0:3|0:3,0:0:0:0:
141,317,40285,2,0,L|191:326,3,37.5,8|8|8|8,0:3|0:3|0:3|0:3,0:0:0:0:
208,345,40591,6,0,P|252:322|319:395,1,150,6|8,0:0|0:0,3:2:0:0:
395,344,41050,1,2,0:0:0:0:
395,344,41203,2,0,P|400:292|408:256,1,75,0|0,3:2|3:2,3:2:0:0:
471,224,41509,2,0,P|463:182|448:133,1,75,10|0,0:0|0:0,0:0:0:0:
392,98,41815,6,0,P|433:66|468:44,1,75,2|0,3:2|0:0,0:0:0:0:
377,177,42121,2,0,P|326:173|292:166,1,75,10|0,0:0|0:0,0:0:0:0:
232,126,42427,1,2,3:2:0:0:
232,126,42580,1,0,3:2:0:0:
303,91,42734,2,0,P|312:38|315:4,1,75,10|0,0:0|0:0,0:0:0:0:
204,42,43040,6,0,P|164:70|158:164,1,150,6|8,3:2|0:0,0:0:0:0:
239,141,43499,1,2,3:2:0:0:
275,226,43652,2,0,B|196:213|208:260|127:245,1,150,2|8,3:2|0:0,0:0:0:0:
37,275,44111,1,2,3:2:0:0:
37,275,44264,6,0,P|43:217|46:164,1,75,2|0,3:2|0:0,0:0:0:0:
15,120,44570,2,0,P|72:126|125:129,1,75,10|0,0:0|3:2,0:0:0:0:
174,89,44876,2,0,P|167:146|164:199,1,75,2|0,0:0|3:2,0:0:0:0:
196,244,45182,2,0,P|138:237|85:234,1,75,10|0,3:2|0:0,0:0:0:0:
248,173,45489,6,0,P|306:190|381:115,2,150,6|8|0,3:2|0:0|3:2,3:2:0:0:
301,104,46254,1,0,3:2:0:0:
218,100,46407,2,0,P|210:56|210:6,1,75,10|0,0:0|0:0,0:0:0:0:
288,24,46713,6,0,P|337:26|380:125,1,150,10|10,3:2|3:2,0:0:0:0:
341,178,47172,1,0,3:2:0:0:
341,178,47325,2,0,P|285:172|236:159,1,75,10|0,3:2|3:2,0:0:0:0:
206,110,47631,2,0,P|158:120|118:131,1,75,10|0,3:2|3:2,0:0:0:0:
61,184,47938,5,10,3:2:0:0:
61,184,48091,1,10,3:2:0:0:
51,97,48397,5,10,3:2:0:0:
51,97,48550,1,10,3:2:0:0:
36,9,48856,5,10,3:2:0:0:
36,9,49009,1,10,3:2:0:0:
181,217,49621,5,2,0:0:0:0:
181,217,49774,2,0,P|225:208|267:202,1,75,2|0,0:0|0:0,0:0:0:0:
343,188,50080,2,0,P|313:154|287:121,1,75,2|0,3:2|0:0,0:0:0:0:
236,61,50387,2,0,P|221:103|205:142,1,75,6|0,3:2|0:0,3:2:0:0:
147,81,50693,5,10,0:0:0:0:
147,81,50846,2,0,P|91:70|23:133,1,150,2|2,0:0|3:2,0:0:0:0:
62,198,51305,2,0,P|105:215|134:224,1,75,8|2,0:0|0:0,0:0:0:0:
210,203,51611,6,0,P|215:156|220:120,1,75,2|0,3:2|0:0,0:0:0:0:
193,49,51917,2,0,P|240:54|276:59,1,75,10|0,0:0|0:0,0:0:0:0:
348,35,52223,2,0,P|345:79|341:118,1,75,2|0,3:2|3:2,0:0:0:0:
299,178,52529,1,10,0:0:0:0:
299,178,52682,1,2,0:0:0:0:
385,185,52836,6,0,P|437:182|497:257,2,150,6|8|0,3:2|0:0|3:2,0:0:0:0:
349,257,53601,1,2,3:2:0:0:
403,325,53754,2,0,P|357:335|306:347,1,75,10|0,0:0|0:0,0:0:0:0:
248,373,54060,6,0,P|252:329|258:275,1,75,0|0,3:2|3:2,3:2:0:0:
232,211,54366,2,0,P|278:220|316:227,1,75,8|2,0:0|0:0,0:0:0:0:
172,275,54672,2,0,P|118:284|85:295,1,75,2|0,3:2|3:2,3:2:0:0:
143,192,54978,2,0,P|136:151|126:105,1,75,10|0,0:0|0:0,0:0:0:0:
203,53,55285,6,0,P|214:106|221:139,1,75,6|0,3:2|0:0,0:0:0:0:
251,201,55591,1,10,0:0:0:0:
306,140,55744,2,0,P|352:150|383:155,1,75,2|0,0:0|3:2,0:0:0:0:
427,227,56050,1,2,3:2:0:0:
427,227,56203,2,0,P|378:236|341:241,1,75,8|2,0:0|0:0,0:0:0:0:
317,318,56509,6,0,P|285:282|180:291,2,150,2|10|2,3:2|0:0|3:2,0:0:0:0:
390,364,57274,1,0,3:2:0:0:
390,364,57427,2,0,P|441:361|470:357,1,75,10|0,0:0|0:0,0:0:0:0:
507,289,57734,6,0,P|501:232|487:119,1,150,6|10,3:2|0:0,0:0:0:0:
420,87,58193,1,2,0:0:0:0:
412,168,58346,2,0,P|366:164|322:158,1,75,2|0,3:2|3:2,0:0:0:0:
252,128,58652,2,0,P|259:178|263:216,1,75,8|0,0:0|0:0,0:0:0:0:
330,242,58958,5,12,3:2:0:0:
330,242,59111,1,0,3:2:0:0:
261,281,59264,1,8,3:2:0:0:
326,323,59417,1,0,3:2:0:0:
253,358,59570,2,0,P|194:351|174:349,1,75,10|0,3:2|3:2,0:0:0:0:
145,278,59876,1,10,3:2:0:0:
145,278,60029,1,2,3:2:0:0:
99,341,60182,6,0,P|45:348|1:271,1,150,6|8,3:2|0:0,0:0:0:0:
46,206,60642,1,2,0:0:0:0:
46,206,60795,2,0,P|39:155|32:108,1,75,2|0,3:2|3:2,3:2:0:0:
81,62,61101,2,0,P|130:71|169:81,1,75,10|0,0:0|0:0,0:0:0:0:
211,142,61407,6,0,P|257:104|349:126,2,150,2|8|2,3:2|0:0|3:2,0:0:0:0:
298,261,62172,1,0,3:2:0:0:
298,261,62325,2,0,P|292:211|285:168,1,75,10|0,0:0|0:0,0:0:0:0:
377,216,62631,6,0,P|429:221|459:225,1,75,6|0,3:2|0:0,0:0:0:0:
491,303,62938,1,10,0:0:0:0:
491,303,63091,2,0,P|447:309|410:310,1,75,2|0,0:0|3:2,0:0:0:0:
347,359,63397,1,2,3:2:0:0:
347,359,63550,2,0,P|337:311|332:269,1,75,8|2,0:0|0:0,0:0:0:0:
261,240,63856,6,0,P|220:231|141:296,1,150,2|10,3:2|0:0,0:0:0:0:
72,340,64315,1,0,0:0:0:0:
72,340,64468,2,0,P|58:282|57:251,1,75,2|0,3:2|3:2,3:2:0:0:
46,113,64774,2,8,L|41:160,3,37.5,10|8|8|8,0:0|0:0|0:0|0:0,0:0:0:0:
36,186,65080,6,0,B|118:175|97:224|182:213,1,150,6|10,3:2|0:0,0:0:0:0:
154,128,65540,1,2,0:0:0:0:
239,151,65693,2,0,P|237:98|234:61,1,75,2|0,3:2|3:2,3:2:0:0:
316,49,65999,2,0,P|318:102|321:144,1,75,8|0,0:0|0:0,0:0:0:0:
306,202,66305,5,0,3:2:0:0:
306,202,66458,1,0,3:2:0:0:
383,175,66611,2,0,P|421:182|461:189,1,75,8|0,0:0|0:0,0:0:0:0:
502,89,66917,2,0,P|459:96|411:104,1,75,0|0,3:2|3:2,3:2:0:0:
364,258,67223,1,10,0:0:0:0:
364,258,67529,6,0,P|310:283|232:230,1,150,6|8,3:2|3:2,0:0:0:0:
226,159,67989,1,0,3:2:0:0:
165,214,68142,2,0,P|117:209|65:197,1,75,8|0,3:2|3:2,0:0:0:0:
141,72,68448,2,0,P|188:77|234:86,1,75,10|0,3:2|3:2,0:0:0:0:
294,108,68754,5,10,3:2:0:0:
294,108,68907,2,0,P|288:49|281:15,1,75,10|8,3:2|3:2,0:0:0:0:
214,4,69213,1,10,3:2:0:0:
237,169,69519,1,2,3:2:0:0:
374,75,69825,1,14,0:0:0:0:
299,149,79009,6,0,B|255:75|401:42|421:160|330:235,1,269.999991760254,4|0,0:0|0:0,0:0:0:0:
376,296,79774,6,0,P|333:257|259:264,1,134.999995880127,4|0,0:0|0:0,0:0:0:0:
204,317,80387,1,0,0:0:0:0:
116,216,80846,5,0,0:0:0:0:
116,216,80999,2,0,L|127:286,1,67.4999979400635
43,306,81305,2,0,L|33:229,1,67.4999979400635
52,160,81611,2,0,L|44:117,2,37.5,10|0|2,3:2|3:2|3:2,3:2:0:0:
132,133,81917,1,8,0:0:0:0:
196,182,82070,6,0,P|239:188|316:116,1,150,6|0,0:0|0:0,0:0:0:0:
230,104,82529,2,0,P|219:64|214:26,1,75,10|2,0:0|0:0,0:0:0:0:
295,42,82836,2,0,P|340:35|373:27,1,75,2|0,3:2|3:2,3:2:0:0:
448,0,83142,2,0,P|448:46|434:93,1,75,8|2,0:0|0:0,0:0:0:0:
366,108,83448,5,2,3:2:0:0:
366,108,83601,2,0,P|376:165|394:209,1,75,2|8,3:2|0:0,0:0:0:0:
408,262,83907,1,2,3:2:0:0:
408,262,83984,1,2,0:0:0:0:
408,262,84060,2,0,P|363:258|307:239,1,75,2|2,0:0|3:2,0:0:0:0:
275,196,84366,1,8,0:0:0:0:
203,229,84519,6,0,B|157:239|157:239|104:224|104:224|57:238,1,150,6|0,0:0|3:2,0:0:0:0:
4,177,84978,2,0,P|7:124|10:91,1,75,8|0,0:0|0:0,0:0:0:0:
38,27,85285,1,0,3:2:0:0:
38,27,85438,1,0,3:2:0:0:
108,72,85591,2,0,B|164:67|168:66|192:59|193:58,1,75,8|2,0:0|0:0,0:0:0:0:
264,90,85897,6,0,P|261:53|256:15,2,75,2|2|8,3:2|3:2|0:0,0:0:0:0:
323,158,86356,1,2,0:2:0:0:
323,158,86509,2,0,P|375:164|402:169,1,75,2|0,0:0|3:2,0:0:0:0:
460,121,86815,2,0,P|449:75|438:37,1,75,10|0,0:0|0:0,0:0:0:0:
371,8,87121,6,0,P|340:51|236:39,1,150,6|8,3:2|0:0,0:0:0:0:
175,22,87580,1,2,3:2:0:0:
175,22,87734,2,0,P|165:81|164:102,1,75,2|0,3:2|3:2,0:0:0:0:
106,151,88040,1,8,0:0:0:0:
106,151,88193,1,2,3:2:0:0:
165,213,88346,6,0,P|215:207|253:198,1,75,10|0,3:2|0:0,0:0:0:0:
320,173,88652,1,10,3:2:0:0:
253,124,88805,1,2,0:0:0:0:
253,124,88881,1,2,0:0:0:0:
253,124,88958,2,0,P|239:70|239:45,1,75,10|0,3:2|0:0,0:0:0:0:
320,173,89264,2,0,P|319:223|309:264,1,75,10|0,3:2|0:0,0:0:0:0:
270,311,89570,5,12,3:2:0:0:
270,311,89876,2,0,P|227:275|136:296,1,150,2|10,0:0|3:2,0:0:0:0:
38,84,90642,5,2,0:0:0:0:
38,84,90795,2,0,P|50:141|53:169,1,75,10|2,3:2|3:2,0:0:0:0:
0,223,91101,1,0,0:0:0:0:
0,223,91254,2,0,P|39:241|91:234,1,75,2|8,3:2|0:0,0:0:0:0:
135,182,91560,2,0,P|143:124|145:87,1,75,2|0,3:2|0:0,0:0:0:0:
201,52,91866,6,0,P|239:33|316:100,1,150,14|0,0:0|0:0,0:0:0:0:
344,170,92325,2,0,P|294:169|255:149,1,75,2|0,3:2|0:0,0:0:0:0:
202,130,92631,1,10,3:2:0:0:
417,219,93091,5,2,3:2:0:0:
417,219,93244,2,0,P|425:168|434:122,1,75,10|2,3:2|0:0,3:2:0:0:
494,256,93550,1,0,0:0:0:0:
494,256,93703,2,0,P|497:306|499:339,1,75,2|10,3:2|0:0,0:0:0:0:
420,301,94009,2,0,P|365:321|331:323,1,75,2|0,3:2|0:0,0:0:0:0:
280,278,94315,6,0,P|290:198|304:106,1,150,14|2,0:0|0:0,0:0:0:0:
232,78,94774,2,0,P|182:89|107:24,1,150,2|8,0:0|3:2,0:0:0:0:
31,21,95234,1,0,0:0:0:0:
31,21,95387,2,0,P|42:77|55:112,1,75,0|2,0:0|3:2,0:0:0:0:
108,146,95693,6,2,P|101:191|86:239,1,75,8|2,3:2|0:0,0:0:0:0:
43,286,95999,1,0,3:2:0:0:
43,286,96152,2,0,P|85:250|188:278,1,150,2|2,3:2|3:2,0:0:0:0:
239,325,96611,2,0,P|290:335|337:347,1,75,0|0,0:0|3:2,0:0:0:0:
330,348,96841,1,0,3:0:0:0:
345,355,96917,6,0,P|372:322|325:231,1,150,12|0,3:2|3:2,0:0:0:0:
256,250,97376,1,10,3:2:0:0:
276,176,97529,2,0,P|264:128|259:88,1,75,2|0,3:2|0:0,0:0:0:0:
337,64,97836,2,0,P|348:112|356:153,1,75,8|2,0:0|3:2,0:0:0:0:
409,198,98142,6,0,P|467:192|499:189,1,75,10|2,3:2|3:2,0:0:0:0:
507,270,98448,2,0,P|466:275|416:277,1,75,10|2,0:0|3:2,0:0:0:0:
369,336,98754,2,0,L|327:326,3,37.5,8|8|8|8,0:3|0:3|0:3|0:3,0:0:0:0:
299,344,99060,2,0,L|252:337,3,37.5,8|8|8|8,0:3|0:3|0:3|0:3,0:0:0:0:
228,356,99366,6,0,P|184:330|206:238,2,150,14|8|8,0:0|0:0|0:0,0:0:0:0:
371,311,100285,2,0,P|377:265|393:208,1,75,10|0,0:0|0:0,0:0:0:0:
348,165,100591,6,0,P|296:192|180:203,1,150,10|10,0:0|0:0,0:0:0:0:
137,246,101050,1,0,0:0:0:0:
137,246,101203,2,0,P|92:238|50:230,1,75,10|0,0:0|3:2,0:0:0:0:
63,153,101509,2,0,P|119:161|166:172,1,75,10|0,0:0|0:0,0:0:0:0:
195,104,101815,6,0,P|234:146|339:113,1,150,4|0,3:2|3:2,0:0:0:0:
269,73,102274,1,4,0:3:0:0:
319,135,102427,2,0,B|304:186|304:186|321:215|321:215|300:284,1,150,8|4,3:2|0:3,0:3:0:0:
278,353,102887,6,0,P|318:349|370:342,1,75,4|0,0:3|0:0,0:0:0:0:
431,367,103193,2,0,P|440:318|439:275,1,75,0|4,0:0|0:3,0:0:0:0:
506,237,103499,2,0,P|497:190|482:148,1,75,4|0,0:3|0:0,0:0:0:0:
420,116,103805,2,0,P|357:128|350:210,1,150,4|8,0:3|0:3,0:0:0:0:
294,266,104264,6,0,P|240:262|125:225,2,150,6|8|8,0:0|0:0|0:0,0:0:0:0:
180,113,105182,2,0,P|214:108|262:94,1,75,10|0,0:0|0:0,0:0:0:0:
275,22,105489,6,0,P|335:8|393:84,1,150,10|10,0:0|0:0,0:0:0:0:
444,133,105948,1,0,0:0:0:0:
444,133,106101,2,0,P|403:147|353:139,1,75,10|0,0:0|3:2,0:0:0:0:
308,196,106407,2,0,P|317:259|329:298,1,75,10|0,0:0|0:0,0:0:0:0:
377,328,106713,6,0,P|332:302|226:308,1,150,4|0,3:2|3:2,3:2:0:0:
173,351,107172,1,4,0:3:0:0:
165,275,107325,2,0,P|159:230|157:182,2,75,8|0|4,3:2|0:0|0:3,0:0:0:0:
100,320,107785,6,0,P|44:324|17:326,1,75,4|0,0:3|0:0,0:0:0:0:
1,237,108091,2,0,P|51:242|103:246,1,75,0|4,0:0|0:3,0:0:0:0:
142,195,108397,1,4,0:3:0:0:
64,160,108550,2,0,P|56:116|49:64,1,75,4|8,0:3|0:3,0:3:0:0:
148,32,108856,2,0,P|146:51|139:90,3,37.5,8|8|8|8,0:3|0:3|0:3|0:3,0:0:0:0:
142,104,109162,6,0,P|197:124|260:51,1,150,6|8,3:2|0:0,0:0:0:0:
334,24,109621,1,2,0:0:0:0:
331,106,109774,2,0,P|394:99|475:133,1,150,0|10,3:2|0:0,3:2:0:0:
439,202,110234,1,0,0:0:0:0:
508,251,110387,6,0,P|473:278|369:253,1,150,2|10,3:2|0:0,0:0:0:0:
312,208,110846,1,0,0:0:0:0:
312,208,110999,2,0,P|261:220|223:225,1,75,2|0,3:2|3:2,0:0:0:0:
185,283,111305,2,0,P|141:276|105:276,1,75,10|0,0:0|0:0,0:0:0:0:
42,225,111611,6,0,P|12:168|88:121,1,150,6|8,3:2|0:0,0:0:0:0:
151,126,112070,1,2,3:2:0:0:
196,62,112223,2,0,P|178:128|176:210,1,150,2|8,3:2|0:0,0:0:0:0:
196,284,112682,1,2,3:2:0:0:
257,228,112836,6,0,P|309:246|403:263,2,150,2|10|2,3:2|0:0|0:0,0:0:0:0:
319,172,113601,1,0,3:2:0:0:
241,149,113754,2,8,P|232:93|232:52,1,75,10|8,3:2|0:0,0:0:0:0:
236,55,113984,1,8,0:0:0:0:
241,38,114060,6,0,P|284:20|361:84,2,150,4|8|0,3:2|0:0|3:2,0:0:0:0:
165,15,114825,1,0,3:2:0:0:
165,15,114978,2,0,P|160:68|162:117,1,75,10|0,0:0|0:0,0:0:0:0:
105,152,115285,6,0,P|56:169|6:87,1,150,2|0,3:2|3:2,0:0:0:0:
50,38,115744,1,0,0:0:0:0:
50,38,115897,2,0,P|101:53|141:62,1,75,0|0,3:2|3:2,3:2:0:0:
195,17,116203,2,0,P|205:73|212:117,1,75,10|0,0:0|0:0,0:0:0:0:
280,131,116509,6,0,P|332:144|443:148,1,150,10|10,3:2|3:2,0:0:0:0:
497,113,116968,1,0,3:2:0:0:
426,74,117121,2,0,P|417:31|418:0,1,75,10|0,3:2|3:2,0:0:0:0:
495,33,117427,1,10,3:2:0:0:
495,33,117580,1,0,3:2:0:0:
501,116,117734,6,8,L|510:228,2,100,8|8|8,3:3|0:3|0:3,0:3:0:0:
416,173,118346,2,8,P|356:185|292:191,2,100,8|8|8,0:3|0:3|0:3,0:3:0:0:
427,269,118958,1,4,0:2:0:0:
3,375,123244,5,10,0:0:0:0:
3,375,123397,1,0,3:2:0:0:
58,315,123550,2,0,P|101:324|137:328,1,56.2500021457673,0|0,3:0|3:0,0:0:0:0:
186,357,123856,6,0,P|238:379|323:320,1,150,14|2,3:2|0:0,0:0:0:0:
314,258,124315,1,2,3:2:0:0:
240,294,124468,2,0,P|237:231|228:128,1,150,8|0,3:2|0:0,0:0:0:0:
184,80,124927,1,2,3:2:0:0:
184,80,125080,6,0,P|139:133|51:128,1,150,10|2,3:2|3:2,0:0:0:0:
10,77,125540,1,0,3:2:0:0:
10,77,125693,2,0,P|3:37|1:2,1,75,0|0,3:2|3:0,0:0:0:0:
87,29,125999,2,0,P|134:41|186:48,1,75,2|2,3:2|0:0,3:0:0:0:
272,27,126305,5,10,3:2:0:0:
272,27,126458,1,10,3:2:0:0:
253,108,126764,5,10,3:2:0:0:
253,108,126917,1,10,3:2:0:0:
231,186,127223,5,10,3:2:0:0:
231,186,127376,1,10,3:2:0:0:
113,221,127989,5,2,0:0:0:0:
113,221,128142,2,0,P|154:237|205:253,1,75,2|0,0:0|0:0,0:0:0:0:
263,287,128448,2,0,P|228:314|189:350,1,75,2|0,3:2|0:0,0:0:0:0:
130,383,128754,2,0,P|123:339|111:287,1,75,6|0,3:2|0:0,3:2:0:0:
43,273,129060,5,10,0:0:0:0:
43,273,129213,2,0,P|24:228|85:134,1,150,2|0,0:0|3:2,0:0:0:0:
147,130,129672,2,0,P|160:176|161:221,1,75,8|2,0:0|0:0,0:0:0:0:
223,258,129978,6,0,P|241:221|247:173,1,75,2|0,3:2|0:0,0:0:0:0:
298,122,130285,2,0,L|404:134,1,75,10|0,0:0|0:0,0:0:0:0:
396,218,130591,2,0,L|317:209,1,75,2|0,3:2|3:2,0:0:0:0:
246,187,130897,1,10,0:0:0:0:
246,187,131050,1,2,0:0:0:0:
196,114,131203,6,0,P|251:129|342:76,1,150,6|8,3:2|0:0,0:0:0:0:
359,12,131662,1,0,0:0:0:0:
278,33,131815,2,0,P|216:29|186:22,1,75,0|2,3:2|3:2,0:0:0:0:
332,91,132121,2,0,P|391:84|420:75,1,75,10|0,0:0|0:0,0:0:0:0:
480,42,132427,5,0,3:2:0:0:
480,42,132580,1,0,3:2:0:0:
482,124,132734,2,0,P|492:172|497:207,1,75,8|0,0:0|0:0,0:0:0:0:
428,244,133040,2,0,P|381:238|329:228,1,75,2|0,3:2|3:2,3:2:0:0:
301,169,133346,2,0,P|258:176|216:186,1,75,10|0,0:0|0:0,0:0:0:0:
174,245,133652,6,0,P|130:258|48:187,1,150,6|10,3:2|0:0,0:0:0:0:
103,138,134111,2,0,P|98:86|103:47,1,75,2|0,0:0|3:2,0:0:0:0:
170,18,134417,1,2,3:2:0:0:
175,99,134570,2,0,P|219:94|258:83,1,75,8|2,0:0|0:0,0:0:0:0:
318,44,134876,6,0,P|366:32|442:118,2,150,2|10|2,3:2|0:0|3:2,0:0:0:0:
242,7,135642,1,0,3:2:0:0:
250,88,135795,2,0,P|259:150|265:185,1,75,10|0,0:0|0:0,0:0:0:0:
329,211,136101,6,0,P|383:197|459:253,1,150,6|10,3:2|0:0,0:0:0:0:
488,320,136560,1,2,0:0:0:0:
410,310,136713,2,0,P|363:318|316:325,1,75,2|0,3:2|3:2,0:0:0:0:
265,363,137019,2,0,P|257:320|253:268,1,75,8|0,0:0|0:0,0:0:0:0:
245,212,137325,5,12,3:2:0:0:
245,212,137478,1,0,3:2:0:0:
183,264,137631,1,8,3:2:0:0:
103,249,137785,1,2,3:2:0:0:
75,175,137938,2,0,P|71:131|72:66,1,75,10|0,3:2|3:2,0:0:0:0:
153,65,138244,2,0,P|155:115|151:163,1,75,10|0,3:2|3:2,0:0:0:0:
146,225,138550,6,0,P|199:210|280:270,1,150,6|8,3:2|0:0,0:0:0:0:
346,217,139009,1,2,0:0:0:0:
275,177,139162,2,0,P|269:137|270:97,1,75,2|0,3:2|3:2,3:2:0:0:
353,135,139468,2,0,P|404:131|436:124,1,75,10|0,0:0|0:0,0:0:0:0:
483,72,139774,6,0,P|462:122|446:237,1,150,2|8,3:2|0:0,0:0:0:0:
490,286,140234,1,0,0:0:0:0:
408,282,140387,2,0,P|362:293|323:300,1,75,2|0,3:2|3:2,3:2:0:0:
291,227,140693,2,0,P|348:214|395:206,1,75,10|0,0:0|0:0,0:0:0:0:
425,153,140999,5,6,3:2:0:0:
346,134,141152,2,0,P|338:94|337:45,1,75,0|10,0:0|0:0,0:0:0:0:
434,78,141458,2,0,P|431:124|419:171,1,75,2|0,0:0|3:2,0:0:0:0:
364,210,141764,1,2,3:2:0:0:
417,278,141917,2,0,P|471:273|506:268,1,75,8|2,0:0|0:0,0:0:0:0:
435,361,142223,6,0,P|380:358|336:268,1,150,2|10,3:2|0:0,0:0:0:0:
274,228,142683,1,0,3:2:0:0:
274,228,142836,2,0,P|255:270|258:314,1,75,2|0,3:2|3:2,0:0:0:0:
183,179,143142,2,8,L|178:122,3,37.5,10|8|0|0,0:0|0:0|0:0|0:0,0:0:0:0:
174,109,143448,6,0,P|138:70|44:85,1,150,6|10,3:2|0:0,0:0:0:0:
101,142,143907,1,2,0:0:0:0:
21,159,144060,2,0,P|12:201|9:244,1,75,0|0,3:2|3:2,3:2:0:0:
54,304,144366,2,0,P|103:290|145:286,1,75,8|0,0:0|0:0,0:0:0:0:
148,364,144672,5,0,3:2:0:0:
148,364,144825,1,0,3:2:0:0:
209,303,144978,2,0,P|225:243|225:196,1,75,8|0,0:0|3:0,0:0:0:0:
226,231,145208,1,0,3:0:0:0:
226,231,145285,1,0,3:2:0:0:
182,157,145438,1,0,3:2:0:0:
104,187,145591,2,0,P|61:177|22:175,1,75,10|0,0:0|0:0,0:0:0:0:
182,157,145897,6,0,P|204:95|222:-4,1,150,6|8,3:2|3:2,0:0:0:0:
291,60,146356,1,0,3:2:0:0:
291,60,146509,2,0,P|343:48|381:43,1,75,8|0,3:2|3:2,0:0:0:0:
430,1,146815,2,0,P|477:7|508:10,1,75,10|0,3:2|3:2,0:0:0:0:
437,85,147121,5,10,3:2:0:0:
437,85,147274,2,0,P|421:144|415:192,1,75,2|8,3:2|0:0,0:0:0:0:
345,207,147580,1,10,3:2:0:0:
511,140,147887,1,10,0:0:0:0:
367,39,148193,2,0,B|318:36|285:59|285:59|267:18|220:2,1,168.750006437302,14|0,0:0|0:0,0:0:0:0:
370,156,152631,5,8,3:2:0:0:
301,241,152785,1,8,3:2:0:0:
301,241,153091,6,0,P|235:247|148:215,1,150,6|2,0:0|0:0,0:0:0:0:
209,156,153550,2,0,P|215:110|212:66,1,75,2|0,3:2|3:2,3:2:0:0:
162,17,153856,1,10,3:2:0:0:
137,92,154009,2,0,P|99:89|56:62,1,75,2|0,3:2|0:0,3:2:0:0:
162,17,154315,6,0,P|209:-2|295:66,1,150,2|0,3:2|0:0,0:0:0:0:
346,107,154774,2,0,P|388:100|433:92,1,75,2|2,3:2|3:2,0:0:0:0:
484,141,155080,1,8,0:0:0:0:
484,141,155234,1,2,0:0:0:0:
410,171,155387,1,10,3:2:0:0:
472,219,155540,6,0,P|498:279|442:345,1,150,6|2,3:2|0:0,0:0:0:0:
380,377,155999,2,0,P|334:372|296:363,1,75,2|0,3:2|3:2,0:0:0:0:
256,301,156305,1,10,3:2:0:0:
256,301,156458,2,0,P|265:247|279:212,1,75,0|2,0:0|3:2,0:0:0:0:
342,174,156764,6,0,P|345:125|323:21,1,150,2|0,3:2|3:2,0:0:0:0:
325,26,157223,1,2,3:2:0:0:
259,84,157376,2,0,P|209:108|111:-2,1,225,10|0,3:2|0:0,0:0:0:0:
196,20,157989,6,0,P|182:59|80:86,1,150,6|0,3:2|3:2,0:0:0:0:
8,69,158448,2,2,P|12:120|21:161,1,75,10|2,3:2|0:0,0:0:0:0:
4,222,158754,1,2,3:2:0:0:
4,222,158907,2,0,P|50:233|102:240,1,75,2|10,3:2|0:0,0:0:0:0:
150,202,159213,6,0,P|206:187|275:255,1,150,2|0,3:2|3:2,0:0:0:0:
304,316,159672,2,0,P|245:324|212:333,1,75,10|2,3:2|0:0,0:0:0:0:
166,378,159978,1,2,3:2:0:0:
166,378,160131,2,0,P|153:337|150:288,1,75,2|10,3:2|0:0,0:0:0:0:
108,239,160438,6,0,P|149:267|259:264,1,150,6|0,3:2|3:2,0:0:0:0:
308,215,160897,1,10,3:2:0:0:
308,215,161050,1,2,0:0:0:0:
228,193,161203,2,0,P|221:145|231:86,1,75,2|2,3:2|3:2,0:0:0:0:
266,53,161509,1,10,0:0:0:0:
304,124,161662,6,0,P|356:138|453:138,1,150,2|0,0:0|3:2,0:0:0:0:
388,65,162121,1,10,3:2:0:0:
388,65,162274,1,2,3:2:0:0:
373,156,162427,2,0,P|367:199|364:249,1,75,2|2,3:2|3:2,0:0:0:0:
436,288,162734,1,0,3:2:0:0:
355,317,162887,6,0,B|322:337|283:343|283:343|248:327|202:326,1,150,6|0,3:2|3:2,0:0:0:0:
139,378,163346,2,0,P|124:328|124:290,1,75,10|2,3:2|0:0,0:0:0:0:
115,222,163652,2,0,P|165:234|198:253,1,75,2|2,3:2|3:2,0:0:0:0:
264,283,163958,2,0,P|228:320|195:339,1,75,10|2,0:0|3:2,0:0:0:0:
255,199,164264,6,0,P|291:179|327:152,1,75,2|2,3:2|3:2,0:0:0:0:
393,105,164570,2,0,P|357:83|316:66,1,75,10|2,0:0|0:0,0:0:0:0:
245,29,164876,2,0,P|244:70|249:114,1,75,2|2,3:2|3:2,0:0:0:0:
179,153,165182,1,10,3:2:0:0:
162,76,165336,6,0,P|118:68|44:141,1,150,6|0,0:0|3:2,0:0:0:0:
5,206,165795,2,0,P|44:221|101:228,1,75,10|2,3:2|3:2,0:0:0:0:
139,175,166101,1,10,3:2:0:0:
139,175,166254,1,2,3:2:0:0:
218,209,166407,1,10,3:2:0:0:
218,209,166560,1,2,3:2:0:0:
286,151,166713,5,10,3:2:0:0:
286,151,166866,2,0,P|363:168|424:112,2,150,10|10|10,3:2|3:2|3:2,0:0:0:0:
215,110,167631,1,0,0:0:0:0:
286,73,167785,6,0,P|302:136|314:227,1,150,6|0,3:2|0:0,0:0:0:0:
272,288,168244,2,0,P|217:277|172:257,1,75,10|2,0:0|0:0,0:0:0:0:
179,197,168550,1,2,3:2:0:0:
179,197,168703,1,2,3:2:0:0:
121,250,168856,2,0,P|109:295|107:323,1,75,8|2,0:0|0:0,0:0:0:0:
173,374,169162,6,0,P|219:382|301:307,1,150,0|10,0:0|0:0,0:0:0:0:
287,242,169621,1,0,0:0:0:0:
361,277,169774,2,0,P|417:274|456:271,1,75,2|0,3:2|3:2,3:2:0:0:
476,197,170080,2,0,P|431:189|377:187,1,75,10|0,0:0|0:0,0:0:0:0:
329,151,170387,6,0,P|267:164|205:84,1,150,6|10,3:2|0:0,0:0:0:0:
286,78,170846,1,2,0:0:0:0:
219,28,170999,2,0,P|158:37|115:47,1,75,0|2,3:2|3:2,0:0:0:0:
67,21,171305,1,8,0:0:0:0:
88,97,171458,6,0,P|103:164|116:277,1,150,2|0,0:0|0:0,0:0:0:0:
72,313,171917,1,10,0:0:0:0:
72,313,172070,1,0,0:0:0:0:
32,240,172223,2,0,P|38:189|51:131,1,75,2|0,3:2|3:2,0:0:0:0:
112,123,172529,2,0,P|166:152|207:158,1,75,10|0,3:2|0:0,0:0:0:0:
256,115,172836,6,0,P|307:102|375:174,2,150,4|10|10,3:2|3:2|3:2,0:0:0:0:
191,59,173601,1,0,0:0:0:0:
257,12,173754,2,0,P|308:22|358:32,1,75,10|0,3:2|0:0,0:0:0:0:
408,10,174060,6,0,P|420:72|424:193,1,150,4|10,3:2|3:2,0:0:0:0:
505,178,174519,1,2,0:0:0:0:
442,235,174672,2,0,P|387:245|341:255,1,75,10|0,3:2|0:0,0:0:0:0:
302,194,174978,1,10,3:2:0:0:
291,276,175131,1,0,0:0:0:0:
225,223,175285,6,0,P|183:235|97:148,2,150,6|8|2,3:2|0:0|3:2,0:0:0:0:
267,134,176050,1,0,3:2:0:0:
196,78,176203,2,0,P|184:120|180:167,1,75,8|0,0:0|0:0,0:0:0:0:
267,134,176509,6,0,B|340:122|328:180|420:162,1,150,0|8,3:2|0:0,0:0:0:0:
478,211,176968,1,0,0:0:0:0:
478,211,177121,2,8,P|436:243|396:237,1,75,8|8,3:2|3:2,3:2:0:0:
334,242,177427,2,0,L|339:284,3,37.5,4|4|4|4,0:3|0:3|0:3|0:3,0:0:0:0:
343,320,177734,6,0,P|301:307|208:369,1,150,6|10,3:2|0:0,0:0:0:0:
143,318,178193,2,0,P|137:262|131:220,1,75,2|0,0:0|3:2,0:0:0:0:
117,164,178499,1,2,3:2:0:0:
193,190,178652,2,0,P|249:182|294:172,1,75,8|2,0:0|0:0,0:0:0:0:
323,117,178958,6,0,P|373:102|446:179,1,150,2|8,3:2|0:0,0:0:0:0:
497,222,179417,1,2,3:2:0:0:
497,222,179494,1,2,0:0:0:0:
497,222,179570,2,0,P|488:264|487:306,1,75,2|0,0:0|0:0,0:0:0:0:
503,378,179876,2,0,P|454:373|401:353,1,75,10|0,3:2|0:0,0:0:0:0:
401,284,180182,6,0,P|355:305|246:322,1,150,14|10,3:2|3:2,0:0:0:0:
246,244,180642,1,0,0:0:0:0:
183,293,180795,2,0,P|137:287|86:275,1,75,10|0,3:2|0:0,0:0:0:0:
95,196,181101,2,0,P|144:203|189:213,1,75,10|0,3:2|0:0,0:0:0:0:
240,157,181407,6,0,P|265:106|205:35,1,150,8|10,3:2|3:2,0:0:0:0:
148,91,181866,1,10,3:2:0:0:
148,91,182019,2,0,P|154:160|170:242,1,150,8|4,3:2|0:3,0:0:0:0:
241,275,182478,1,4,0:3:0:0:
170,316,182631,6,0,P|129:325|45:267,1,150,6|10,3:2|0:0,0:0:0:0:
86,196,183091,2,0,P|130:207|171:219,1,75,2|0,0:0|3:2,0:0:0:0:
228,170,183397,1,2,3:2:0:0:
228,170,183550,2,0,P|219:116|211:73,1,75,8|2,0:0|0:0,0:0:0:0:
276,42,183856,6,0,P|305:78|414:64,1,150,2|10,3:2|0:0,0:0:0:0:
453,19,184315,1,2,0:0:0:0:
474,95,184468,2,0,P|481:148|481:190,1,75,2|0,3:2|3:2,0:0:0:0:
417,219,184774,2,0,P|352:211|312:200,1,75,10|0,0:0|0:0,0:0:0:0:
279,157,185080,6,0,B|233:166|233:166|198:198|198:198|130:213,1,150,10|8,3:2|3:2,0:0:0:0:
143,209,185540,1,0,3:2:0:0:
159,124,185693,2,0,L|150:42,1,75,8|0,3:2|3:2,0:0:0:0:
225,8,185999,2,0,L|235:97,1,75,8|8,3:2|0:0,0:0:0:0:
239,162,186305,1,4,3:2:0:0:
256,192,186381,12,6,187529,0:0:0:0:
95,324,192427,6,0,P|67:273|246:262,1,337.500012874604,2|0,0:0|0:0,0:0:0:0:
159,262,193652,6,0,B|275:251|254:328|373:311,1,225.000008583069,0|2,0:0|0:0,0:0:0:0:
452,376,194570,1,2,0:0:0:0:
452,376,194876,6,0,P|464:321|464:247,1,112.500004291535,2|2,0:0|0:0,0:0:0:0:
317,91,195489,2,0,L|325:159,1,56.2500021457673
335,225,195795,1,0,0:0:0:0:
98,253,196101,5,0,3:2:0:0:
98,253,196254,1,0,0:0:0:0:
77,169,196407,2,0,P|129:174|175:195,1,75,8|0,0:0|0:0,0:0:0:0:
229,199,196713,2,0,P|222:151|214:103,1,75,10|0,0:0|0:0,0:0:0:0:
203,50,197019,1,10,0:0:0:0:
203,50,197172,1,2,0:0:0:0:
203,50,197325,6,0,P|246:73|356:78,1,150,6|0,3:2|3:2,0:0:0:0:
408,30,197785,1,0,0:0:0:0:
408,30,197938,2,0,P|451:14|511:89,1,150,2|0,3:2|3:2,3:2:0:0:
481,247,198550,6,0,P|408:260|308:247,1,150,2|0,3:2|3:2,0:0:0:0:
254,206,199009,1,2,0:0:0:0:
254,206,199162,2,0,P|245:258|243:292,1,75,2|0,3:2|0:0,0:0:0:0:
181,328,199468,2,0,P|127:319|79:313,1,75,2|0,3:2|0:0,0:0:0:0:
48,264,199774,6,0,P|63:218|174:209,1,150,6|2,3:2|3:2,0:0:0:0:
228,226,200234,2,0,P|232:163|241:64,2,150,2|2|2,0:0|0:0|0:0,0:0:0:0:
283,283,200999,6,0,P|328:300|397:220,1,150,2|2,3:2|3:2,0:0:0:0:
420,163,201458,1,0,0:0:0:0:
420,163,201611,2,0,P|365:159|319:149,1,75,2|0,3:2|0:0,0:0:0:0:
290,97,201917,2,0,P|234:106|186:117,1,75,2|2,3:2|0:0,0:0:0:0:
158,163,202223,6,0,P|101:171|30:91,1,150,6|2,3:2|3:2,0:0:0:0:
86,49,202682,1,2,0:0:0:0:
86,49,202836,2,0,P|134:64|188:74,1,75,8|0,3:2|0:0,0:0:0:0:
229,37,203142,2,0,P|241:89|245:139,1,75,8|0,0:0|0:0,0:0:0:0:
317,138,203448,6,0,P|302:193|285:293,1,150,8|8,3:2|3:2,0:0:0:0:
285,284,203907,1,0,3:2:0:0:
359,336,204060,2,0,P|403:329|458:319,1,75,8|0,3:2|3:2,0:0:0:0:
462,248,204366,2,0,P|437:211|340:212,1,150,10|10,3:2|3:2,0:0:0:0:
143,329,204978,5,8,3:2:0:0:
236,342,205285,2,0,P|230:288|214:254,1,75,10|0,0:0|0:0,0:0:0:0:
251,191,205591,1,2,3:2:0:0:
251,191,205744,1,2,0:0:0:0:
251,191,205897,6,0,P|208:255|122:242,1,168.750006437302,6|2,0:0|0:0,0:0:0:0:
67,191,206509,2,8,P|73:143|85:103,1,75,10|0,0:0|3:2,0:0:0:0:
139,64,206815,2,0,P|192:77|245:82,1,75,2|0,0:0|0:0,0:0:0:0:
278,37,207121,6,0,P|290:111|304:213,1,150,6|2,3:2|3:2,0:0:0:0:
219,298,207580,1,2,3:2:0:0:
219,298,207657,1,0,0:0:0:0:
219,298,207734,1,8,0:0:0:0:
293,340,207887,2,0,P|349:357|419:286,1,150,2|2,0:0|3:2,0:0:0:0:
455,228,208346,6,0,P|406:223|291:197,1,150,2|2,0:0|0:0,0:0:0:0:
105,84,208958,1,10,0:0:0:0:
143,159,209111,1,0,3:2:0:0:
220,134,209264,2,0,P|231:72|239:35,1,75,2|2,0:0|0:0,0:0:0:0:
301,13,209570,6,0,P|343:0|430:76,1,150,6|0,3:2|3:2,0:0:0:0:
465,128,210029,1,0,3:2:0:0:
465,128,210182,2,0,P|422:140|368:150,1,75,8|2,0:0|0:0,0:0:0:0:
314,131,210489,2,0,P|310:178|306:229,1,75,2|0,3:2|3:2,0:0:0:0:
355,270,210795,6,0,P|324:240|208:253,1,150,0|0,3:2|0:0,3:2:0:0:
151,295,211254,1,0,3:2:0:0:
151,295,211407,2,0,P|142:249|135:205,1,75,10|0,0:0|3:2,3:2:0:0:
200,167,211713,1,2,0:0:0:0:
200,167,211866,1,0,0:0:0:0:
117,145,212019,6,0,P|66:156|-2:85,1,150,6|2,3:2|3:2,0:0:0:0:
59,0,212478,2,0,P|70:45|76:83,1,75,2|8,3:2|0:0,0:0:0:0:
159,73,212785,1,2,0:0:0:0:
159,73,212938,2,0,P|208:85|243:97,1,75,0|2,0:0|3:2,0:0:0:0:
299,51,213244,5,0,0:0:0:0:
356,108,213397,1,8,0:0:0:0:
426,71,213550,1,2,0:0:0:0:
492,248,213856,6,0,P|469:199|376:199,1,150,10|2,0:0|0:0,3:2:0:0:
258,152,214468,6,0,P|247:221|243:328,1,150,6|2,3:2|3:2,0:0:0:0:
178,355,214927,1,0,3:2:0:0:
178,355,215004,1,0,3:0:0:0:
178,355,215080,2,0,P|117:361|87:364,1,75,8|0,3:2|0:0,0:0:0:0:
33,329,215387,1,8,3:2:0:0:
33,329,215540,1,0,3:2:0:0:
73,261,215693,6,0,P|79:216|93:159,1,75,12|0,3:2|3:2,0:0:0:0:
129,114,215999,2,0,P|86:100|51:74,1,75,8|0,3:2|3:2,0:0:0:0:
126,30,216305,1,10,0:0:0:0:
198,71,216458,1,8,0:0:0:0:
265,19,216611,2,0,L|316:33,3,37.5,10|8|10|8,3:2|3:2|3:2|3:2,0:0:0:0:
338,28,216917,6,0,P|345:92|348:209,1,150,6|8,3:2|0:0,0:0:0:0:
421,206,217376,1,0,0:0:0:0:
352,256,217529,2,0,P|346:315|345:359,1,75,2|0,3:2|3:2,0:0:0:0:
419,364,217836,2,0,P|425:322|425:266,1,75,10|0,0:0|0:0,0:0:0:0:
421,206,218142,6,0,P|372:218|239:231,1,150,2|8,3:2|0:0,0:0:0:0:
204,184,218601,1,0,3:0:0:0:
204,184,218677,1,0,3:0:0:0:
204,184,218754,2,0,P|191:128|191:79,1,75,2|0,3:2|3:2,0:0:0:0:
119,75,219060,1,10,0:0:0:0:
70,141,219213,1,0,0:0:0:0:
2,101,219366,6,0,P|35:145|52:255,1,150,6|10,3:2|0:0,0:0:0:0:
36,312,219825,1,2,0:0:0:0:
132,350,219978,2,8,L|124:296,3,37.5,8|8|10|8,3:2|3:2|3:2|3:2,3:2:0:0:
147,277,220285,2,8,L|139:224,3,37.5,8|8|10|8,3:2|3:2|3:2|3:2,3:2:0:0:
160,206,220591,6,0,P|195:187|282:261,1,150,2|10,3:2|0:0,0:0:0:0:
265,322,221050,1,0,0:0:0:0:
341,295,221203,2,0,P|381:303|419:311,1,75,2|0,3:2|3:2,0:0:0:0:
490,334,221509,2,0,P|487:278|474:233,1,75,10|0,0:0|0:0,0:0:0:0:
436,197,221815,6,0,P|435:137|448:40,1,150,6|10,3:2|0:0,0:0:0:0:
446,47,222274,1,2,0:0:0:0:
364,73,222427,2,0,P|316:71|266:60,1,75,0|0,3:2|3:2,0:0:0:0:
221,23,222734,1,8,0:0:0:0:
221,23,222887,1,0,0:0:0:0:
217,104,223040,6,0,P|190:148|85:151,1,150,0|8,3:2|0:0,0:0:0:0:
26,122,223499,1,0,0:0:0:0:
26,122,223652,2,0,P|14:178|12:211,1,75,2|0,3:2|3:2,0:0:0:0:
55,264,223958,1,8,0:0:0:0:
220,368,224264,6,0,L|209:213,1,150,14|8,3:2|3:2,0:0:0:0:
201,141,224723,1,0,3:2:0:0:
276,177,224876,2,0,B|356:169|337:220|425:209,1,150,10|8,3:2|3:2,0:0:0:0:
488,174,225336,1,0,3:2:0:0:
414,131,225489,6,0,P|410:88|395:29,1,75,14|8,3:2|3:2,0:0:0:0:
333,101,225795,1,8,3:2:0:0:
254,76,225948,1,8,3:2:0:0:
222,2,226101,6,0,L|235:175,1,168.750006437302,14|0,3:2|0:0,0:0:0:0:
237,251,226713,1,4,0:0:0:0:
66,212,227019,1,8,0:0:0:0:
142,279,227325,5,8,3:2:0:0:
160,183,227478,1,8,3:2:0:0:
331,314,227938,5,2,0:0:0:0:
331,314,228091,2,0,L|324:250,1,56.2500021457673,2|0,0:0|0:0,0:0:0:0:
402,272,228397,2,0,P|440:289|469:299,1,56.2500021457673,2|0,0:0|0:0,0:0:0:0:
460,212,228703,2,0,L|468:136,1,56.2500021457673,2|0,0:0|0:0,0:0:0:0:
512,89,229009,6,0,P|478:125|368:111,1,150,6|0,0:0|0:0,0:0:0:0:
322,69,229468,2,0,P|267:81|219:89,1,75,10|0,3:2|3:2,3:2:0:0:
181,38,229774,2,0,P|165:85|156:129,1,75,2|0,0:0|0:0,0:0:0:0:
86,148,230080,1,10,3:2:0:0:
86,148,230234,1,0,3:2:0:0:
157,191,230387,6,0,P|208:201|248:215,2,75,2|8|2,3:2|0:0|3:2,0:0:0:0:
82,226,230846,1,2,3:2:0:0:
149,276,230999,2,0,P|161:322|161:366,2,75,10|0|10,0:0|3:2|3:2,0:0:0:0:
82,226,231458,6,0,P|88:119|94:53,1,150,6|0,3:2|0:0,0:0:0:0:
165,37,231917,2,0,P|175:91|179:131,1,75,10|0,3:2|3:2,3:2:0:0:
254,149,232223,2,0,P|263:105|264:64,1,75,10|0,0:0|0:0,0:0:0:0:
324,18,232529,1,0,3:2:0:0:
341,97,232682,6,0,P|385:104|434:111,1,75,10|0,3:2|0:0,0:0:0:0:
468,171,232989,2,0,P|419:182|375:188,1,75,0|10,3:2|3:2,0:0:0:0:
309,194,233295,5,10,3:2:0:0:
493,91,233601,1,10,3:2:0:0:
512,301,233907,1,10,3:2:0:0:
309,194,234213,2,0,P|322:246|330:281,1,75,10|0,0:0|0:0,0:0:0:0:
363,373,234519,5,0,3:2:0:0:
363,373,234596,1,0,3:2:0:0:
363,373,234672,2,0,P|343:332|418:270,1,150,6|10,3:2|0:0,0:0:0:0:
473,218,235131,1,2,0:0:0:0:
397,188,235285,6,0,P|389:134|386:82,1,75,2|8,3:2|0:0,0:0:0:0:
380,36,235591,1,2,3:2:0:0:
314,82,235744,1,2,3:2:0:0:
314,82,235897,2,0,P|269:97|219:104,1,75,10|0,0:0|3:2,0:0:0:0:
177,53,236203,1,10,3:2:0:0:
105,94,236356,6,0,B|94:141|94:141|115:178|115:178|100:254,1,150,6|0,3:2|0:0,0:0:0:0:
64,308,236815,2,0,P|114:324|163:335,1,75,10|0,3:2|3:2,3:2:0:0:
219,355,237121,1,10,0:0:0:0:
219,355,237274,2,0,P|209:299|198:259,1,75,0|8,0:0|3:2,0:0:0:0:
266,220,237580,6,0,P|318:237|355:242,1,75,10|0,3:2|0:0,0:0:0:0:
332,152,237887,2,0,P|323:102|314:55,1,75,10|0,3:2|0:0,0:0:0:0:
255,27,238193,5,10,3:2:0:0:
117,189,238499,1,10,3:2:0:0:
34,0,238805,1,6,3:2:0:0:
256,192,238881,12,0,243856,0:0:0:0:
5,316,244392,6,0,P|67:344|177:355,1,168.75,6|0,0:0|3:2,0:0:0:0:
190,353,245157,2,0,L|196:319,3,18.75,0|0|0|0,3:2|3:2|3:2|3:2,0:0:0:0:
