osu file format v14

[General]
AudioFilename: audio.mp3
AudioLeadIn: 0
PreviewTime: 118958
Countdown: 0
SampleSet: Soft
StackLeniency: 0.3
Mode: 0
LetterboxInBreaks: 0
WidescreenStoryboard: 1

[Editor]
DistanceSpacing: 0.9
BeatDivisor: 4
GridSize: 16
TimelineZoom: 3.499999

[Metadata]
Title:courage
TitleUnicode:courage
Artist:Tomatsu Haruka
ArtistUnicode:戸松遥
Creator:dahkjdas
Version:Expert
Source:ソードアート・オンラインⅡ
Tags:SAO sword art online 2 ii Ⅱ mothers rosario anime opening Japanese rock pop jrock jpop op
BeatmapID:3026900
BeatmapSetID:1474960

[Difficulty]
HPDrainRate:6
CircleSize:4
OverallDifficulty:9
ApproachRate:9.3
SliderMultiplier:1.8
SliderTickRate:1

[Events]
//Background and Video events
0,0,"BG.jpg",0,0
//Break Periods
2,79974,81057
2,119158,122690
2,148393,152077
//Storyboard Layer 0 (Background)
//Storyboard Layer 1 (Fail)
//Storyboard Layer 2 (Pass)
//Storyboard Layer 3 (Foreground)
//Storyboard Layer 4 (Overlay)
//Storyboard Sound Samples

[TimingPoints]
183,306.122448979592,4,2,0,30,1,0
1407,-133.333333333333,4,2,1,20,0,0
6152,-133.333333333333,4,2,2,30,0,0
6305,-200,4,2,1,20,0,0
8754,-133.333333333333,4,2,1,20,0,0
11203,-133.333333333333,4,2,1,30,0,0
19315,-133.333333333333,4,2,1,40,0,0
20999,-100,4,2,1,60,0,0
30795,-100,4,2,1,70,0,0
49621,-166.666666666667,4,2,1,50,0,0
50080,-125,4,2,1,60,0,0
50387,-100,4,2,1,70,0,1
50693,-90.9090909090909,4,2,1,80,0,1
69825,-100,4,2,1,60,0,0
79009,-125,4,2,1,40,0,0
81611,-100,4,2,1,60,0,0
82070,-100,4,2,1,60,0,0
89570,-100,4,2,1,60,0,0
99366,-100,4,2,1,70,0,0
118346,-100,4,2,1,50,0,0
118754,-100,4,2,1,40,0,0
118958,-133.333333333333,4,2,1,30,0,0
123244,-133.333333333333,4,2,1,50,0,0
123856,-100,4,2,1,60,0,0
127989,-166.666666666667,4,2,1,50,0,0
128448,-125,4,2,1,60,0,0
128754,-100,4,2,1,70,0,0
129060,-90.9090909090909,4,2,1,80,0,1
148193,-133.333333333333,4,2,1,60,0,0
152631,-100,4,2,1,60,0,0
153091,-100,4,2,1,50,0,0
157989,-100,4,2,1,80,0,0
167938,-100,4,2,1,70,0,0
186305,-133.333333333333,4,2,1,50,0,0
186917,-133.333333333333,4,2,1,40,0,0
187529,-200,4,2,1,30,0,0
192427,-166.666666666667,4,2,1,40,0,0
195795,-133.333333333333,4,2,1,40,0,0
196254,-100,4,2,1,60,0,0
197325,-133.333333333333,4,2,1,40,0,0
202223,-100,4,2,1,60,0,0
203448,-100,4,2,1,70,0,0
204060,-100,4,2,1,80,0,0
207121,-100,4,2,1,70,0,0
207427,-90.9090909090909,4,2,1,70,0,0
216917,-90.9090909090909,4,2,1,80,0,1
226101,-133.333333333333,4,2,1,60,0,0
227325,-100,4,2,1,60,0,0
227938,-133.333333333333,4,2,1,30,0,0
229009,-100,4,2,1,70,0,0
238805,-312.5,4,2,1,50,0,0
244392,-263.157894736842,4,2,1,50,0,0
245080,-263.157894736842,4,2,1,50,0,0

[Colours]
Combo1 : 255,128,128
Combo2 : 128,255,128
Combo3 : 255,128,255
Combo4 : 255,255,128

[HitObjects]
256,192,183,12,0,1254,0:0:0:0:
68,340,1407,6,0,P|86:295|220:307,1,202.500007724762,2|2,0:0|0:0,0:0:0:0:
217,302,2172,2,0,P|223:254|227:221,1,67.5000025749208
198,157,2478,6,0,P|225:197|369:173,1,202.500007724762,2|0,0:0|0:0,0:0:0:0:
398,113,3244,2,0,P|404:174|413:262,1,135.000005149842,2|0,0:0|0:0,0:0:0:0:
423,323,3856,6,0,P|356:243|257:266,1,202.500007724762,2|2,0:0|0:0,0:0:0:0:
267,256,4621,2,0,L|274:178,1,67.5000025749208,0|2,0:0|0:0,0:0:0:0:
282,111,4927,1,2,0:0:0:0:
175,293,5234,5,2,0:0:0:0:
175,293,5387,2,0,P|126:282|85:275,1,67.5000025749208,2|0,0:0|0:0,0:0:0:0:
29,188,5693,2,0,P|76:184|103:178,1,67.5000025749208,2|0,0:0|0:0,0:0:0:0:
190,202,5999,2,0,P|183:149|174:107,1,67.5000025749208,2|2,0:0|0:0,0:0:0:0:
151,69,6228,1,2,0:0:0:0:
151,69,6305,6,0,P|179:109|303:99,1,180,2|0,0:0|0:0,0:0:0:0:
235,40,7529,6,0,P|228:104|219:224,1,180,2|0,0:0|0:0,0:0:0:0:
433,213,8754,6,0,P|415:162|339:167,1,135.000005149842,2|0,0:0|0:0,0:0:0:0:
288,267,9213,2,0,P|325:290|418:304,1,135.000005149842,2|0,0:0|0:0,0:0:0:0:
510,344,9672,2,0,P|505:303|496:263,1,67.5000025749208,2|0,0:0|0:0,0:0:0:0:
433,213,9978,5,2,0:0:0:0:
296,357,10591,1,0,0:0:0:0:
296,357,11203,6,0,L|289:219,2,135.000005149842,0|2|2,0:0|0:0|0:0,0:0:0:0:
210,309,12274,5,2,0:0:0:0:
145,372,12427,1,2,0:0:0:0:
145,372,12580,2,0,P|99:380|34:309,2,135.000005149842,2|2|2,0:0|0:0|0:0,0:0:0:0:
86,165,13499,6,0,P|98:223|113:305,1,135.000005149842,2|0,0:0|0:0,0:0:0:0:
231,366,13958,2,0,P|233:313|236:278,1,67.5000025749208,2|2,0:0|0:0,0:0:0:0:
274,201,14264,1,2,0:0:0:0:
274,201,14723,5,2,0:0:0:0:
370,246,14876,1,2,0:0:0:0:
370,246,15029,2,0,P|428:260|499:200,2,135.000005149842,2|2|2,0:0|0:0|0:0,0:0:0:0:
354,135,15948,5,0,0:0:0:0:
354,135,16101,2,0,B|376:108|376:108|311:117|311:117|280:146|280:146|217:155,1,202.500007724762,2|0,0:0|0:0,0:0:0:0:
149,57,17172,5,2,0:0:0:0:
72,100,17325,1,2,0:0:0:0:
72,100,17478,2,0,P|98:131|200:126,2,135.000005149842,2|2|2,0:0|0:0|0:0,0:0:0:0:
219,249,18550,6,0,P|260:199|399:228,1,202.500007724762,2|2,0:0|0:0,0:0:0:0:
477,246,19162,2,0,P|474:213|466:162,1,67.5000025749208,2|2,0:0|0:0,0:0:0:0:
470,179,19392,1,2,0:0:0:0:
470,179,19468,1,2,0:0:0:0:
401,307,19621,1,2,0:0:0:0:
308,271,19774,5,10,0:0:0:0:
392,370,19927,1,8,0:0:0:0:
392,370,20080,2,0,L|406:258,1,101.250003862381,10|0,0:0|0:0,0:0:0:0:
409,243,20387,1,10,0:0:0:0:
214,266,20540,1,8,0:0:0:0:
214,266,20693,1,2,0:0:0:0:
492,207,20999,6,0,P|428:223|344:138,1,180,4|10,3:2|0:0,0:0:0:0:
190,235,21611,2,0,P|183:162|178:114,1,90,2|0,3:2|3:2,3:2:0:0:
107,209,21917,1,8,0:0:0:0:
265,158,22070,1,2,0:0:0:0:
115,89,22223,5,2,3:2:0:0:
282,242,22376,2,0,P|344:236|385:230,1,90,2|8,3:2|0:0,0:0:0:0:
483,197,22682,2,0,P|475:256|469:304,1,90,2|0,3:2|0:0,0:0:0:0:
388,131,22989,2,0,P|378:76|373:30,1,90,2|8,3:2|0:0,0:0:0:0:
282,242,23295,6,0,P|217:230|67:220,1,180,4|0,0:0|0:0,0:0:0:0:
23,321,23754,1,10,0:0:0:0:
185,251,23907,1,2,0:0:0:0:
37,174,24060,2,0,P|30:125|30:65,1,90,2|0,3:2|3:2,0:0:0:0:
192,161,24366,2,0,P|190:215|182:259,1,90,8|2,0:0|0:0,0:0:0:0:
271,202,24672,5,2,3:2:0:0:
117,301,24825,1,2,3:2:0:0:
277,366,24978,1,8,0:0:0:0:
106,209,25131,2,0,P|53:218|1:225,1,90,2|0,3:2|0:0,0:0:0:0:
113,105,25438,1,2,3:2:0:0:
184,250,25591,1,8,0:0:0:0:
306,152,25744,6,0,P|305:217|297:360,1,180,6|0,3:2|3:2,0:0:0:0:
117,382,26203,2,0,P|107:316|106:265,1,90,8|0,0:0|0:0,0:0:0:0:
165,162,26509,1,0,3:2:0:0:
190,329,26662,1,0,3:2:0:0:
326,234,26815,2,0,P|263:244|221:249,1,90,8|2,0:0|0:0,0:0:0:0:
115,75,27121,6,2,P|162:79|222:86,1,90,2|2,3:2|0:0,3:2:0:0:
425,33,27427,1,8,0:0:0:0:
315,141,27580,1,2,3:2:0:0:
315,141,27657,1,2,0:0:0:0:
315,141,27734,2,0,P|321:77|324:29,1,90,2|2,0:0|3:2,0:0:0:0:
166,164,28040,2,4,L|177:226,3,45,4|4|4|4,0:3|0:3|0:3|0:3,0:3:0:0:
239,274,28346,6,0,P|297:252|384:346,1,180,6|8,3:2|0:0,0:0:0:0:
427,198,28805,1,2,3:2:0:0:
296,340,28958,1,2,3:2:0:0:
478,372,29111,2,0,P|472:327|458:265,1,90,0|8,3:2|0:0,0:0:0:0:
348,187,29417,1,2,3:2:0:0:
219,277,29570,5,10,3:2:0:0:
386,343,29723,1,2,0:0:0:0:
227,361,29876,1,10,0:0:0:0:
376,260,30029,1,2,0:0:0:0:
197,191,30182,1,8,0:3:0:0:
189,169,30259,1,8,0:3:0:0:
182,148,30336,1,8,0:3:0:0:
177,126,30412,1,8,0:3:0:0:
174,104,30489,1,8,0:3:0:0:
171,81,30565,1,8,0:3:0:0:
170,59,30642,1,8,0:3:0:0:
171,36,30718,1,8,0:3:0:0:
173,18,30795,6,0,P|234:1|303:96,1,180,14|8,0:0|0:0,0:0:0:0:
123,178,31254,1,2,0:0:0:0:
225,82,31407,1,8,0:0:0:0:
52,47,31560,1,0,3:2:0:0:
217,171,31713,2,0,P|223:99|226:63,1,90,10|0,0:0|3:2,0:0:0:0:
27,150,32019,6,0,P|36:217|48:271,1,90,10|0,0:0|0:0,0:0:0:0:
338,267,32325,1,10,0:0:0:0:
124,193,32478,1,0,0:0:0:0:
357,276,32631,1,10,0:0:0:0:
161,358,32785,1,0,3:2:0:0:
381,287,32938,1,10,0:0:0:0:
202,265,33091,1,0,0:0:0:0:
437,358,33244,6,0,P|471:287|408:200,1,180,4|0,3:2|3:2,3:2:0:0:
267,302,33703,1,4,0:3:0:0:
346,360,33856,2,0,L|361:254,1,90,8|0,3:2|0:0,0:0:0:0:
386,113,34162,1,8,0:3:0:0:
230,219,34315,6,0,P|162:212|38:194,1,180,8|0,0:3|0:0,0:0:0:0:
159,100,34774,2,8,P|153:48|144:-3,1,90,8|8,0:3|0:3,0:3:0:0:
146,10,35004,1,8,0:3:0:0:
146,10,35080,1,8,0:3:0:0:
65,117,35234,1,4,0:0:0:0:
257,57,35387,1,2,0:0:0:0:
214,248,35540,1,0,0:0:0:0:
257,57,35693,6,0,P|313:41|397:137,1,180,14|8,0:0|0:0,0:0:0:0:
474,27,36152,1,2,0:0:0:0:
302,131,36305,1,8,0:0:0:0:
493,211,36458,1,0,0:0:0:0:
310,220,36611,2,0,P|302:153|301:113,1,90,10|0,0:0|0:0,0:0:0:0:
493,211,36917,6,0,P|492:278|486:316,1,90,10|0,0:0|0:0,0:0:0:0:
224,303,37223,1,10,0:0:0:0:
402,254,37376,1,0,0:0:0:0:
196,204,37529,1,10,0:0:0:0:
384,337,37683,1,0,3:2:0:0:
155,382,37836,1,10,0:0:0:0:
361,333,37989,1,0,0:0:0:0:
173,292,38142,6,0,P|121:257|123:148,1,180,4|0,3:2|3:2,0:0:0:0:
363,281,38601,1,4,0:3:0:0:
264,318,38754,2,0,P|268:259|281:204,1,90,8|0,3:2|0:0,0:0:0:0:
245,110,39060,1,8,0:3:0:0:
245,110,39213,6,0,P|307:100|384:177,1,180,8|0,0:3|0:0,0:0:0:0:
376,17,39672,1,4,0:3:0:0:
153,167,39825,2,4,P|142:99|143:47,1,90,8|0,0:3|0:3,0:0:0:0:
291,186,40131,1,8,0:3:0:0:
292,212,40208,1,8,0:3:0:0:
290,239,40285,1,8,0:3:0:0:
287,265,40361,1,8,0:3:0:0:
281,291,40438,1,8,0:3:0:0:
272,316,40514,1,8,0:3:0:0:
257,338,40591,6,0,P|205:354|118:277,1,180,6|8,0:0|0:0,3:2:0:0:
194,173,41050,1,2,0:0:0:0:
34,334,41203,2,0,P|25:269|21:217,1,90,0|0,3:2|3:2,3:2:0:0:
194,173,41509,2,0,P|204:235|210:282,1,90,10|0,0:0|0:0,0:0:0:0:
129,68,41815,6,0,P|166:121|275:105,1,180,2|10,3:2|0:0,0:0:0:0:
75,178,42274,1,0,0:0:0:0:
215,49,42427,1,2,3:2:0:0:
215,49,42580,1,0,3:2:0:0:
39,10,42734,2,0,P|50:86|59:124,1,90,10|0,0:0|0:0,0:0:0:0:
176,207,43040,6,0,P|231:222|330:129,1,180,6|8,3:2|0:0,0:0:0:0:
230,128,43499,1,2,3:2:0:0:
419,86,43652,2,0,L|405:273,1,180,2|8,3:2|0:0,0:0:0:0:
511,146,44111,1,2,3:2:0:0:
465,332,44264,6,0,P|383:351|322:251,2,180,2|10|2,3:2|0:0|0:0,0:0:0:0:
375,190,45029,1,0,3:2:0:0:
239,306,45182,2,0,P|178:299|116:284,1,90,10|0,3:2|0:0,0:0:0:0:
316,121,45489,6,0,P|369:101|470:183,1,180,6|8,3:2|0:0,3:2:0:0:
219,165,45948,1,0,0:0:0:0:
219,165,46101,2,0,P|208:110|206:55,1,90,0|0,3:2|3:2,3:2:0:0:
294,31,46407,1,10,0:0:0:0:
294,31,46560,1,0,0:0:0:0:
115,115,46713,5,10,3:2:0:0:
306,120,46866,1,0,3:2:0:0:
114,208,47019,1,10,3:2:0:0:
321,215,47172,1,0,3:2:0:0:
105,302,47325,5,10,3:2:0:0:
255,372,47478,1,0,3:2:0:0:
193,164,47631,1,10,3:2:0:0:
17,290,47785,1,0,3:2:0:0:
255,372,47938,5,10,3:2:0:0:
199,134,48091,1,10,3:2:0:0:
199,134,48397,5,10,3:2:0:0:
123,370,48550,1,10,3:2:0:0:
123,370,48856,5,10,3:2:0:0:
375,315,49009,1,10,3:2:0:0:
416,82,49621,5,2,0:0:0:0:
416,82,49774,2,0,L|421:136,1,53.9999983520508,2|0,0:0|0:0,0:0:0:0:
334,80,50080,2,0,L|341:158,1,72,2|0,3:2|0:0,0:0:0:0:
261,168,50387,6,0,L|253:79,1,90,6|0,3:2|0:0,3:2:0:0:
428,336,50693,1,10,0:0:0:0:
428,336,50846,2,0,P|383:284|266:303,1,198.000006042481,2|2,0:0|3:2,0:0:0:0:
428,191,51305,1,8,0:0:0:0:
335,361,51458,1,2,0:0:0:0:
328,162,51611,6,0,P|336:236|341:281,1,99.0000030212403,2|0,3:2|0:0,0:0:0:0:
422,204,51917,1,10,0:0:0:0:
252,100,52070,1,0,0:0:0:0:
411,34,52223,1,2,3:2:0:0:
411,34,52376,1,0,3:2:0:0:
241,191,52529,2,0,P|176:186|107:178,1,99.0000030212403,10|2,0:0|0:0,0:0:0:0:
26,280,52836,6,0,P|54:346|180:328,2,198.000006042481,6|8|0,3:2|0:0|3:2,0:0:0:0:
218,247,53601,1,2,3:2:0:0:
23,169,53754,1,10,0:0:0:0:
185,95,53907,1,0,0:0:0:0:
114,278,54060,6,0,P|107:219|102:163,1,99.0000030212403,0|0,3:2|3:2,3:2:0:0:
49,73,54366,1,8,0:0:0:0:
288,35,54519,1,2,0:0:0:0:
288,35,54596,1,2,0:0:0:0:
288,35,54672,2,0,P|284:98|278:160,1,99.0000030212403,2|0,3:2|3:2,3:2:0:0:
393,238,54978,1,10,0:0:0:0:
192,148,55131,1,0,0:0:0:0:
367,90,55285,6,0,P|433:63|513:150,1,198.000006042481,6|10,3:2|0:0,0:0:0:0:
278,325,55744,2,0,P|267:257|264:203,1,99.0000030212403,2|0,0:0|3:2,0:0:0:0:
281,51,56050,1,2,3:2:0:0:
428,153,56203,2,0,P|426:218|419:267,1,99.0000030212403,8|2,0:0|0:0,0:0:0:0:
175,209,56509,6,0,P|201:166|345:184,2,198.000006042481,2|10|2,3:2|0:0|3:2,0:0:0:0:
19,283,57274,1,0,3:2:0:0:
61,97,57427,2,0,P|72:167|79:231,1,99.0000030212403,10|0,0:0|0:0,0:0:0:0:
253,328,57734,6,0,P|259:266|266:223,1,99.0000030212403,6|0,3:2|0:0,0:0:0:0:
285,109,58040,1,10,0:0:0:0:
357,294,58193,1,2,0:0:0:0:
285,109,58346,5,2,3:2:0:0:
156,263,58499,1,0,3:2:0:0:
366,202,58652,1,8,0:0:0:0:
152,172,58805,1,0,0:0:0:0:
377,110,58958,5,12,3:2:0:0:
146,77,59111,1,0,3:2:0:0:
387,18,59264,1,8,3:2:0:0:
239,210,59417,1,0,3:2:0:0:
221,9,59570,5,10,3:2:0:0:
170,267,59723,1,0,3:2:0:0:
383,198,59876,1,10,3:2:0:0:
214,132,60029,1,2,3:2:0:0:
460,253,60182,6,0,P|479:184|379:111,1,198.000006042481,6|8,3:2|0:0,0:0:0:0:
283,175,60642,1,2,0:0:0:0:
283,175,60795,2,0,P|271:115|270:53,1,99.0000030212403,2|0,3:2|3:2,3:2:0:0:
488,24,61101,2,0,P|483:92|475:134,1,99.0000030212403,10|0,0:0|0:0,0:0:0:0:
370,235,61407,6,0,P|297:217|144:203,1,198.000006042481,2|8,3:2|0:0,0:0:0:0:
7,244,61866,1,0,0:0:0:0:
109,374,62019,2,0,P|102:308|94:261,1,99.0000030212403,2|0,3:2|3:2,3:2:0:0:
276,88,62325,2,0,P|268:158|260:215,1,99.0000030212403,10|0,0:0|0:0,0:0:0:0:
355,344,62631,6,0,P|418:367|513:289,1,198.000006042481,6|10,3:2|0:0,0:0:0:0:
406,174,63091,2,0,P|415:250|420:282,1,99.0000030212403,2|0,0:0|3:2,0:0:0:0:
319,238,63397,1,2,3:2:0:0:
497,191,63550,1,8,0:0:0:0:
307,138,63703,1,2,0:0:0:0:
499,73,63856,5,2,3:2:0:0:
293,42,64009,1,0,3:2:0:0:
401,184,64162,2,0,P|408:123|413:71,1,99.0000030212403,10|0,0:0|0:0,0:0:0:0:
172,181,64468,2,0,P|179:241|188:290,1,99.0000030212403,2|0,3:2|3:2,3:2:0:0:
445,312,64774,2,8,L|378:298,1,49.5000015106202,10|8,0:0|0:0,0:0:0:0:
324,237,64927,2,8,L|269:251,1,49.5000015106202
236,350,65080,6,0,P|187:364|91:264,1,198.000006042481,6|10,3:2|0:0,0:0:0:0:
145,134,65540,1,2,0:0:0:0:
145,134,65693,2,0,P|201:142|261:156,1,99.0000030212403,2|0,3:2|3:2,3:2:0:0:
436,156,65999,1,8,0:0:0:0:
244,59,66152,1,0,0:0:0:0:
405,15,66305,5,0,3:2:0:0:
405,15,66458,1,0,3:2:0:0:
341,204,66611,2,0,P|338:150|334:93,1,99.0000030212403,8|0,0:0|0:0,0:0:0:0:
484,332,66917,2,0,P|489:271|493:225,1,99.0000030212403,0|0,3:2|3:2,3:2:0:0:
498,101,67223,1,10,0:0:0:0:
401,309,67376,1,0,0:0:0:0:
248,153,67529,6,0,P|198:163|144:173,1,99.0000030212403,6|0,3:2|0:0,0:0:0:0:
63,189,67836,1,8,3:2:0:0:
217,248,67989,1,0,3:2:0:0:
127,100,68142,5,8,3:2:0:0:
87,319,68295,1,0,3:2:0:0:
298,268,68448,1,10,3:2:0:0:
131,231,68601,1,0,3:2:0:0:
131,231,68677,1,0,3:2:0:0:
131,231,68754,5,10,3:2:0:0:
328,162,68907,1,10,3:2:0:0:
297,375,69060,1,8,3:2:0:0:
40,292,69213,6,0,P|33:228|30:167,1,99.0000030212403,10|0,3:2|0:0,0:0:0:0:
211,95,69519,2,0,L|206:152,2,49.5000015106202,2|0|0,3:2|3:2|3:2,3:2:0:0:
270,230,69825,6,0,P|226:186|96:213,1,180,14|4,0:0|0:3,0:0:0:0:
20,153,70285,2,0,P|27:217|32:258,1,90,4|0,0:3|3:2,0:0:0:0:
198,231,70591,2,0,P|139:205|101:188,1,90,4|0,0:3|0:3,0:3:0:0:
40,345,70897,1,4,0:3:0:0:
40,345,71050,2,0,P|76:318|112:291,1,90,4|0,0:3|0:3,0:3:0:0:
293,262,71356,5,4,0:3:0:0:
128,158,71509,1,0,0:0:0:0:
196,370,71662,1,4,0:3:0:0:
196,370,71739,1,4,0:3:0:0:
196,370,71815,2,0,P|206:331|211:249,1,90,4|4,0:3|0:3,0:0:0:0:
344,301,72121,2,8,P|374:298|420:273,2,60,8|8|8,0:3|0:3|0:3,0:3:0:0:
261,256,72427,5,8,0:3:0:0:
254,234,72504,1,8,0:3:0:0:
249,211,72580,1,8,0:3:0:0:
246,188,72657,1,8,0:3:0:0:
245,165,72734,2,0,P|273:117|391:128,1,180,4|0,0:0|0:3,0:0:0:0:
495,249,73193,1,4,0:3:0:0:
328,182,73346,1,4,0:3:0:0:
376,351,73499,2,0,P|377:306|381:261,1,90,0|4,0:3|0:3,0:0:0:0:
431,177,73805,5,4,0:3:0:0:
287,319,73958,1,0,0:3:0:0:
482,377,74111,1,4,0:3:0:0:
313,225,74264,1,8,0:3:0:0:
313,225,74341,1,8,0:3:0:0:
313,225,74417,2,8,L|264:231,1,45,8|8,0:3|0:3,0:3:0:0:
188,297,74570,2,8,L|141:282,1,45,8|8,0:3|0:3,0:3:0:0:
77,218,74723,6,0,P|102:158|211:164,1,180,4|0,3:2|0:3,0:3:0:0:
398,121,75183,1,4,0:3:0:0:
220,59,75336,1,0,0:3:0:0:
291,206,75489,2,0,P|296:138|300:80,1,90,4|0,0:3|0:3,0:3:0:0:
429,277,75795,1,4,0:3:0:0:
429,277,75948,6,0,B|378:257|378:257|336:292|336:292|246:301,1,180,0|4,0:3|0:3,0:3:0:0:
80,253,76407,1,4,0:3:0:0:
192,124,76560,2,0,P|183:177|178:230,1,90,4|0,0:3|0:3,0:3:0:0:
153,355,76866,1,4,0:3:0:0:
86,162,77019,1,0,0:3:0:0:
153,355,77172,6,0,P|213:378|303:284,1,180,4|0,0:3|0:3,0:3:0:0:
209,278,77631,1,4,0:3:0:0:
209,278,77785,1,0,0:3:0:0:
372,152,77938,6,0,P|390:211|410:254,1,90,4|0,0:3|0:3,0:3:0:0:
287,95,78244,1,4,0:3:0:0:
287,95,78397,2,0,P|329:49|356:11,1,90,4|0,0:3|0:3,0:3:0:0:
281,196,78703,2,0,P|220:182|173:177,1,90,4|0,0:3|0:3,0:3:0:0:
113,239,79009,6,0,B|87:211|79:172|93:148|100:143|101:137|104:132|155:60|88:-11|-19:12|-40:146|72:152,1,360,4|4,0:0|0:0,0:0:0:0:
261,187,81611,6,0,L|257:132,2,45,10|0|2,3:2|3:2|3:2,3:2:0:0:
248,64,81917,1,8,0:0:0:0:
297,267,82070,6,0,B|204:282|215:229|121:249,1,180,6|0,0:0|0:0,0:0:0:0:
48,95,82529,2,0,P|86:141|122:164,1,90,10|2,0:0|0:0,0:0:0:0:
13,299,82836,2,0,P|33:243|35:200,1,90,2|0,3:2|3:2,3:2:0:0:
146,73,83142,1,8,0:0:0:0:
214,236,83295,1,2,0:0:0:0:
323,130,83448,6,0,P|259:139|223:143,1,90,2|2,3:2|3:2,3:2:0:0:
269,53,83754,1,8,0:0:0:0:
401,184,83907,1,2,3:2:0:0:
401,184,83984,1,2,0:0:0:0:
401,184,84060,1,2,0:0:0:0:
214,236,84213,1,2,3:2:0:0:
408,275,84366,1,8,0:0:0:0:
215,324,84519,6,0,P|155:305|145:185,1,180,6|0,0:0|3:2,0:0:0:0:
257,150,84978,1,8,0:0:0:0:
116,75,85131,1,0,0:0:0:0:
216,238,85285,2,0,P|272:234|321:224,1,90,0|0,3:2|3:2,3:2:0:0:
380,74,85591,2,0,P|318:69|268:66,1,90,8|2,0:0|0:0,0:0:0:0:
113,179,85897,5,2,3:2:0:0:
197,35,86050,2,0,P|211:102|218:162,1,90,2|8,3:2|0:0,0:0:0:0:
1,246,86356,1,2,0:2:0:0:
1,246,86432,1,2,0:0:0:0:
1,246,86509,1,2,0:0:0:0:
202,207,86662,1,0,3:2:0:0:
75,358,86815,1,10,0:0:0:0:
35,160,86968,1,0,0:0:0:0:
173,295,87121,6,0,B|273:311|249:251|351:264,1,180,6|8,3:2|0:0,0:0:0:0:
470,247,87580,1,2,3:2:0:0:
470,247,87657,1,2,0:0:0:0:
470,247,87734,2,0,P|470:178|470:136,1,90,2|0,3:2|3:2,0:0:0:0:
301,87,88040,2,0,P|305:153|310:204,1,90,8|2,0:0|3:2,0:0:0:0:
316,358,88346,5,10,3:2:0:0:
202,207,88499,1,0,0:0:0:0:
226,371,88652,1,10,3:2:0:0:
110,212,88805,1,2,0:0:0:0:
110,212,88881,1,2,0:0:0:0:
110,212,88958,5,10,3:2:0:0:
271,268,89111,1,0,0:0:0:0:
39,325,89264,1,10,3:2:0:0:
96,96,89417,1,0,0:0:0:0:
150,286,89570,1,12,3:2:0:0:
150,286,89876,6,0,P|154:239|161:175,1,90,2|0,0:0|3:2,0:0:0:0:
10,342,90182,2,0,B|110:327|83:385|188:370,1,180,10|0,3:2|0:0,0:0:0:0:
68,263,90642,1,2,0:0:0:0:
245,222,90795,5,10,3:2:0:0:
68,263,90948,2,0,P|57:207|54:146,1,90,2|0,3:2|0:0,0:0:0:0:
219,53,91254,1,2,3:2:0:0:
219,53,91407,2,0,P|216:111|210:155,1,90,8|2,0:0|3:2,0:0:0:0:
53,86,91713,1,0,0:0:0:0:
150,212,91866,6,0,P|221:232|300:157,1,180,14|0,0:0|0:0,0:0:0:0:
336,82,92325,2,0,P|288:76|228:66,1,90,2|0,3:2|0:0,0:0:0:0:
409,43,92631,2,0,B|424:104|424:104|395:142|395:142|407:236,1,180,10|0,3:2|0:0,0:0:0:0:
483,172,93091,1,2,3:2:0:0:
302,299,93244,6,0,P|295:232|289:183,1,90,10|2,3:2|0:0,3:2:0:0:
254,374,93550,1,0,0:0:0:0:
204,206,93703,1,2,3:2:0:0:
385,257,93856,2,0,P|445:248|484:240,1,90,10|2,0:0|3:2,0:0:0:0:
255,126,94162,1,0,0:0:0:0:
255,126,94315,6,0,P|199:108|110:185,1,180,14|2,0:0|0:0,0:0:0:0:
143,284,94774,2,0,P|76:279|39:275,1,90,2|0,0:0|3:2,0:0:0:0:
60,105,95080,1,8,3:2:0:0:
200,200,95234,1,0,0:0:0:0:
52,276,95387,1,0,0:0:0:0:
250,380,95540,5,2,3:2:0:0:
250,380,95693,2,2,P|243:329|235:273,1,90,8|2,3:2|0:0,0:0:0:0:
150,346,95999,1,0,3:2:0:0:
352,239,96152,2,0,P|346:299|342:357,1,90,2|8,3:2|0:0,0:0:0:0:
260,169,96458,1,2,3:2:0:0:
425,145,96611,1,0,0:0:0:0:
252,277,96764,1,0,3:2:0:0:
252,277,96841,1,0,3:0:0:0:
252,277,96917,6,0,P|170:298|102:237,1,180,12|0,3:2|3:2,0:0:0:0:
283,142,97376,1,10,3:2:0:0:
114,77,97529,1,2,3:2:0:0:
114,77,97682,1,0,0:0:0:0:
190,206,97836,2,0,P|195:143|199:104,1,90,8|2,0:0|3:2,0:0:0:0:
456,36,98142,5,10,3:2:0:0:
300,112,98295,1,2,3:2:0:0:
462,128,98448,1,10,0:0:0:0:
310,22,98601,1,2,3:2:0:0:
284,207,98754,1,8,0:3:0:0:
280,229,98830,1,8,0:3:0:0:
276,251,98907,1,8,0:3:0:0:
273,273,98984,1,8,0:3:0:0:
270,295,99060,1,8,0:3:0:0:
268,317,99137,1,8,0:3:0:0:
267,339,99213,1,8,0:3:0:0:
264,361,99290,1,8,0:3:0:0:
263,383,99366,6,0,P|328:372|316:250,1,180,14|8,0:0|0:0,0:0:0:0:
183,103,99825,1,2,0:0:0:0:
330,182,99978,1,8,0:0:0:0:
163,269,100131,1,0,3:2:0:0:
330,182,100285,2,0,P|336:118|336:68,1,90,10|0,0:0|0:0,0:0:0:0:
152,179,100591,6,0,P|158:248|169:291,1,90,10|0,0:0|3:2,0:0:0:0:
270,337,100897,1,10,0:0:0:0:
56,254,101050,1,0,0:0:0:0:
244,162,101203,1,10,0:0:0:0:
271,361,101356,1,0,3:2:0:0:
241,138,101509,1,10,0:0:0:0:
149,285,101662,1,0,0:0:0:0:
335,189,101815,6,0,P|325:127|310:7,1,180,4|0,3:2|3:2,0:0:0:0:
105,154,102274,1,4,0:3:0:0:
205,40,102427,2,0,P|199:98|199:145,1,90,8|0,3:2|0:3,0:3:0:0:
197,225,102734,1,4,0:3:0:0:
27,94,102887,6,0,B|121:81|106:142|199:130,1,180,4|0,0:3|0:0,0:0:0:0:
385,91,103346,1,4,0:3:0:0:
274,37,103499,2,0,P|284:99|294:157,1,90,4|0,0:3|0:0,0:0:0:0:
382,198,103805,2,0,P|374:243|369:288,1,90,4|0,0:3|0:0,0:0:0:0:
276,353,104111,1,8,0:3:0:0:
276,353,104188,1,8,0:3:0:0:
276,353,104264,6,0,P|219:341|225:222,1,180,6|8,0:0|0:0,0:0:0:0:
382,199,104723,1,2,0:0:0:0:
192,125,104876,1,8,0:0:0:0:
366,78,105029,1,0,3:2:0:0:
299,261,105182,2,0,P|288:199|283:157,1,90,10|0,0:0|0:0,0:0:0:0:
467,49,105489,6,0,P|462:120|457:166,1,90,10|0,0:0|0:0,0:0:0:0:
354,324,105795,1,10,0:0:0:0:
505,255,105948,1,0,0:0:0:0:
284,172,106101,1,10,0:0:0:0:
484,257,106254,1,0,3:2:0:0:
276,377,106407,1,10,0:0:0:0:
464,261,106560,1,0,0:0:0:0:
254,266,106713,6,0,P|201:221|210:112,1,180,4|0,3:2|3:2,3:2:0:0:
303,73,107172,1,4,0:3:0:0:
425,241,107325,2,0,P|433:299|437:354,1,90,8|0,3:2|0:0,0:0:0:0:
453,149,107631,1,4,0:3:0:0:
341,300,107785,6,0,B|250:287|261:342|167:326,1,180,4|0,0:3|0:0,0:0:0:0:
0,259,108244,1,4,0:3:0:0:
196,231,108397,1,4,0:3:0:0:
95,376,108550,2,0,P|85:314|74:253,1,90,4|8,0:3|0:3,0:3:0:0:
78,264,108779,1,8,0:3:0:0:
78,241,108856,1,8,0:3:0:0:
82,219,108932,1,8,0:3:0:0:
89,197,109009,1,8,0:3:0:0:
100,177,109086,1,8,0:3:0:0:
115,160,109162,6,0,P|164:137|254:225,1,180,6|8,3:2|0:0,0:0:0:0:
303,77,109621,1,2,0:0:0:0:
181,311,109774,2,0,P|168:244|168:195,1,90,0|0,3:2|3:2,3:2:0:0:
380,276,110080,2,0,P|376:321|368:365,1,90,10|0,0:0|0:0,0:0:0:0:
330,173,110387,6,0,P|381:194|477:120,2,180,2|10|2,3:2|0:0|3:2,0:0:0:0:
489,258,111152,1,0,3:2:0:0:
388,97,111305,1,10,0:0:0:0:
388,97,111458,1,0,0:0:0:0:
277,236,111611,6,0,B|185:221|197:277|97:263,1,180,6|8,3:2|0:0,0:0:0:0:
174,72,112070,1,2,3:2:0:0:
8,229,112223,2,0,P|30:171|154:200,1,180,2|8,3:2|0:0,0:0:0:0:
341,279,112683,1,2,3:2:0:0:
251,150,112836,6,0,P|241:237|232:344,2,180,2|10|2,3:2|0:0|0:0,0:0:0:0:
317,46,113601,1,0,3:2:0:0:
177,65,113754,2,8,L|232:59,1,45,10|8,3:2|0:0,0:0:0:0:
386,155,113907,2,8,L|319:135,1,45,8|8,0:0|0:0,0:0:0:0:
115,215,114060,6,0,P|170:165|276:208,1,180,4|8,3:2|0:0,0:0:0:0:
350,242,114519,1,0,0:0:0:0:
177,292,114672,1,0,3:2:0:0:
370,335,114825,1,0,3:2:0:0:
169,379,114978,1,10,0:0:0:0:
350,242,115131,1,0,0:0:0:0:
158,194,115285,6,0,P|134:146|201:38,1,180,2|0,3:2|3:0,0:0:0:0:
403,148,115744,1,0,0:0:0:0:
303,20,115897,2,0,P|296:93|291:146,1,90,0|0,3:2|3:2,3:2:0:0:
270,304,116203,1,10,0:0:0:0:
76,228,116356,1,0,0:0:0:0:
188,360,116509,5,10,3:2:0:0:
217,143,116662,1,0,3:2:0:0:
409,272,116815,1,10,3:2:0:0:
409,272,116968,1,0,3:2:0:0:
324,101,117121,5,10,3:2:0:0:
294,300,117274,1,0,3:2:0:0:
128,185,117427,1,10,3:2:0:0:
314,212,117580,1,0,3:2:0:0:
212,55,117734,6,8,L|221:179,1,120,8|8,3:3|0:3,0:3:0:0:
163,325,118142,1,8,0:3:0:0:
235,280,118346,2,8,P|178:243|107:263,2,120,8|8|8,0:3|0:3|0:3,0:3:0:0:
284,355,118958,1,4,0:2:0:0:
392,195,123244,6,0,L|402:278,1,67.5000025749208,10|0,0:0|3:2,0:0:0:0:
335,347,123550,5,0,3:0:0:0:
335,347,123626,1,0,3:0:0:0:
335,347,123703,1,0,3:0:0:0:
335,347,123779,1,0,3:0:0:0:
335,347,123856,6,0,P|306:306|180:317,1,180,14|2,3:2|0:0,0:0:0:0:
102,366,124315,1,2,3:2:0:0:
43,229,124468,2,0,B|132:245|116:179|216:199,1,180,8|0,3:2|0:0,0:0:0:0:
249,378,124927,1,2,3:2:0:0:
416,308,125080,6,0,P|411:239|406:192,1,90,10|0,3:2|0:0,0:0:0:0:
311,173,125387,2,0,P|315:235|319:283,1,90,2|0,3:2|3:2,3:2:0:0:
494,108,125693,1,0,3:2:0:0:
460,119,125769,1,0,3:0:0:0:
424,119,125846,1,0,3:0:0:0:
392,105,125922,1,0,3:0:0:0:
370,77,125999,2,0,L|378:133,2,45,2|2|2,3:2|0:0|0:0,3:0:0:0:
400,240,126305,5,10,3:2:0:0:
436,15,126458,1,10,3:2:0:0:
436,15,126764,5,10,3:2:0:0:
223,86,126917,1,10,3:2:0:0:
223,86,127223,5,10,3:2:0:0:
400,240,127376,1,10,3:2:0:0:
32,334,127989,5,2,0:0:0:0:
32,334,128142,2,0,L|40:277,1,53.9999983520508,2|0,0:0|0:0,0:0:0:0:
111,349,128448,2,0,L|121:270,1,72,2|0,3:2|0:0,0:0:0:0:
201,274,128754,6,0,L|190:368,1,90,6|0,3:2|0:0,3:2:0:0:
452,284,129060,1,10,0:0:0:0:
452,284,129213,2,0,P|406:233|286:257,1,198.000006042481,2|0,0:0|3:2,0:0:0:0:
389,137,129672,2,0,P|396:78|401:13,1,99.0000030212403,8|2,0:0|0:0,0:0:0:0:
192,96,129978,6,0,P|200:160|205:215,1,99.0000030212403,2|0,3:2|0:0,0:0:0:0:
111,164,130285,1,10,0:0:0:0:
276,68,130438,1,0,0:0:0:0:
132,4,130591,1,2,3:2:0:0:
132,4,130744,1,0,3:2:0:0:
285,157,130897,2,2,P|346:149|407:137,1,99.0000030212403,10|2,0:0|0:0,0:0:0:0:
352,370,131203,6,0,P|416:350|412:218,2,198.000006042481,6|8|0,3:2|0:0|3:2,0:0:0:0:
310,179,131968,1,2,3:2:0:0:
237,374,132121,1,10,0:0:0:0:
178,166,132274,1,0,0:0:0:0:
336,275,132427,6,0,P|276:283|230:290,1,99.0000030212403,0|0,3:2|3:2,3:2:0:0:
172,81,132734,1,8,0:0:0:0:
19,234,132887,1,0,0:0:0:0:
19,234,132963,1,0,0:0:0:0:
19,234,133040,2,0,P|26:168|30:121,1,99.0000030212403,2|0,3:2|3:2,3:2:0:0:
208,177,133346,1,10,0:0:0:0:
83,46,133499,1,0,0:0:0:0:
164,265,133652,6,0,P|244:259|385:242,1,198.000006042481,6|10,3:2|0:0,0:0:0:0:
461,308,134111,2,0,P|469:235|478:187,1,99.0000030212403,2|0,0:0|3:2,0:0:0:0:
297,144,134417,1,2,3:2:0:0:
423,28,134570,2,0,P|407:110|399:148,1,99.0000030212403,8|2,0:0|0:0,0:0:0:0:
265,239,134876,6,0,P|212:196|230:66,2,198.000006042481,2|10|2,3:2|0:0|3:2,0:0:0:0:
103,183,135642,1,0,3:2:0:0:
317,31,135795,2,0,P|309:113|309:155,1,99.0000030212403,10|0,0:0|0:0,0:0:0:0:
195,343,136101,6,0,P|186:286|176:233,1,99.0000030212403,6|0,3:2|0:0,0:0:0:0:
142,82,136407,1,10,0:0:0:0:
274,198,136560,1,2,0:0:0:0:
89,240,136713,5,2,3:2:0:0:
308,129,136866,1,0,3:2:0:0:
102,0,137019,1,8,0:0:0:0:
179,160,137172,1,0,0:0:0:0:
26,137,137325,5,12,3:2:0:0:
209,62,137478,1,0,3:2:0:0:
209,62,137555,1,0,3:2:0:0:
209,62,137631,1,8,3:2:0:0:
136,258,137785,2,0,L|120:195,1,49.5000015106202,2|0,3:2|0:0,0:0:0:0:
87,89,137938,5,10,3:2:0:0:
303,231,138091,1,0,3:2:0:0:
39,322,138244,1,10,3:2:0:0:
79,62,138397,1,0,3:2:0:0:
212,344,138550,6,0,P|255:294|383:312,1,198.000006042481,6|8,3:2|0:0,0:0:0:0:
358,103,139009,1,2,0:0:0:0:
358,103,139162,2,0,P|366:182|370:234,1,99.0000030212403,2|0,3:2|3:2,3:2:0:0:
499,264,139468,2,0,P|506:192|511:154,1,99.0000030212403,10|0,0:0|0:0,0:0:0:0:
422,25,139774,6,0,P|366:4|255:87,1,198.000006042481,2|8,3:2|0:0,0:0:0:0:
245,273,140234,1,0,0:0:0:0:
76,167,140387,2,0,P|137:176|195:186,1,99.0000030212403,2|0,3:2|3:2,3:2:0:0:
326,369,140693,1,10,0:0:0:0:
350,203,140846,1,0,0:0:0:0:
161,332,140999,6,0,P|90:353|10:260,1,198.000006042481,6|10,3:2|0:0,0:0:0:0:
242,184,141458,2,0,P|246:256|250:303,1,99.0000030212403,2|0,0:0|3:2,0:0:0:0:
97,264,141764,1,2,3:2:0:0:
331,284,141917,1,8,0:0:0:0:
226,86,142070,1,2,0:0:0:0:
331,284,142223,5,2,3:2:0:0:
150,195,142376,1,0,3:2:0:0:
342,364,142529,2,0,P|416:357|478:343,1,99.0000030212403,10|0,0:0|3:2,0:0:0:0:
381,146,142836,1,2,3:2:0:0:
207,270,142989,1,0,3:2:0:0:
378,276,143142,2,8,L|381:209,1,49.5000015106202,10|8,0:0|0:0,0:0:0:0:
198,187,143295,2,8,L|190:110,1,49.5000015106202
326,67,143448,6,0,P|392:49|474:140,1,198.000006042481,6|10,3:2|0:0,0:0:0:0:
509,10,143907,1,2,0:0:0:0:
391,244,144060,2,0,P|383:171|378:122,1,99.0000030212403,0|0,3:2|3:2,3:2:0:0:
490,227,144366,1,8,0:0:0:0:
309,309,144519,1,0,0:0:0:0:
479,368,144672,5,0,3:2:0:0:
479,368,144825,1,0,3:2:0:0:
290,211,144978,2,0,P|226:215|163:224,1,99.0000030212403,8|0,0:0|3:0,0:0:0:0:
191,219,145208,1,0,3:0:0:0:
191,219,145285,1,0,3:2:0:0:
16,239,145438,1,0,3:2:0:0:
158,331,145591,1,10,0:0:0:0:
101,130,145744,1,0,0:0:0:0:
0,377,145897,6,0,P|39:322|163:336,1,198.000006042481,6|8,3:2|3:2,0:0:0:0:
16,239,146356,1,0,3:2:0:0:
166,202,146509,5,8,3:2:0:0:
8,140,146662,1,0,3:2:0:0:
179,80,146815,1,10,3:2:0:0:
1,42,146968,1,0,3:2:0:0:
90,218,147121,5,10,3:2:0:0:
87,17,147274,2,0,L|99:135,1,99.0000030212403,2|8,3:2|0:0,0:0:0:0:
267,229,147580,2,0,L|272:118,1,99.0000030212403,10|0,3:2|0:0,0:0:0:0:
279,50,147887,1,10,0:0:0:0:
105,200,148040,1,0,3:2:0:0:
105,200,148193,1,14,0:0:0:0:
391,140,152631,5,8,3:2:0:0:
114,47,152785,1,8,3:2:0:0:
114,47,153091,6,0,P|124:131|134:240,1,180,6|2,0:0|0:0,0:0:0:0:
270,373,153550,2,0,P|279:321|285:264,1,90,2|0,3:2|3:2,3:2:0:0:
93,316,153856,1,10,3:2:0:0:
93,316,154009,2,0,P|149:329|200:341,1,90,2|0,3:2|0:0,3:2:0:0:
370,255,154315,6,0,P|332:212|208:235,1,180,2|0,3:2|0:0,0:0:0:0:
316,107,154774,1,2,3:2:0:0:
167,140,154927,1,2,3:2:0:0:
167,140,155080,2,0,P|160:67|152:20,1,90,8|2,0:0|0:0,0:0:0:0:
219,223,155387,1,10,3:2:0:0:
403,66,155540,6,0,P|360:22|249:27,1,180,6|2,3:2|0:0,0:0:0:0:
245,166,155999,2,0,P|309:155|348:151,1,90,2|0,3:2|3:2,0:0:0:0:
446,285,156305,2,0,P|387:276|341:267,1,90,10|0,3:2|0:0,0:0:0:0:
435,164,156611,1,2,3:2:0:0:
296,349,156764,6,0,B|253:298|253:298|288:165,1,180,2|0,3:2|3:2,0:0:0:0:
309,112,157223,1,2,3:2:0:0:
73,168,157376,2,0,B|43:225|92:278|159:268|190:212|195:156|170:104|110:73,1,315,10|0,3:2|0:0,0:0:0:0:
61,10,157989,6,0,P|97:54|224:34,1,180,6|0,3:2|3:2,0:0:0:0:
377,204,158448,2,2,P|367:149|359:93,1,90,10|2,3:2|0:0,0:0:0:0:
277,236,158754,1,2,3:2:0:0:
477,163,158907,1,2,3:2:0:0:
313,42,159060,1,10,0:0:0:0:
325,316,159213,6,0,P|267:328|181:230,1,180,2|0,3:2|3:2,0:0:0:0:
375,242,159672,1,10,3:2:0:0:
179,172,159825,1,2,0:0:0:0:
355,115,159978,1,2,3:2:0:0:
205,56,160131,1,2,3:2:0:0:
274,234,160285,1,10,0:0:0:0:
436,154,160438,6,0,P|428:235|419:358,1,180,6|0,3:2|3:2,0:0:0:0:
185,248,160897,2,0,P|247:238|293:230,1,90,10|2,3:2|0:0,0:0:0:0:
348,314,161203,1,2,3:2:0:0:
123,187,161356,1,2,3:2:0:0:
313,133,161509,1,10,0:0:0:0:
191,352,161662,6,0,P|133:366|48:286,1,180,2|0,0:0|3:2,0:0:0:0:
239,177,162121,1,10,3:2:0:0:
28,110,162274,1,2,3:2:0:0:
123,266,162427,1,2,3:2:0:0:
179,43,162580,1,2,3:2:0:0:
343,200,162734,1,0,3:2:0:0:
343,200,162810,1,0,3:2:0:0:
343,200,162887,6,0,P|419:180|489:262,1,180,6|0,3:2|3:2,0:0:0:0:
284,89,163346,2,0,P|346:75|397:60,1,90,10|2,3:2|0:0,0:0:0:0:
247,169,163652,1,2,3:2:0:0:
464,60,163805,1,2,3:2:0:0:
400,267,163958,1,10,0:0:0:0:
488,146,164111,1,2,3:2:0:0:
488,146,164188,1,0,3:2:0:0:
488,146,164264,5,2,3:2:0:0:
301,81,164417,1,2,3:2:0:0:
332,318,164570,1,10,0:0:0:0:
143,228,164723,1,2,0:0:0:0:
341,184,164876,5,2,3:2:0:0:
228,328,165029,1,2,3:2:0:0:
177,97,165182,1,10,3:2:0:0:
371,268,165336,6,0,B|277:284|289:225|191:243,1,180,6|0,0:0|3:2,0:0:0:0:
64,53,165795,1,10,3:2:0:0:
259,142,165948,1,2,3:2:0:0:
46,179,166101,5,10,3:2:0:0:
243,64,166254,1,2,3:2:0:0:
6,2,166407,1,10,3:2:0:0:
116,220,166560,1,2,3:2:0:0:
170,11,166713,5,10,3:2:0:0:
12,124,166866,2,0,P|77:116|126:106,1,90,10|0,3:2|0:0,0:0:0:0:
305,229,167172,2,0,P|237:220|174:211,1,90,10|0,3:2|0:0,0:0:0:0:
7,344,167478,2,0,P|71:336|125:324,1,90,10|0,3:2|0:0,0:0:0:0:
340,381,167785,6,0,P|278:322|196:346,1,180,6|0,3:2|0:0,0:0:0:0:
150,164,168244,1,10,0:0:0:0:
28,240,168397,1,2,0:0:0:0:
240,228,168550,2,0,P|246:159|252:106,1,90,2|2,3:2|3:2,3:2:0:0:
85,91,168856,1,8,0:0:0:0:
169,281,169009,6,0,B|284:257|284:257|357:290,1,180,2|0,0:0|0:0,0:0:0:0:
452,353,169468,2,0,P|461:294|470:235,1,90,10|0,0:0|0:0,0:0:0:0:
329,193,169774,2,0,P|338:265|342:297,1,90,2|0,3:2|3:2,3:2:0:0:
157,175,170080,1,10,0:0:0:0:
280,75,170234,1,0,0:0:0:0:
209,262,170387,6,0,P|150:275|64:188,1,180,6|10,3:2|0:0,0:0:0:0:
246,160,170846,1,2,0:0:0:0:
57,106,170999,1,0,3:2:0:0:
184,5,171152,2,0,P|176:77|172:117,1,90,2|8,3:2|0:0,3:2:0:0:
71,15,171458,1,2,0:0:0:0:
246,160,171611,6,0,P|327:179|402:98,2,180,2|10|2,3:2|0:0|3:2,0:0:0:0:
86,242,172376,1,0,3:2:0:0:
200,335,172529,2,0,P|192:266|185:221,1,90,10|0,3:2|0:0,0:0:0:0:
115,69,172836,6,0,P|175:82|217:89,1,90,4|0,3:2|0:0,0:0:0:0:
411,149,173142,2,0,P|360:164|322:177,1,90,10|0,3:2|0:0,0:0:0:0:
375,344,173448,2,0,P|387:292|395:252,1,90,10|0,3:2|0:0,0:0:0:0:
219,213,173754,2,0,P|257:249|287:276,1,90,10|0,3:2|0:0,0:0:0:0:
308,46,174060,6,0,P|271:97|148:95,1,180,4|10,3:2|3:2,0:0:0:0:
161,103,174443,1,2,0:0:0:0:
161,103,174519,1,2,0:0:0:0:
54,152,174672,2,0,P|50:91|50:39,1,90,10|0,3:2|0:0,0:0:0:0:
268,142,174978,2,0,P|264:203|255:258,1,90,10|0,3:2|0:0,0:0:0:0:
0,247,175285,6,0,P|35:201|166:223,1,180,6|8,3:2|0:0,0:0:0:0:
352,300,175744,2,2,L|347:235,2,45,2|2|2,0:0|0:0|3:2,0:0:0:0:
238,346,176050,1,0,3:2:0:0:
457,305,176203,1,8,0:0:0:0:
287,170,176356,1,0,0:0:0:0:
457,305,176509,5,0,3:2:0:0:
273,263,176662,1,0,0:0:0:0:
361,373,176815,2,0,P|368:306|372:252,1,90,8|0,0:0|0:0,0:0:0:0:
234,28,177121,2,8,L|245:91,1,45,8|8,3:2|0:2,3:2:0:0:
332,127,177274,2,8,L|316:188,1,45,8|8,3:2|0:2,3:2:0:0:
231,238,177427,1,4,0:3:0:0:
231,238,177504,1,4,0:3:0:0:
231,238,177580,1,4,0:3:0:0:
231,238,177657,1,4,0:3:0:0:
231,238,177734,6,0,P|145:232|17:200,1,180,6|10,3:2|0:0,0:0:0:0:
311,153,178193,1,2,0:0:0:0:
129,114,178346,1,0,3:2:0:0:
305,40,178499,1,2,3:2:0:0:
145,202,178652,2,0,P|131:137|128:95,1,90,8|2,0:0|0:0,0:0:0:0:
401,174,178958,6,0,P|362:232|241:215,1,180,2|8,3:2|0:0,0:0:0:0:
11,266,179417,1,2,3:2:0:0:
11,266,179494,1,2,0:0:0:0:
11,266,179570,2,0,P|55:231|140:250,1,135,2|0,0:0|0:0,0:0:0:0:
143,254,179876,2,0,L|154:144,1,90,10|0,3:2|0:0,0:0:0:0:
82,312,180182,5,14,3:2:0:0:
54,136,180336,2,0,L|45:81,2,45,0|0|10,0:0|0:0|3:2,0:0:0:0:
242,198,180642,2,0,L|233:258,2,45,0|0|10,0:0|0:0|3:2,0:0:0:0:
134,285,180948,1,0,0:0:0:0:
207,96,181101,1,10,3:2:0:0:
336,260,181254,1,0,0:0:0:0:
134,285,181407,6,0,P|127:221|124:168,1,90,8|0,3:2|0:0,0:0:0:0:
303,170,181713,2,10,L|246:159,1,45,10|10,3:2|3:2,3:2:0:0:
78,74,181866,2,10,L|136:66,1,45,10|10,3:2|3:2,3:2:0:0:
254,11,182019,1,8,3:2:0:0:
217,243,182172,1,8,0:0:0:0:
392,150,182325,1,4,0:3:0:0:
392,150,182402,1,4,0:3:0:0:
392,150,182478,1,4,0:3:0:0:
392,150,182555,1,4,0:3:0:0:
392,150,182631,6,0,P|352:96|239:121,1,180,6|10,3:2|0:0,0:0:0:0:
204,317,183091,1,2,0:0:0:0:
357,249,183244,2,0,P|279:239|250:236,1,90,0|2,3:2|3:2,3:2:0:0:
144,180,183550,1,8,0:0:0:0:
306,77,183703,1,2,0:0:0:0:
306,77,183856,6,0,P|313:146|316:190,1,90,2|0,3:2|0:0,0:0:0:0:
168,364,184162,2,0,P|175:304|181:263,1,90,10|2,0:0|0:0,0:0:0:0:
179,274,184392,1,2,0:0:0:0:
179,274,184468,1,2,3:2:0:0:
292,351,184621,1,0,3:2:0:0:
82,302,184774,1,10,0:0:0:0:
235,184,184927,1,0,0:0:0:0:
292,351,185080,5,10,3:2:0:0:
300,111,185234,1,0,3:2:0:0:
144,230,185387,5,8,3:2:0:0:
403,263,185540,1,0,3:2:0:0:
301,23,185693,1,8,3:2:0:0:
235,184,185846,5,0,3:2:0:0:
419,151,185999,2,0,L|410:98,1,45,8|0,3:2|0:0,0:0:0:0:
301,23,186152,2,0,L|310:81,1,45,8|0,0:0|0:0,3:2:0:0:
320,166,186305,6,0,P|261:164|161:139,1,135.000005149842,4|0,3:2|0:0,0:0:0:0:
97,139,186764,1,4,0:3:0:0:
151,67,186917,2,0,P|156:25|158:-1,1,67.5000025749208,2|0,3:2|0:0,0:0:0:0:
15,114,187223,2,0,P|18:172|22:198,1,67.5000025749208,2|0,3:2|0:0,0:0:0:0:
3,291,187529,6,0,B|113:273|134:213|110:151|261:136,1,315,6|2,0:0|0:0,0:0:0:0:
362,128,188754,6,0,P|355:172|342:265,2,135,2|2|2,0:0|0:0|0:0,0:0:0:0:
280,59,189978,6,0,P|370:25|464:160,1,270,2|2,0:0|0:0,0:0:0:0:
491,234,191050,1,2,0:0:0:0:
491,234,191203,6,0,B|423:248|433:206|360:221,2,135,2|0|2,0:0|0:0|0:0,0:0:0:0:
388,308,192274,1,2,0:0:0:0:
388,308,192351,1,2,0:0:0:0:
388,308,192427,6,0,P|342:346|277:332,1,107.999996704102,2|2,0:0|0:0,0:0:0:0:
211,372,192887,2,0,P|214:314|222:250,1,107.999996704102,2|2,0:0|0:0,0:0:0:0:
235,171,193499,1,2,0:0:0:0:
34,228,193958,6,0,P|58:200|132:203,2,107.999996704102,2|2|2,0:0|0:0|0:0,0:0:0:0:
210,258,194876,6,0,P|216:212|223:131,1,107.999996704102,2|2,0:0|0:0,0:0:0:0:
94,115,195336,1,2,0:0:0:0:
217,65,195489,1,0,0:0:0:0:
114,0,195642,1,0,0:0:0:0:
217,65,195795,6,0,B|297:76|277:33|348:42,1,135.000005149842,0|0,0:0|3:2,0:0:0:0:
428,54,196177,1,0,0:0:0:0:
428,54,196254,6,0,L|421:110,1,45,8|0,0:0|0:0,0:0:0:0:
335,122,196407,2,0,L|347:171,1,45,8|0,0:0|0:0,0:0:0:0:
431,180,196560,2,0,L|424:236,1,45,8|0,0:0|0:0,0:0:0:0:
340,245,196713,2,0,L|352:294,1,45,10|0,0:0|0:0,0:0:0:0:
446,302,196866,1,8,0:0:0:0:
343,369,197019,1,10,0:0:0:0:
456,382,197172,1,10,0:0:0:0:
273,319,197325,6,0,P|210:331|125:339,1,135.000005149842,6|0,3:2|3:2,0:0:0:0:
33,275,197938,2,0,P|50:225|143:235,1,135.000005149842,2|0,3:2|3:2,3:2:0:0:
215,237,198550,6,0,P|221:184|226:151,1,67.5000025749208,2|0,3:2|0:0,0:0:0:0:
115,47,198856,2,0,P|126:107|134:139,1,67.5000025749208,0|2,3:2|0:0,0:0:0:0:
291,56,199162,2,0,P|248:65|213:69,1,67.5000025749208,2|0,3:2|0:0,0:0:0:0:
54,199,199468,2,0,P|110:212|135:216,1,67.5000025749208,2|0,3:2|0:0,0:0:0:0:
320,353,199774,6,0,P|280:318|191:340,1,135.000005149842,6|2,3:2|3:2,0:0:0:0:
203,328,200234,1,2,0:0:0:0:
125,374,200387,2,0,P|115:333|111:298,1,67.5000025749208,0|2,3:2|0:0,0:0:0:0:
288,212,200693,2,0,P|284:258|278:305,1,67.5000025749208,0|2,3:2|0:0,0:0:0:0:
129,217,200999,6,0,P|177:227|206:232,1,67.5000025749208,2|0,3:2|0:0,0:0:0:0:
375,250,201305,1,2,3:2:0:0:
340,106,201458,1,0,0:0:0:0:
472,157,201611,2,0,P|426:162|383:170,1,67.5000025749208,2|0,3:2|0:0,0:0:0:0:
281,302,201917,2,0,P|286:249|292:211,1,67.5000025749208,2|2,3:2|0:0,0:0:0:0:
294,209,202147,1,2,0:0:0:0:
294,209,202223,6,0,P|235:217|151:131,1,180,6|2,3:2|3:2,0:0:0:0:
339,69,202682,1,2,0:0:0:0:
251,126,202836,2,0,P|243:68|240:21,1,90,8|0,3:2|0:0,0:0:0:0:
152,139,203142,1,8,0:0:0:0:
340,188,203295,1,0,0:0:0:0:
152,235,203448,5,8,3:2:0:0:
337,288,203601,1,0,3:2:0:0:
153,328,203754,1,8,3:2:0:0:
338,380,203907,1,0,3:2:0:0:
238,145,204060,5,8,3:2:0:0:
259,338,204213,1,0,3:2:0:0:
259,338,204290,1,0,3:2:0:0:
259,338,204366,1,10,3:2:0:0:
76,259,204519,1,0,3:2:0:0:
76,259,204596,1,0,3:2:0:0:
76,259,204672,5,10,3:2:0:0:
412,208,204825,1,8,3:2:0:0:
143,63,204978,1,8,3:2:0:0:
143,63,205285,2,0,L|153:160,1,90,10|0,0:0|0:0,0:0:0:0:
241,101,205591,1,2,3:2:0:0:
241,101,205744,1,2,0:0:0:0:
83,188,205897,6,0,B|177:169|162:227|259:213,1,180,6|0,0:0|0:0,0:0:0:0:
458,130,206356,1,2,0:0:0:0:
370,189,206509,2,8,L|368:131,1,45,10|0,0:0|0:0,0:0:0:0:
363,56,206662,1,0,3:2:0:0:
442,238,206815,2,0,P|399:272|337:263,1,90,2|0,0:0|0:0,0:0:0:0:
257,213,207121,6,0,L|271:327,1,90,6|0,3:2|0:0,0:0:0:0:
359,371,207427,1,2,3:2:0:0:
175,280,207580,2,0,L|118:290,2,49.5000015106202,2|0|8,3:2|0:0|0:0,0:0:0:0:
354,177,207887,2,0,P|306:122|181:142,1,198.000006042481,2|2,0:0|3:2,0:0:0:0:
292,307,208346,5,2,0:0:0:0:
292,307,208499,2,0,P|347:302|424:288,1,99.0000030212403,8|2,0:0|0:0,0:0:0:0:
260,204,208805,1,0,3:2:0:0:
335,380,208958,1,10,0:0:0:0:
173,326,209111,1,0,3:2:0:0:
359,225,209264,1,2,0:0:0:0:
173,151,209417,1,2,0:0:0:0:
271,286,209570,6,0,P|344:271|475:251,1,198.000006042481,6|0,3:2|3:2,0:0:0:0:
287,190,210029,1,0,3:2:0:0:
377,378,210183,2,0,P|377:316|381:252,1,99.0000030212403,8|2,0:0|0:0,0:0:0:0:
394,101,210489,1,2,3:2:0:0:
191,143,210642,1,0,3:2:0:0:
269,3,210795,6,0,P|282:66|298:120,1,99.0000030212403,0|8,3:2|3:2,3:2:0:0:
120,211,211101,2,0,P|168:168|206:127,1,99.0000030212403,0|0,0:0|3:2,3:2:0:0:
368,237,211407,2,0,P|306:216|252:203,1,99.0000030212403,10|0,0:0|3:2,3:2:0:0:
191,143,211713,1,2,0:0:0:0:
387,110,211866,1,0,0:0:0:0:
313,308,212019,6,0,B|209:328|226:267|118:286,1,198.000006042481,6|2,3:2|3:2,0:0:0:0:
273,208,212478,1,2,3:2:0:0:
151,376,212631,1,8,0:0:0:0:
43,201,212785,2,0,P|90:129|196:148,1,198.000006042481,2|2,0:0|3:2,3:2:0:0:
456,159,213244,5,0,0:0:0:0:
276,87,213397,1,8,0:0:0:0:
370,242,213550,1,2,0:0:0:0:
406,28,213703,1,0,3:2:0:0:
370,242,213856,2,0,P|305:236|256:228,1,99.0000030212403,10|0,0:0|3:2,3:2:0:0:
177,98,214162,2,0,P|246:88|302:86,1,99.0000030212403,2|0,0:0|0:0,0:0:0:0:
438,176,214468,6,0,P|465:244|375:336,1,198.000006042481,6|2,3:2|3:2,0:0:0:0:
113,217,214927,1,0,3:2:0:0:
113,217,215004,1,0,3:0:0:0:
113,217,215080,6,0,L|120:285,1,49.5000015106202,8|0,3:2|0:0,0:0:0:0:
226,364,215234,1,0,0:0:0:0:
30,300,215387,1,8,3:2:0:0:
196,171,215540,1,0,3:2:0:0:
226,364,215693,5,12,3:2:0:0:
104,141,215846,1,0,3:2:0:0:
272,288,215999,1,8,3:2:0:0:
290,49,216152,1,0,3:2:0:0:
133,248,216305,6,0,L|188:240,1,49.5000015106202,10|0,0:0|0:0,0:0:0:0:
413,160,216458,2,0,L|340:150,1,49.5000015106202,8|0,0:0|0:0,0:0:0:0:
144,22,216611,1,10,3:2:0:0:
168,59,216688,1,8,3:2:0:0:
209,75,216764,1,10,3:2:0:0:
253,73,216841,1,8,3:2:0:0:
290,49,216917,6,0,L|281:162,1,99.0000030212403,6|0,3:2|0:0,0:0:0:0:
183,273,217223,1,8,0:0:0:0:
48,122,217376,1,0,0:0:0:0:
193,176,217529,1,2,3:2:0:0:
25,294,217682,1,0,3:2:0:0:
271,366,217836,2,0,P|280:300|278:244,1,99.0000030212403,10|0,0:0|0:0,0:0:0:0:
96,195,218142,6,0,P|101:252|118:317,1,99.0000030212403,2|0,3:2|0:0,0:0:0:0:
392,253,218448,1,8,0:0:0:0:
196,175,218601,1,0,3:0:0:0:
196,175,218677,1,0,3:0:0:0:
196,175,218754,1,2,3:2:0:0:
400,126,218907,1,0,3:2:0:0:
181,46,219060,1,10,0:0:0:0:
412,0,219213,1,0,0:0:0:0:
310,217,219366,6,0,L|295:46,1,148.50000453186,6|0,3:2|0:0,0:0:0:0:
293,45,219672,1,10,0:0:0:0:
167,258,219825,1,2,0:0:0:0:
78,125,219978,6,8,L|141:137,1,49.5000015106202,8|8,3:2|3:2,3:2:0:0:
221,169,220131,2,8,L|214:99,1,49.5000015106202,10|8,3:2|3:2,3:2:0:0:
165,4,220285,2,8,L|154:73,1,49.5000015106202,8|8,3:2|3:2,3:2:0:0:
18,274,220438,1,10,3:2:0:0:
18,274,220514,1,8,3:2:0:0:
18,274,220591,6,0,P|70:232|158:255,1,148.50000453186,2|0,3:2|0:0,0:0:0:0:
168,260,220897,1,10,0:0:0:0:
333,177,221050,1,0,0:0:0:0:
196,109,221203,1,2,3:2:0:0:
261,332,221356,1,0,3:2:0:0:
409,240,221509,2,0,P|421:175|421:113,1,99.0000030212403,10|0,0:0|0:0,0:0:0:0:
106,122,221815,6,0,P|144:183|268:163,1,198.000006042481,6|10,3:2|0:0,0:0:0:0:
31,197,222274,1,2,0:0:0:0:
196,109,222427,5,0,3:2:0:0:
35,40,222580,1,0,3:2:0:0:
161,229,222734,1,8,0:0:0:0:
212,15,222887,1,0,0:0:0:0:
300,233,223040,5,0,3:2:0:0:
354,6,223193,1,0,3:2:0:0:
441,245,223346,1,8,0:0:0:0:
232,178,223499,1,0,0:0:0:0:
461,148,223652,5,2,3:2:0:0:
281,61,223805,1,0,3:2:0:0:
347,283,223958,2,0,P|352:212|357:151,1,99.0000030212403,8|0,0:0|0:0,0:0:0:0:
368,94,224264,5,14,3:2:0:0:
121,232,224417,1,0,3:2:0:0:
368,94,224570,1,8,3:2:0:0:
158,28,224723,1,0,3:2:0:0:
395,200,224876,5,10,3:2:0:0:
173,138,225029,1,0,3:2:0:0:
286,306,225182,1,8,3:2:0:0:
288,55,225336,1,0,3:2:0:0:
288,55,225412,1,0,3:2:0:0:
288,55,225489,5,14,3:2:0:0:
366,273,225642,1,8,3:2:0:0:
175,237,225795,1,8,3:2:0:0:
341,149,225948,1,8,3:2:0:0:
299,384,226101,1,14,3:2:0:0:
256,192,226177,12,0,227172,0:0:0:0:
122,101,227325,5,8,3:2:0:0:
394,182,227478,1,8,3:2:0:0:
173,278,227938,5,2,0:0:0:0:
173,278,228091,2,0,L|182:205,1,67.5000025749208,2|0,0:0|0:0,0:0:0:0:
269,178,228397,2,0,L|258:253,1,67.5000025749208,2|0,0:0|0:0,0:0:0:0:
243,330,228703,1,2,0:0:0:0:
243,330,229009,6,0,P|299:313|394:390,1,180,6|0,0:0|0:0,0:0:0:0:
483,293,229468,2,0,L|494:386,1,90,10|0,3:2|3:2,3:2:0:0:
374,242,229774,1,2,0:0:0:0:
374,242,229927,1,0,0:0:0:0:
484,150,230080,1,10,3:2:0:0:
400,338,230234,1,0,3:2:0:0:
400,338,230387,6,0,P|332:328|270:316,1,90,2|8,3:2|0:0,0:0:0:0:
127,178,230693,1,2,3:2:0:0:
95,274,230846,2,0,L|187:261,1,90,2|10,3:2|0:0,0:0:0:0:
347,151,231152,1,0,2:3:0:0:
172,89,231305,1,10,3:2:0:0:
286,226,231458,6,0,P|340:245|438:154,1,180,6|0,3:2|0:0,0:0:0:0:
336,61,231917,2,0,P|344:128|347:163,1,90,10|0,3:2|3:2,3:2:0:0:
194,263,232223,2,0,P|197:204|202:148,1,90,10|0,0:0|0:0,0:0:0:0:
205,78,232529,1,0,3:2:0:0:
278,292,232682,6,0,B|185:274|204:338|103:317,1,180,10|0,3:2|3:2,0:0:0:0:
241,173,233142,1,10,3:2:0:0:
66,191,233295,2,0,P|116:209|165:233,1,90,10|0,3:2|0:0,0:0:0:0:
216,66,233601,2,0,P|175:100|130:130,1,90,10|0,3:2|0:0,0:0:0:0:
254,262,233907,2,0,P|244:209|240:155,1,90,10|0,3:2|0:0,0:0:0:0:
317,95,234213,6,0,P|375:68|440:161,1,180,10|0,0:0|3:2,0:0:0:0:
447,148,234596,1,0,3:2:0:0:
451,153,234672,2,0,P|460:93|465:41,1,90,6|0,3:2|0:0,0:0:0:0:
350,195,234978,1,10,0:0:0:0:
350,195,235055,1,2,0:0:0:0:
350,195,235131,2,0,L|363:261,1,45,2|0,0:0|0:0,0:0:0:0:
459,270,235285,5,2,3:2:0:0:
251,348,235438,2,0,P|255:278|262:230,1,90,8|2,0:0|3:2,0:0:0:0:
365,359,235744,1,2,3:2:0:0:
163,301,235897,1,10,0:0:0:0:
358,239,236050,1,0,3:2:0:0:
168,173,236203,1,10,3:2:0:0:
224,381,236356,6,0,P|191:343|54:369,1,180,6|0,3:2|0:0,0:0:0:0:
256,159,236815,2,0,P|261:229|266:285,1,90,10|0,3:2|3:2,3:2:0:0:
99,84,237121,2,0,P|168:80|206:73,1,90,10|0,0:0|0:0,0:0:0:0:
439,184,237427,5,8,3:2:0:0:
439,184,237580,2,0,P|374:195|323:201,1,90,10|0,3:2|0:0,0:0:0:0:
124,344,237887,2,0,P|190:332|235:325,1,90,10|0,3:2|0:0,0:0:0:0:
362,379,238193,2,0,P|371:325|378:281,1,90,10|0,3:2|0:0,0:0:0:0:
146,139,238499,2,0,P|152:184|157:229,1,90,10|0,3:2|0:0,0:0:0:0:
223,313,238805,6,0,B|175:369|70:380|4:325|64:211|158:255|176:310|176:310|190:217|281:220|281:220|271:297|314:282|307:347|309:366|309:366|315:349|394:250|518:246|510:366|488:401|409:409|372:366|364:271,1,1036.8,6|0,3:2|0:0,0:0:0:0:
359,245,244392,6,0,L|339:90,1,153.899998121338,6|0,0:0|3:2,0:0:0:0:
341,78,245157,1,0,3:2:0:0:
341,63,245234,2,0,L|348:40,2,17.0999997912598,0|0|0,3:2|3:2|3:2,3:2:0:0:
