osu file format v14

[General]
AudioFilename: audio.mp3
AudioLeadIn: 0
PreviewTime: 50394
Countdown: 0
SampleSet: Soft
StackLeniency: 0.7
Mode: 0
LetterboxInBreaks: 0
WidescreenStoryboard: 0

[Editor]
DistanceSpacing: 0.8
BeatDivisor: 4
GridSize: 16
TimelineZoom: 3.199999

[Metadata]
Title:courage (TV Size)
TitleUnicode:courage (TV Size)
Artist:Tomatsu Haruka
ArtistUnicode:戸松遥
Creator:Sotarks
Version:Rosario
Source:ソードアート・オンラインⅡ
Tags:sword art online anime opening op kirito asuna yuki 2nd japanese female vocalist sao kowari snownino_ reform kujinn basensorex
BeatmapID:2475402
BeatmapSetID:1182742

[Difficulty]
HPDrainRate:5.2
CircleSize:3.8
OverallDifficulty:9
ApproachRate:9.2
SliderMultiplier:1.82
SliderTickRate:1

[Events]
//Background and Video events
0,0,"bg.jpg",0,0
Video,919,"video.mp4"
//Break Periods
//Storyboard Layer 0 (Background)
//Storyboard Layer 1 (Fail)
//Storyboard Layer 2 (Pass)
//Storyboard Layer 3 (Foreground)
//Storyboard Layer 4 (Overlay)
//Storyboard Sound Samples

[TimingPoints]
1032,306.122448979592,4,2,2,40,1,0
2256,-192.307692307692,4,2,22,42,0,0
20623,-192.307692307692,4,2,22,52,0,0
21848,-108.695652173913,4,2,22,62,0,0
50470,-108.695652173913,4,2,22,42,0,0
50623,-192.307692307692,4,2,22,52,0,0
50929,-108.695652173913,4,2,22,62,0,0
51158,-108.695652173913,4,2,22,5,0,0
51236,-98.0392156862745,4,2,22,72,0,0
69603,-192.307692307692,4,2,22,82,0,0
70521,-192.307692307692,4,2,22,62,0,0
70827,-238.095238095238,4,2,22,52,0,0
75725,-192.307692307692,4,2,22,52,0,0
79399,-192.307692307692,4,2,22,72,0,0
80623,-98.0392156862745,4,2,22,82,0,0

[Colours]
Combo1 : 191,105,203
Combo2 : 142,75,216
Combo3 : 222,54,54

[HitObjects]
233,142,2256,6,0,P|266:142|333:162,1,94.9870127556967,2|0,2:0|2:0,2:0:0:0:
387,23,2715,2,0,P|410:46|443:107,1,94.9870127556967,2|0,2:0|2:0,2:0:0:0:
440,99,3174,1,0,2:0:0:0:
504,204,3327,2,0,B|449:169|392:232|422:254|349:297|287:255,1,237.003795889241,2|0,2:0|2:0,2:0:0:0:
233,142,4399,1,2,2:0:0:0:
152,241,4705,6,0,P|160:282|165:307,2,47.4935063778483,2|0|0,2:0|2:0|2:0,2:0:0:0:
62,268,5164,2,0,P|68:202|71:153,1,94.9870127556967,2|0,2:0|2:0,2:0:0:0:
69,173,5623,1,0,2:0:0:0:
21,76,5776,2,0,P|68:93|111:78,1,94.9870127556967,2|0,2:0|2:0,2:0:0:0:
185,114,6236,2,0,P|216:102|237:98,1,47.648085044515,2|0,2:0|2:0,2:0:0:0:
267,16,6542,2,0,P|289:21|311:30,1,47.648085044515,2|0,2:0|2:0,2:0:0:0:
356,104,6848,1,2,2:0:0:0:
434,68,7001,1,0,3:2:0:0:
434,68,7077,1,0,3:2:0:0:
434,68,7154,6,0,P|379:143|411:241,1,189.66486817806,2|0,3:2|2:0,2:0:0:0:
478,261,7919,2,0,P|418:264|375:291,1,94.9870127556967,2|0,2:0|2:0,2:0:0:0:
283,352,8378,2,0,P|230:359|181:285,1,142.325940466878,2|0,2:0|2:0,2:0:0:0:
202,203,8991,2,0,B|115:190|152:256|63:242,1,142.325940466878,2|0,2:0|2:0,2:0:0:0:
21,168,9603,6,0,P|26:127|33:106,1,47.648085044515,2|0,2:0|2:0,2:0:0:0:
121,92,9909,1,2,2:0:0:0:
121,92,10062,2,0,P|126:115|127:138,1,47.648085044515,2|0,2:0|2:0,2:0:0:0:
202,203,10368,1,2,2:0:0:0:
274,146,10521,1,2,2:0:0:0:
210,105,10674,1,2,2:0:0:0:
304,247,10827,2,0,P|369:235|457:222,1,142.325940466878,2|0,2:0|2:0,2:0:0:0:
512,271,11440,2,0,B|470:250|417:280|436:295|388:344|322:311,1,189.66486817806,2|4,2:0|2:0,2:0:0:0:
222,211,12358,5,2,2:0:0:0:
399,57,12664,2,0,P|321:45|267:91,1,142.325940466878,2|0,2:0|2:0,2:0:0:0:
346,178,13276,1,2,2:0:0:0:
346,178,13429,2,0,P|347:142|352:116,1,47.648085044515,2|0,2:0|2:0,2:0:0:0:
241,157,13736,2,0,P|252:219|257:261,2,94.83243408903,2|0|0,2:0|2:0|2:0,2:0:0:0:
170,46,14501,6,0,P|134:67|75:70,1,94.9870127556967,2|0,2:0|2:0,2:0:0:0:
12,113,14960,1,2,2:0:0:0:
12,113,15113,2,0,P|81:113|136:172,1,142.325940466878,2|0,2:0|2:0,2:0:0:0:
132,255,15725,1,2,2:0:0:0:
132,255,15878,2,0,P|96:259|70:263,1,47.648085044515,2|0,2:0|2:0,2:0:0:0:
137,344,16185,2,0,P|89:337|38:332,2,94.83243408903,2|0|0,2:0|2:0|2:0,2:0:0:0:
226,373,16950,5,2,2:0:0:0:
270,160,17409,1,2,2:0:0:0:
387,344,17868,2,0,P|389:308|392:282,1,47.648085044515,2|0,2:0|2:0,2:0:0:0:
290,251,18174,1,0,2:0:0:0:
290,251,18327,2,0,P|298:305|306:358,1,94.9870127556967,2|0,2:0|2:0,2:0:0:0:
211,291,18787,1,2,2:0:0:0:
211,291,18940,2,0,P|175:274|116:289,1,94.9870127556967,2|0,2:0|2:0,2:0:0:0:
17,301,19399,6,0,P|19:236|31:192,1,94.9870127556967,2|0,2:0|2:0,2:0:0:0:
109,102,19858,1,2,2:0:0:0:
170,192,20011,1,2,3:2:0:0:
97,141,20164,1,0,3:2:0:0:
273,187,20317,1,0,3:2:0:0:
135,266,20470,1,2,2:0:0:0:
327,125,20623,5,10,2:0:0:0:
272,336,20776,1,8,2:3:0:0:
300,59,20929,1,4,2:3:0:0:
403,236,21083,1,4,2:3:0:0:
346,0,21236,1,8,2:0:0:0:
230,268,21389,1,8,2:0:0:0:
230,268,21848,6,0,P|169:256|128:251,1,84.300455856242,4|0,1:2|2:0,2:0:0:0:
77,75,22154,2,0,P|117:66|159:60,1,84.300455856242,10|0,2:0|2:0,2:0:0:0:
304,156,22460,1,2,1:2:0:0:
225,0,22613,1,8,1:3:0:0:
116,174,22766,2,0,P|74:167|33:159,1,84.300455856242,8|0,2:0|2:0,2:0:0:0:
243,95,23072,5,2,1:2:0:0:
131,273,23225,1,6,1:3:0:0:
77,75,23378,1,8,2:0:0:0:
317,251,23532,2,0,P|306:326|303:351,1,84.300455856242,2|0,1:2|2:0,2:0:0:0:
202,173,23838,1,2,1:2:0:0:
396,109,23991,1,8,2:0:0:0:
196,342,24144,6,0,P|116:357|54:270,1,168.053941045818,6|0,1:2|2:0,2:0:0:0:
160,107,24603,2,0,P|219:97|254:93,1,84.300455856242,10|0,2:0|2:0,2:0:0:0:
138,266,24909,2,0,P|96:258|55:253,1,84.300455856242,2|8,1:2|1:3,2:0:0:0:
236,178,25215,1,8,2:0:0:0:
89,340,25368,1,0,2:0:0:0:
160,107,25521,5,2,1:2:0:0:
284,290,25674,1,6,1:3:0:0:
93,175,25827,1,8,2:0:0:0:
287,76,25980,2,0,P|280:142|275:190,1,84.300455856242,2|0,1:2|2:0,2:0:0:0:
171,324,26287,2,0,P|166:282|162:240,1,84.300455856242,2|8,1:2|2:0,2:0:0:0:
380,296,26593,6,0,P|446:309|504:203,1,168.053941045818,6|0,1:2|1:2,2:0:0:0:
371,84,27052,2,0,P|277:95|181:110,1,168.053941045818,8|0,2:0|1:2,2:0:0:0:
131,278,27511,1,8,1:3:0:0:
285,174,27664,1,8,2:0:0:0:
121,78,27817,1,0,2:0:0:0:
279,270,27970,5,2,1:2:0:0:
371,84,28123,1,6,1:3:0:0:
195,148,28276,1,8,2:0:0:0:
382,293,28429,2,0,P|438:279|470:272,1,84.300455856242,2|0,1:2|2:0,2:0:0:0:
285,173,28736,1,10,1:3:0:0:
209,363,28889,2,0,P|153:349|121:342,1,84.300455856242,8|0,2:0|2:0,2:0:0:0:
62,77,29195,6,0,B|112:49|155:80|135:89|178:122|244:89,1,168.053941045818,6|8,1:2|2:0,2:0:0:0:
332,17,29654,1,2,1:2:0:0:
170,185,29807,2,0,P|229:133|318:150,1,168.053941045818,2|8,1:2|2:0,2:0:0:0:
439,271,30266,1,2,1:2:0:0:
211,283,30419,6,0,P|272:298|297:307,1,84.300455856242,14|0,2:0|2:0,2:0:0:0:
441,155,30725,2,2,P|389:165|372:169,1,42.6971985947876,8|0,1:2|1:2,2:0:0:0:
220,99,30878,1,0,1:2:0:0:
220,99,30955,1,0,1:2:0:0:
220,99,31032,2,0,P|272:109|291:112,1,41.8599985947876,10|0,1:2|1:2,1:2:0:0:
332,297,31185,2,0,P|280:307|262:311,1,41.8599985947876,0|0,1:2|1:2,1:2:0:0:
146,177,31338,1,8,1:2:0:0:
104,175,31414,1,8,1:2:0:0:
70,198,31491,1,8,1:2:0:0:
53,235,31567,1,8,1:2:0:0:
61,276,31644,6,0,P|110:267|165:259,1,84.300455856242,6|0,1:2|2:0,2:0:0:0:
356,154,31950,1,8,2:0:0:0:
228,322,32103,1,2,1:2:0:0:
312,92,32256,1,8,2:0:0:0:
424,307,32409,1,0,1:2:0:0:
340,23,32562,1,10,2:0:0:0:
185,257,32715,1,0,1:2:0:0:
389,84,32868,6,0,P|445:72|480:66,1,84.300455856242,14|0,2:0|2:0,2:0:0:0:
185,257,33174,2,0,P|129:245|94:239,1,84.300455856242,10|0,2:0|2:0,2:0:0:0:
312,92,33480,1,10,2:0:0:0:
257,312,33634,1,0,1:2:0:0:
113,152,33787,2,0,P|71:159|31:168,1,84.300455856242,10|0,2:0|2:0,2:0:0:0:
287,223,34093,6,0,B|342:247|374:211|354:198|405:162|464:197,1,168.053941045818,4|0,1:2|1:2,2:0:0:0:
302,125,34552,1,0,1:2:0:0:
427,279,34705,2,0,P|421:336|417:380,1,84.300455856242,8|0,2:0|2:0,2:0:0:0:
418,362,35011,1,0,1:2:0:0:
196,197,35164,2,0,P|200:239|205:281,1,84.300455856242,8|0,2:0|2:0,2:0:0:0:
205,281,35470,1,8,2:0:0:0:
358,180,35623,1,0,1:2:0:0:
204,57,35776,2,0,P|149:66|113:75,1,84.300455856242,4|0,1:2|2:0,2:0:0:0:
64,303,36083,2,0,P|178:314|240:323,1,168.053941045818,4|8,1:2|2:0,2:0:0:0:
443,152,36542,6,0,P|435:214|430:255,1,84.300455856242,6|0,1:2|2:0,2:0:0:0:
313,96,36848,1,8,2:0:0:0:
391,305,37001,1,2,1:2:0:0:
218,170,37154,1,8,2:0:0:0:
432,235,37307,1,0,1:2:0:0:
179,332,37460,1,10,2:0:0:0:
352,234,37613,1,0,1:2:0:0:
146,105,37766,6,0,P|138:167|133:208,1,84.300455856242,14|0,2:0|2:0,2:0:0:0:
393,110,38072,2,0,P|387:68|382:26,1,84.300455856242,10|0,2:0|2:0,2:0:0:0:
255,259,38378,1,2,1:2:0:0:
255,259,38455,1,0,1:2:0:0:
255,259,38532,1,4,1:3:0:0:
129,77,38685,2,0,P|55:61|26:58,1,84.300455856242,10|0,1:3|2:0,2:0:0:0:
156,258,38991,6,0,P|243:239|328:225,1,168.053941045818,4|0,1:2|2:0,2:0:0:0:
462,154,39450,1,0,1:2:0:0:
284,51,39603,2,0,P|273:91|264:132,1,84.300455856242,8|0,2:0|2:0,2:0:0:0:
413,279,39909,1,0,1:2:0:0:
345,118,40062,1,8,2:0:0:0:
251,269,40215,1,0,1:2:0:0:
437,171,40368,1,8,2:0:0:0:
284,51,40521,1,8,2:0:0:0:
355,234,40674,2,0,P|365:293|371:337,1,84.300455856242,4|0,1:2|2:0,2:0:0:0:
369,318,40980,1,0,1:2:0:0:
172,175,41134,2,0,P|162:234|156:278,1,84.300455856242,10|0,0:0|2:0,2:0:0:0:
359,65,41440,6,0,P|409:71|427:183,1,168.053941045818,6|8,1:2|2:0,2:0:0:0:
238,310,41899,2,0,P|189:300|131:293,1,84.300455856242,2|0,2:0|1:2,2:0:0:0:
256,117,42205,1,8,1:3:0:0:
391,267,42358,2,0,P|380:332|374:373,1,84.300455856242,10|0,2:0|2:0,2:0:0:0:
178,182,42664,6,0,P|171:140|164:99,1,84.300455856242,2|0,1:2|2:0,2:0:0:0:
368,45,42970,1,10,2:0:0:0:
291,218,43123,1,0,2:0:0:0:
180,66,43276,1,2,1:2:0:0:
389,150,43429,1,8,1:3:0:0:
222,295,43583,2,0,P|173:285|115:278,1,84.300455856242,10|0,2:0|2:0,2:0:0:0:
317,45,43889,6,0,P|342:176|351:239,1,168.053941045818,6|8,1:2|2:0,2:0:0:0:
335,344,44348,1,6,1:3:0:0:
208,108,44501,2,0,P|130:110|106:200,1,168.053941045818,2|8,1:2|2:0,2:0:0:0:
141,315,44960,1,2,1:2:0:0:
292,172,45113,6,0,P|358:156|405:151,1,84.300455856242,2|0,1:2|2:0,2:0:0:0:
422,348,45419,2,0,P|356:332|309:327,1,84.300455856242,10|0,2:0|2:0,2:0:0:0:
209,257,45725,1,2,1:2:0:0:
402,160,45878,1,8,1:3:0:0:
232,43,46032,2,0,P|222:114|217:153,1,84.300455856242,10|0,2:0|2:0,2:0:0:0:
70,321,46338,6,0,B|123:290|159:322|144:337|187:368|248:335,1,168.053941045818,4|8,1:2|2:0,2:0:0:0:
342,227,46797,2,0,P|350:284|356:322,1,84.300455856242,0|0,2:0|1:2,2:0:0:0:
209,257,47103,1,8,1:3:0:0:
447,169,47256,2,0,P|439:226|433:264,1,84.300455856242,10|0,2:0|2:0,2:0:0:0:
308,146,47562,5,10,1:2:0:0:
424,293,47715,1,0,1:2:0:0:
347,81,47868,1,10,2:0:0:0:
238,299,48021,1,0,1:2:0:0:
301,22,48174,1,10,2:0:0:0:
402,262,48327,1,0,2:0:0:0:
263,84,48480,2,0,P|210:92|169:102,1,84.300455856242,10|0,2:0|2:0,2:0:0:0:
130,325,48787,5,14,2:0:0:0:
343,197,48940,1,8,2:0:0:0:
145,114,49093,1,2,1:2:0:0:
354,318,49246,5,10,2:0:0:0:
381,42,49399,1,8,2:0:0:0:
201,189,49552,1,0,1:2:0:0:
506,103,49705,5,10,2:0:0:0:
181,35,49858,1,8,2:0:0:0:
278,348,50470,5,2,2:0:0:0:
337,253,50623,2,0,P|346:295|351:313,1,47.648085044515,2|0,2:0|2:0,2:0:0:0:
196,193,50929,6,0,P|199:140|205:53,1,126.450683784363,8|0,2:3|2:0,2:0:0:0:
279,25,51236,6,0,P|290:98|296:137,1,93.4635525665283,6|0,1:2|2:0,2:0:0:0:
214,288,51542,1,10,2:0:0:0:
380,90,51695,2,0,P|373:135|366:181,1,93.4635525665283,2|0,2:0|1:2,2:0:0:0:
168,99,52001,1,10,1:3:0:0:
337,253,52154,1,8,2:0:0:0:
279,25,52307,1,2,2:0:0:0:
215,313,52460,6,0,P|163:298|125:288,1,93.4635525665283,2|0,1:2|2:0,2:0:0:0:
298,136,52766,2,0,P|309:181|321:225,1,93.4635525665283,10|0,2:0|2:0,2:0:0:0:
101,164,53072,2,0,P|134:131|167:98,1,93.4635525665283,2|8,1:2|1:3,2:0:0:0:
219,210,53378,1,10,2:0:0:0:
132,25,53532,1,2,2:0:0:0:
28,205,53685,6,0,P|42:271|48:310,1,93.4635525665283,0|0,1:2|2:0,2:0:0:0:
230,181,53991,2,0,B|289:147|325:190|312:203|359:243|434:200,1,186.320681133057,8|0,2:0|1:2,2:0:0:0:
508,122,54450,1,10,1:3:0:0:
354,24,54603,2,0,P|367:93|373:131,1,93.4635525665283,10|0,2:0|2:0,2:0:0:0:
284,281,54909,5,0,1:2:0:0:
457,188,55062,1,4,1:3:0:0:
246,89,55215,2,0,P|233:158|227:196,1,93.4635525665283,8|0,2:0|2:0,2:0:0:0:
422,325,55521,1,2,1:2:0:0:
342,154,55674,1,4,1:3:0:0:
224,343,55827,2,0,P|167:329|115:319,1,93.4635525665283,10|0,2:0|2:0,2:0:0:0:
20,140,56134,6,0,P|53:72|173:98,1,186.320681133057,6|10,1:2|2:0,2:0:0:0:
292,275,56593,2,0,P|304:200|312:158,1,93.4635525665283,2|0,2:0|1:2,2:0:0:0:
135,222,56899,1,10,1:3:0:0:
327,153,57052,1,8,2:0:0:0:
182,63,57205,1,2,2:0:0:0:
420,243,57358,6,0,P|412:171|400:68,1,140.195328849792,0|0,1:2|2:0,2:0:0:0:
412,26,57664,2,0,P|344:44|289:60,1,93.4635525665283,10|0,2:0|2:0,2:0:0:0:
121,131,57970,2,0,P|165:142|210:155,1,93.4635525665283,2|8,1:2|1:3,2:0:0:0:
315,313,58276,2,0,P|247:331|192:347,1,93.4635525665283,10|0,2:0|2:0,2:0:0:0:
29,247,58583,6,0,P|57:186|185:210,1,186.320681133057,2|10,1:2|2:0,2:0:0:0:
292,293,59042,1,2,2:0:0:0:
210,110,59195,1,0,1:2:0:0:
112,283,59348,1,8,1:3:0:0:
316,175,59501,1,8,2:0:0:0:
131,253,59654,1,0,2:0:0:0:
391,217,59807,5,4,1:2:0:0:
187,93,59960,1,8,2:0:0:0:
307,321,60113,1,8,1:3:0:0:
411,86,60266,1,4,1:3:0:0:
207,225,60419,1,10,2:0:0:0:
405,116,60572,1,8,2:3:0:0:
176,67,60725,1,6,2:3:0:0:
386,245,60878,1,6,2:3:0:0:
97,147,61032,6,0,P|87:247|76:358,1,186.320681133057,6|8,1:2|2:0,2:0:0:0:
230,211,61491,1,2,2:0:0:0:
131,56,61644,2,0,P|65:71|27:81,1,93.4635525665283,2|8,1:2|1:3,2:0:0:0:
165,281,61950,2,0,P|210:292|255:302,1,93.4635525665283,10|0,2:0|2:0,2:0:0:0:
435,76,62256,6,0,B|381:55|342:95|356:107|312:151|234:114,1,186.320681133057,2|8,1:2|2:0,2:0:0:0:
131,56,62715,1,2,2:0:0:0:
228,211,62868,1,2,1:2:0:0:
292,34,63021,1,8,1:3:0:0:
104,181,63174,2,0,P|120:263|133:342,1,140.195328849792,10|0,2:0|2:0,2:0:0:0:
95,384,63480,6,0,P|39:369|0:360,1,93.4635525665283,6|0,1:2|2:0,2:0:0:0:
181,141,63787,1,10,2:0:0:0:
311,304,63940,2,0,P|367:289|406:280,1,93.4635525665283,2|0,2:0|1:2,2:0:0:0:
236,64,64246,2,0,P|180:49|141:40,1,93.4635525665283,10|8,1:3|2:0,2:0:0:0:
40,245,64552,1,2,2:0:0:0:
310,123,64705,6,0,P|326:198|333:239,1,93.4635525665283,2|0,1:2|2:0,2:0:0:0:
45,108,65011,2,0,P|53:62|63:17,1,93.4635525665283,10|0,2:0|2:0,2:0:0:0:
226,187,65317,1,2,1:2:0:0:
0,316,65470,1,8,1:3:0:0:
180,97,65623,2,0,P|237:103|292:113,1,93.4635525665283,10|0,2:0|2:0,2:0:0:0:
455,328,65929,6,0,B|388:310|328:293|328:293|303:313|279:334,1,186.320681133057,6|10,1:2|2:0,2:0:0:0:
409,167,66389,1,2,2:0:0:0:
342,384,66542,1,0,1:2:0:0:
187,189,66695,1,8,1:3:0:0:
381,295,66848,2,0,P|449:278|490:268,1,93.4635525665283,8|0,2:0|2:0,2:0:0:0:
285,102,67154,5,0,1:2:0:0:
234,325,67307,1,8,2:0:0:0:
409,167,67460,1,0,1:2:0:0:
168,103,67613,1,8,2:0:0:0:
360,275,67766,1,8,2:3:0:0:
333,25,67919,1,4,2:3:0:0:
169,266,68072,2,0,P|101:249|60:239,1,93.4635525665283,6|0,2:3|2:0,2:0:0:0:
0,42,68378,6,0,P|45:30|90:19,1,93.4635525665283,6|0,1:2|2:0,2:0:0:0:
291,190,68685,1,8,2:0:0:0:
70,125,68838,1,0,1:2:0:0:
296,42,68991,1,10,2:0:0:0:
44,155,69144,1,0,1:2:0:0:
333,251,69297,1,10,2:0:0:0:
217,28,69450,1,2,1:2:0:0:
319,319,69603,6,0,P|232:316|301:192,1,284.342723600423,4|0,1:2|2:0,2:0:0:0:
372,34,70827,6,0,P|325:37|282:44,1,76.7202776672364,6|0,2:0|2:0,2:0:0:0:
214,182,71287,2,0,P|252:184|290:189,1,76.7202776672364,2|0,2:0|2:0,2:0:0:0:
416,123,71746,1,2,2:0:0:0:
416,123,72052,6,0,P|425:176|430:208,1,76.7202776672364,2|0,2:0|2:0,2:0:0:0:
277,264,72511,2,0,P|283:226|289:188,1,76.7202776672364,2|0,2:0|2:0,2:0:0:0:
406,328,72970,1,2,2:0:0:0:
406,328,73276,5,2,2:0:0:0:
373,235,73429,1,0,2:0:0:0:
310,355,73583,1,0,2:0:0:0:
277,264,73736,1,2,2:0:0:0:
277,264,74042,2,0,L|231:258,2,38.3601388336182,2|0|0,2:0|2:0|2:0,2:0:0:0:
185,328,74501,6,0,P|139:333|96:339,1,76.7202776672364,2|0,2:0|2:0,2:0:0:0:
57,191,74960,2,0,P|103:196|146:202,1,76.7202776672364,2|0,2:0|2:0,2:0:0:0:
6,308,75419,1,2,2:0:0:0:
249,108,75725,6,0,P|257:166|265:211,1,94.9870127556967,2|0,2:0|2:0,2:0:0:0:
378,144,76185,2,0,P|372:186|368:207,1,47.648085044515,2|0,2:0|2:0,2:0:0:0:
480,85,76491,2,0,P|486:127|490:148,1,47.648085044515,2|0,2:0|2:0,2:0:0:0:
505,212,76797,1,2,2:0:0:0:
362,50,76950,1,0,2:0:0:0:
362,50,77256,6,0,P|323:57|304:62,1,47.648085044515,2|0,2:0|2:0,2:0:0:0:
424,196,77562,2,0,P|432:173|439:151,1,47.648085044515,2|0,2:0|2:0,2:0:0:0:
267,174,77868,2,0,P|281:192|297:209,1,47.648085044515,2|0,2:0|2:0,2:0:0:0:
355,132,78174,5,2,2:0:0:0:
132,330,78480,1,2,2:0:0:0:
132,330,78634,2,0,B|217:318|167:385|279:368,1,142.325940466878,2|0,2:0|3:2,2:0:0:0:
173,68,79399,5,4,1:2:0:0:
254,285,79552,1,8,2:0:0:0:
388,77,79705,1,8,2:0:0:0:
121,204,79858,1,4,1:3:0:0:
414,104,80011,1,10,2:0:0:0:
151,44,80164,1,8,2:3:0:0:
279,315,80317,1,6,2:3:0:0:
249,96,80470,1,6,2:3:0:0:
136,334,80623,6,0,P|84:326|35:320,1,93.4635525665283,6|0,1:2|2:0,2:0:0:0:
282,193,80929,2,0,P|334:185|383:179,1,93.4635525665283,8|2,2:0|2:0,2:0:0:0:
171,86,81236,1,2,1:2:0:0:
284,295,81389,1,8,1:3:0:0:
428,110,81542,2,0,P|416:57|403:4,1,93.4635525665283,10|0,2:0|2:0,2:0:0:0:
148,174,81848,6,0,P|140:295|134:376,1,186.320681133057,2|8,1:2|2:0,2:0:0:0:
350,232,82307,1,2,2:0:0:0:
171,86,82460,2,0,P|98:104|56:116,1,93.4635525665283,2|8,1:2|1:3,2:0:0:0:
255,299,82766,2,0,P|299:310|395:334,1,140.195328849792,10|0,2:0|2:0,2:0:0:0:
460,285,83072,6,0,P|452:232|439:173,1,93.4635525665283,6|0,1:2|2:0,2:0:0:0:
317,46,83378,1,10,2:0:0:0:
183,242,83532,2,0,P|173:287|167:333,1,93.4635525665283,2|0,2:0|1:2,2:0:0:0:
330,172,83838,1,10,1:3:0:0:
122,88,83991,1,8,2:0:0:0:
272,301,84144,1,2,2:0:0:0:
317,46,84297,6,0,P|384:57|422:64,1,93.4635525665283,2|0,1:2|2:0,2:0:0:0:
477,269,84603,2,0,P|410:280|372:287,1,93.4635525665283,10|0,2:0|2:0,2:0:0:0:
167,167,84909,2,0,P|153:233|141:284,1,93.4635525665283,2|8,1:2|2:3,2:0:0:0:
310,81,85215,2,0,P|319:126|329:171,1,93.4635525665283,10|0,2:0|2:0,2:0:0:0:
133,25,85521,6,0,P|49:29|30:139,1,186.320681133057,6|10,1:2|2:0,2:0:0:0:
157,290,85980,1,2,2:0:0:0:
230,83,86134,1,0,1:2:0:0:
79,190,86287,1,8,1:3:0:0:
286,299,86440,2,0,P|346:286|391:277,1,93.4635525665283,8|0,2:0|2:0,2:0:0:0:
423,63,86746,5,0,1:2:0:0:
255,187,86899,1,4,1:3:0:0:
458,336,87052,2,0,P|465:257|470:212,1,93.4635525665283,8|0,2:0|2:0,2:0:0:0:
305,54,87358,1,0,1:2:0:0:
376,279,87511,1,8,1:3:0:0:
168,127,87664,2,0,P|161:206|156:251,1,93.4635525665283,10|0,2:0|2:0,2:0:0:0:
21,360,87970,6,0,P|16:313|12:267,1,93.4635525665283,2|0,1:2|2:0,2:0:0:0:
123,59,88276,1,8,2:0:0:0:
228,277,88429,1,0,1:2:0:0:
305,54,88583,1,8,2:0:0:0:
254,345,88736,1,0,1:2:0:0:
91,136,88889,2,0,P|87:182|82:228,1,93.4635525665283,10|0,2:0|2:0,2:0:0:0:
337,127,89195,5,2,1:2:0:0:
113,259,89348,1,2,1:2:0:0:
373,200,89501,1,8,1:3:0:0:
149,76,89654,1,10,2:0:0:0:
149,76,89730,1,8,2:0:0:0:
149,76,89807,1,8,2:0:0:0:
254,345,89960,1,10,2:0:0:0:
422,32,90266,5,2,2:0:0:0:
