osu file format v14

[General]
AudioFilename: audio.mp3
AudioLeadIn: 0
PreviewTime: 50394
Countdown: 0
SampleSet: Soft
StackLeniency: 0.7
Mode: 0
LetterboxInBreaks: 0
WidescreenStoryboard: 1

[Editor]
DistanceSpacing: 0.8
BeatDivisor: 4
GridSize: 16
TimelineZoom: 3.199999

[Metadata]
Title:courage (TV Size)
TitleUnicode:courage (TV Size)
Artist:Tomatsu Haruka
ArtistUnicode:戸松遥
Creator:Sotarks
Version:Reform's Expert
Source:ソードアート・オンラインⅡ
Tags:sword art online anime opening op kirito asuna yuki 2nd japanese female vocalist sao kowari snownino_ reform kujinn basensorex
BeatmapID:2475907
BeatmapSetID:1182742

[Difficulty]
HPDrainRate:5.2
CircleSize:3.8
OverallDifficulty:8.7
ApproachRate:9
SliderMultiplier:1.82
SliderTickRate:1

[Events]
//Background and Video events
0,0,"bg.jpg",0,0
Video,919,"video.mp4"
//Break Periods
//Storyboard Layer 0 (Background)
//Storyboard Layer 1 (Fail)
//Storyboard Layer 2 (Pass)
//Storyboard Layer 3 (Foreground)
//Storyboard Layer 4 (Overlay)
//Storyboard Sound Samples

[TimingPoints]
1032,306.122448979592,4,2,2,40,1,0
2256,-192.307692307692,4,2,22,42,0,0
20623,-192.307692307692,4,2,22,52,0,0
21848,-108.695652173913,4,2,22,62,0,0
50470,-108.695652173913,4,2,22,42,0,0
50623,-192.307692307692,4,2,22,52,0,0
50929,-108.695652173913,4,2,22,62,0,0
51158,-108.695652173913,4,2,22,5,0,0
51236,-98.0392156862745,4,2,22,72,0,0
69603,-192.307692307692,4,2,22,82,0,0
70521,-192.307692307692,4,2,22,62,0,0
70827,-238.095238095238,4,2,22,52,0,0
75725,-192.307692307692,4,2,22,52,0,0
79399,-192.307692307692,4,2,22,72,0,0
80623,-98.0392156862745,4,2,22,82,0,0

[Colours]
Combo1 : 191,105,203
Combo2 : 142,75,216
Combo3 : 222,54,54

[HitObjects]
79,360,2256,6,0,P|70:322|86:252,1,94.9870127556967,2|0,2:0|2:0,2:0:0:0:
157,202,2715,2,0,P|166:164|150:94,1,94.9870127556967,2|0,2:0|2:0,2:0:0:0:
114,27,3174,1,0,2:0:0:0:
114,27,3327,2,0,B|175:-3|248:35|205:61|271:107|342:68,1,237.003795889241,2|0,2:0|2:0,2:0:0:0:
486,1,4399,1,2,2:0:0:0:
488,198,4705,6,0,P|455:192|426:189,1,47.648085044515,2|0,2:0|2:0,2:0:0:0:
375,258,5011,1,0,2:0:0:0:
375,258,5164,2,0,P|332:253|280:241,1,94.9870127556967,2|0,2:0|2:0,2:0:0:0:
217,170,5623,1,0,2:0:0:0:
217,170,5776,2,0,P|174:175|122:187,1,94.9870127556967,2|0,2:0|2:0,2:0:0:0:
50,251,6236,2,0,P|61:290|65:315,1,47.648085044515,2|0,2:0|2:0,2:0:0:0:
139,377,6542,2,0,P|150:338|154:313,1,47.648085044515,2|0,2:0|2:0,2:0:0:0:
233,262,6848,2,0,P|244:301|248:326,1,47.648085044515,2|0,2:0|3:2,0:0:0:0:
311,367,7077,1,0,3:2:0:0:
311,367,7154,6,0,P|321:324|451:316,1,189.66486817806,2|0,3:2|2:0,2:0:0:0:
479,384,7919,2,0,P|484:337|487:289,1,94.9870127556967,2|0,2:0|2:0,2:0:0:0:
497,186,8378,6,0,P|475:155|378:153,1,142.325940466878,2|0,2:0|2:0,2:0:0:0:
313,208,8991,2,0,P|245:220|195:174,1,142.325940466878,2|0,2:0|2:0,2:0:0:0:
90,92,9603,6,0,P|135:84|199:69,1,94.9870127556967,2|2,2:0|2:0,2:0:0:0:
288,55,10062,2,0,P|243:47|179:32,1,94.9870127556967,2|2,2:0|2:0,2:0:0:0:
92,5,10521,1,2,2:0:0:0:
92,5,10674,1,2,2:0:0:0:
46,107,10827,6,0,P|58:151|72:254,1,142.325940466878,2|0,2:0|2:0,2:0:0:0:
10,292,11440,2,0,B|58:267|113:298|80:314|136:354|195:320,1,189.66486817806,2|4,2:0|2:0,2:0:0:0:
441,134,12358,6,0,P|433:171|426:241,1,94.9870127556967,2|2,2:0|2:0,0:0:0:0:
426,227,13123,1,0,2:0:0:0:
351,175,13276,1,2,2:0:0:0:
351,175,13429,2,0,P|345:151|338:129,1,47.648085044515,2|0,2:0|2:0,2:0:0:0:
268,230,13736,2,0,P|256:272|249:336,2,94.83243408903,2|0|0,2:0|2:0|2:0,2:0:0:0:
217,142,14501,6,0,P|181:119|112:128,1,94.9870127556967,2|0,2:0|2:0,2:0:0:0:
52,179,14960,1,2,2:0:0:0:
52,179,15113,2,0,P|47:119|26:31,1,142.325940466878,2|0,2:0|2:0,2:0:0:0:
139,89,15725,1,2,2:0:0:0:
139,89,15878,2,0,P|170:82|194:69,1,47.648085044515,2|0,2:0|2:0,2:0:0:0:
292,37,16185,2,0,P|280:79|273:143,2,94.83243408903,2|0|0,2:0|2:0|2:0,2:0:0:0:
359,210,16950,6,0,P|326:177|226:185,2,142.171361800212,2|2|2,2:0|2:0|2:0,0:0:0:0:
415,298,18021,1,0,2:0:0:0:
485,241,18174,1,0,2:0:0:0:
485,241,18327,2,0,P|492:190|501:139,1,94.9870127556967,2|0,2:0|2:0,2:0:0:0:
399,65,18787,1,2,2:0:0:0:
399,65,18940,2,0,P|390:111|384:158,1,94.9870127556967,2|0,2:0|2:0,2:0:0:0:
298,280,19399,6,0,P|271:246|171:252,1,142.325940466878,2|2,2:0|2:0,2:0:0:0:
97,317,20011,2,0,P|71:307|45:300,1,47.648085044515,2|0,3:2|3:2,0:0:0:0:
135,152,20317,2,0,P|161:142|187:135,1,47.648085044515,0|2,3:2|2:0,0:0:0:0:
258,283,20623,5,10,2:0:0:0:
188,52,20776,1,8,2:3:0:0:
176,308,20929,1,4,2:3:0:0:
263,93,21083,1,4,2:3:0:0:
336,256,21236,1,8,2:0:0:0:
81,157,21389,1,8,2:0:0:0:
81,157,21848,6,0,P|91:206|98:252,1,84.300455856242,4|0,1:2|2:0,2:0:0:0:
233,358,22154,2,0,P|239:316|248:275,1,84.300455856242,10|0,2:0|2:0,2:0:0:0:
329,137,22460,1,2,1:2:0:0:
408,293,22613,1,8,1:3:0:0:
486,144,22766,2,0,P|480:102|471:61,1,84.300455856242,8|0,2:0|2:0,2:0:0:0:
350,239,23072,5,2,1:2:0:0:
255,84,23225,2,0,P|261:42|270:1,1,84.300455856242,6|8,1:3|2:0,0:0:0:0:
198,258,23532,2,0,P|157:273|106:260,1,84.300455856242,2|0,1:2|2:0,2:0:0:0:
46,74,23838,1,2,1:2:0:0:
208,146,23991,1,8,2:0:0:0:
31,319,24144,6,0,P|-5:284|24:162,1,168.053941045818,6|0,1:2|2:0,2:0:0:0:
154,47,24603,2,0,P|161:93|167:147,1,84.300455856242,10|0,2:0|2:0,2:0:0:0:
287,285,24909,2,0,P|291:243|298:202,1,84.300455856242,2|8,1:2|1:3,2:0:0:0:
373,40,25215,1,8,2:0:0:0:
467,198,25368,1,0,2:0:0:0:
289,110,25521,5,2,1:2:0:0:
463,39,25674,1,6,1:3:0:0:
375,213,25827,1,8,2:0:0:0:
238,35,25980,2,0,P|291:24|343:17,1,84.300455856242,2|0,1:2|2:0,2:0:0:0:
218,230,26287,2,0,P|165:219|113:212,1,84.300455856242,2|8,1:2|2:0,2:0:0:0:
0,29,26593,6,0,P|57:9|145:92,1,168.053941045818,6|0,1:2|1:2,2:0:0:0:
8,261,27052,2,0,P|5:209|-1:161,1,84.300455856242,8|0,2:0|0:0,2:0:0:0:
247,155,27358,1,0,1:2:0:0:
169,294,27511,1,8,1:3:0:0:
95,143,27664,2,0,P|98:91|104:43,1,84.300455856242,8|0,2:0|2:0,0:0:0:0:
284,270,27970,5,2,1:2:0:0:
109,352,28123,1,6,1:3:0:0:
164,183,28276,1,8,2:0:0:0:
292,373,28429,2,0,P|343:364|393:359,1,84.300455856242,2|0,1:2|2:0,2:0:0:0:
254,148,28736,1,10,1:3:0:0:
191,325,28889,2,0,P|140:316|90:311,1,84.300455856242,8|0,2:0|2:0,2:0:0:0:
359,98,29195,6,0,P|420:85|496:185,1,168.053941045818,6|8,1:2|2:0,2:0:0:0:
369,283,29654,1,2,1:2:0:0:
225,138,29807,2,0,P|164:125|88:225,1,168.053941045818,2|8,1:2|2:0,2:0:0:0:
215,311,30266,1,2,1:2:0:0:
349,132,30419,6,0,P|359:185|368:243,1,84.300455856242,14|0,2:0|2:0,2:0:0:0:
315,384,30725,2,2,P|353:377|372:374,3,42.1502279281209,8|0|0|0,1:2|1:2|1:2|1:2,2:0:0:0:
468,298,31032,1,10,1:2:0:0:
468,298,31108,1,0,1:2:0:0:
468,298,31185,2,0,P|447:294|421:288,1,41.8599985947876,0|0,1:2|1:2,1:2:0:0:
283,212,31338,1,8,1:2:0:0:
283,212,31414,1,8,1:2:0:0:
283,212,31491,2,0,P|322:205|344:202,1,41.8599985947876,8|8,1:2|1:2,0:0:0:0:
473,65,31644,6,0,P|463:118|454:176,1,84.300455856242,6|0,1:2|2:0,2:0:0:0:
330,323,31950,1,8,2:0:0:0:
262,133,32103,1,2,1:2:0:0:
357,242,32256,1,8,2:0:0:0:
148,158,32409,1,0,1:2:0:0:
333,64,32562,1,10,2:0:0:0:
254,252,32715,1,0,1:2:0:0:
90,77,32868,6,0,P|142:53|185:62,1,84.300455856242,14|0,2:0|2:0,2:0:0:0:
77,280,33174,2,0,P|35:279|0:258,1,84.300455856242,10|0,2:0|2:0,2:0:0:0:
237,175,33480,1,10,2:0:0:0:
154,323,33634,1,0,1:2:0:0:
43,111,33787,2,0,P|56:156|63:201,1,84.300455856242,10|0,2:0|2:0,2:0:0:0:
159,35,34093,6,0,B|215:17|262:49|222:64|279:98|332:73,1,168.053941045818,4|0,1:2|1:2,2:0:0:0:
410,17,34552,1,0,1:2:0:0:
419,179,34705,2,0,P|430:96|448:14,1,168.053941045818,8|0,2:0|1:2,2:0:0:0:
270,184,35164,6,0,P|228:207|178:202,1,84.300455856242,8|0,2:0|2:0,2:0:0:0:
35,142,35470,1,8,2:0:0:0:
90,268,35623,1,0,1:2:0:0:
134,72,35776,2,0,P|175:73|210:94,1,84.300455856242,4|0,1:2|2:0,2:0:0:0:
364,242,36083,2,0,P|320:230|223:325,1,168.053941045818,4|8,1:2|2:0,2:0:0:0:
380,375,36542,6,0,P|431:360|482:351,1,84.300455856242,6|0,1:2|2:0,2:0:0:0:
395,158,36848,1,8,2:0:0:0:
311,312,37001,1,2,1:2:0:0:
337,89,37154,1,8,2:0:0:0:
432,270,37307,1,0,1:2:0:0:
401,39,37460,1,10,2:0:0:0:
319,230,37613,1,0,1:2:0:0:
186,31,37766,6,0,P|240:19|293:14,1,84.300455856242,14|0,2:0|2:0,2:0:0:0:
153,240,38072,2,0,P|99:228|46:223,1,84.300455856242,10|0,2:0|2:0,2:0:0:0:
277,134,38378,1,2,1:2:0:0:
277,134,38455,1,0,1:2:0:0:
277,134,38532,1,4,1:3:0:0:
80,34,38685,2,0,P|90:86|98:145,1,84.300455856242,10|0,1:3|2:0,2:0:0:0:
196,311,38991,6,0,P|228:268|348:288,1,168.053941045818,4|0,1:2|2:0,2:0:0:0:
486,350,39450,1,0,1:2:0:0:
438,162,39603,2,0,P|423:232|401:357,1,168.053941045818,8|0,2:0|1:2,2:0:0:0:
275,170,40062,6,0,P|265:127|288:74,1,84.300455856242,8|0,2:0|1:2,0:0:0:0:
459,34,40368,1,8,2:0:0:0:
371,136,40521,1,8,2:0:0:0:
325,16,40674,2,0,P|288:-2|224:10,1,84.300455856242,4|0,1:2|2:0,2:0:0:0:
100,132,40980,1,0,1:2:0:0:
100,132,41057,1,0,1:0:0:0:
100,132,41134,2,0,L|91:58,3,41.8599985947876,10|0|0|0,2:0|1:0|1:0|1:0,2:0:0:0:
222,185,41440,6,0,P|198:246|188:359,1,168.053941045818,6|8,1:2|2:0,2:0:0:0:
33,198,41899,2,0,P|54:246|64:301,1,84.300455856242,2|0,2:0|1:2,2:0:0:0:
162,128,42205,1,8,1:3:0:0:
48,5,42358,2,0,P|27:53|17:108,1,84.300455856242,10|0,2:0|2:0,2:0:0:0:
196,249,42664,6,0,P|246:237|290:232,1,84.300455856242,2|0,1:2|2:0,2:0:0:0:
407,57,42970,2,0,P|357:45|313:40,1,84.300455856242,10|0,2:0|2:0,0:0:0:0:
381,276,43276,1,2,1:2:0:0:
465,152,43429,1,8,1:3:0:0:
234,98,43583,2,0,P|247:148|255:201,1,84.300455856242,10|0,2:0|2:0,2:0:0:0:
512,60,43889,6,0,P|480:22|358:42,1,168.053941045818,6|8,1:2|2:0,2:0:0:0:
481,169,44348,1,6,1:3:0:0:
322,113,44501,2,0,B|238:97|272:179|157:151,1,168.053941045818,2|8,1:2|2:0,2:0:0:0:
309,224,44960,1,2,1:2:0:0:
126,48,45113,6,0,P|138:102|146:150,1,84.300455856242,2|0,1:2|2:0,2:0:0:0:
255,316,45419,2,0,P|262:274|271:234,1,84.300455856242,10|0,2:0|2:0,2:0:0:0:
48,189,45725,1,2,1:2:0:0:
135,325,45878,1,8,1:3:0:0:
216,159,46032,2,0,P|260:141|322:145,1,84.300455856242,10|0,2:0|2:0,2:0:0:0:
447,353,46338,6,0,P|389:358|330:269,2,167.780455712484,4|8|0,1:2|2:0|1:2,2:0:0:0:
402,210,47103,1,8,1:3:0:0:
262,359,47256,2,0,P|253:302|244:257,1,84.300455856242,10|0,2:0|2:0,2:0:0:0:
452,148,47562,6,0,P|444:189|438:230,1,84.300455856242,10|0,1:2|1:2,0:0:0:0:
250,105,47868,2,0,P|300:80|343:88,1,84.300455856242,10|0,2:0|1:2,0:0:0:0:
244,286,48174,1,10,2:0:0:0:
143,150,48327,1,0,2:0:0:0:
328,213,48480,1,10,2:0:0:0:
158,327,48634,1,0,2:0:0:0:
247,112,48787,5,14,2:0:0:0:
327,361,48940,1,8,2:0:0:0:
332,379,49246,5,10,2:0:0:0:
441,152,49399,1,8,2:0:0:0:
453,140,49705,5,10,2:0:0:0:
187,207,49858,1,8,2:0:0:0:
424,364,50470,5,2,2:0:0:0:
424,364,50623,2,0,P|428:328|431:301,1,47.648085044515,2|0,2:0|2:0,2:0:0:0:
286,150,50929,6,0,P|265:203|314:280,1,126.450683784363,8|0,2:3|2:0,2:0:0:0:
316,293,51236,6,0,P|269:285|206:277,1,93.4635525665283,6|0,1:2|2:0,2:0:0:0:
53,309,51542,1,10,2:0:0:0:
173,166,51695,2,0,P|127:172|81:179,1,93.4635525665283,2|0,2:0|1:2,2:0:0:0:
280,71,52001,2,0,P|325:78|371:84,1,93.4635525665283,10|8,1:3|2:0,0:0:0:0:
252,227,52307,1,2,2:0:0:0:
177,27,52460,6,0,B|126:3|78:43|105:56|49:93|-4:61,1,186.320681133057,2|10,1:2|2:0,2:0:0:0:
144,215,52919,1,0,2:0:0:0:
265,67,53072,2,0,P|248:119|244:173,1,93.4635525665283,2|8,1:2|1:3,2:0:0:0:
322,321,53378,1,10,2:0:0:0:
405,189,53532,1,2,2:0:0:0:
236,373,53685,6,0,P|165:383|109:267,2,186.017469133057,0|8|0,1:2|2:0|1:2,2:0:0:0:
326,265,54450,1,10,1:3:0:0:
229,148,54603,2,0,P|180:148|131:178,1,93.4635525665283,10|0,2:0|2:0,2:0:0:0:
14,348,54909,5,0,1:2:0:0:
170,255,55062,1,4,1:3:0:0:
0,136,55215,2,0,P|15:190|22:247,1,93.4635525665283,8|0,2:0|2:0,2:0:0:0:
222,381,55521,1,2,1:2:0:0:
73,289,55674,1,4,1:3:0:0:
228,158,55827,2,0,P|213:212|206:269,1,93.4635525665283,10|0,2:0|2:0,2:0:0:0:
105,73,56134,6,0,P|148:28|275:52,1,186.320681133057,6|10,1:2|2:0,2:0:0:0:
361,206,56593,2,0,P|410:190|458:182,1,93.4635525665283,2|0,2:0|1:2,2:0:0:0:
344,0,56899,1,10,1:3:0:0:
275,176,57052,1,8,2:0:0:0:
454,76,57205,1,2,2:0:0:0:
456,314,57358,6,0,P|391:331|298:243,1,186.320681133057,0|10,1:2|2:0,2:0:0:0:
234,127,57817,1,0,2:0:0:0:
130,320,57970,2,0,P|121:266|102:201,1,93.4635525665283,2|8,1:2|1:3,2:0:0:0:
298,72,58276,2,0,P|286:116|279:162,1,93.4635525665283,10|0,2:0|2:0,2:0:0:0:
0,121,58583,6,0,P|29:61|162:68,1,186.320681133057,2|10,1:2|2:0,2:0:0:0:
263,244,59042,1,2,2:0:0:0:
86,169,59195,1,0,1:2:0:0:
234,69,59348,1,8,1:3:0:0:
153,280,59501,2,0,P|110:302|52:298,1,93.4635525665283,8|0,2:0|2:0,0:0:0:0:
283,143,59807,5,4,1:2:0:0:
226,331,59960,1,8,2:0:0:0:
347,71,60113,1,8,1:3:0:0:
415,294,60266,1,4,1:3:0:0:
234,69,60419,1,10,2:0:0:0:
452,169,60572,1,8,2:3:0:0:
249,264,60725,1,6,2:3:0:0:
365,103,60878,1,6,2:3:0:0:
461,330,61032,6,0,P|411:376|278:357,1,186.320681133057,6|8,1:2|2:0,2:0:0:0:
106,278,61491,1,2,2:0:0:0:
255,128,61644,2,0,P|273:181|264:238,1,93.4635525665283,2|8,1:2|1:3,2:0:0:0:
95,384,61950,2,0,P|77:331|86:274,1,93.4635525665283,10|0,2:0|2:0,2:0:0:0:
268,44,62256,6,0,B|172:23|205:126|80:82,1,186.320681133057,2|8,1:2|2:0,2:0:0:0:
198,223,62715,1,2,2:0:0:0:
4,49,62868,2,0,P|13:100|21:165,1,93.4635525665283,2|8,1:2|1:3,0:0:0:0:
224,308,63174,2,0,P|230:262|238:216,1,93.4635525665283,10|0,2:0|0:0,2:0:0:0:
4,347,63480,6,0,P|31:294|162:302,1,186.320681133057,6|10,1:2|2:0,2:0:0:0:
268,382,63940,2,0,P|323:361|375:349,1,93.4635525665283,2|0,2:0|1:2,2:0:0:0:
469,221,64246,2,0,P|414:200|362:188,1,93.4635525665283,10|8,1:3|2:0,2:0:0:0:
224,262,64552,1,2,2:0:0:0:
263,46,64705,6,0,P|277:107|289:173,1,93.4635525665283,2|0,1:2|2:0,2:0:0:0:
77,290,65011,2,0,P|86:244|96:199,1,93.4635525665283,10|0,2:0|2:0,2:0:0:0:
271,314,65317,1,2,1:2:0:0:
192,113,65470,1,8,1:3:0:0:
134,350,65623,2,0,P|80:339|41:334,1,93.4635525665283,10|0,2:0|2:0,2:0:0:0:
292,187,65929,6,0,P|350:190|395:309,1,186.320681133057,6|10,1:2|2:0,2:0:0:0:
158,242,66389,1,2,2:0:0:0:
274,93,66542,1,0,1:2:0:0:
308,276,66695,1,8,1:3:0:0:
159,101,66848,2,0,P|101:108|39:121,1,93.4635525665283,8|0,2:0|2:0,2:0:0:0:
149,313,67154,5,0,1:2:0:0:
249,130,67307,1,8,2:0:0:0:
297,361,67460,1,0,1:2:0:0:
113,199,67613,1,8,2:0:0:0:
354,180,67766,1,8,2:3:0:0:
193,326,67919,1,4,2:3:0:0:
140,73,68072,2,0,P|196:79|244:88,1,93.4635525665283,6|0,2:3|2:0,2:0:0:0:
424,332,68378,6,0,P|368:338|320:347,1,93.4635525665283,6|0,1:2|2:0,2:0:0:0:
338,78,68685,1,8,2:0:0:0:
239,303,68838,1,0,1:2:0:0:
219,41,68991,1,10,2:0:0:0:
325,264,69144,1,0,1:2:0:0:
292,0,69297,1,10,2:0:0:0:
191,231,69450,1,2,1:2:0:0:
51,31,69603,6,0,B|-1:100|39:187|75:141|119:223|43:303,1,284.342723600423,4|0,1:2|2:0,2:0:0:0:
54,290,70827,6,0,P|109:297|146:305,1,76.7202776672364,6|0,2:0|2:0,2:0:0:0:
197,359,71287,2,0,P|234:352|272:347,1,76.7202776672364,2|0,2:0|2:0,2:0:0:0:
343,285,71746,1,2,2:0:0:0:
343,285,72052,6,0,P|348:238|353:202,1,76.7202776672364,2|0,2:0|2:0,2:0:0:0:
426,145,72511,2,0,P|421:98|416:62,1,76.7202776672364,2|0,2:0|2:0,2:0:0:0:
342,18,72970,1,2,2:0:0:0:
342,18,73276,6,0,L|295:7,2,38.3601388336182,2|0|0,2:0|2:0|2:0,0:0:0:0:
267,110,73736,2,0,L|176:123,1,76.7202776672364,2|2,2:0|2:0,0:0:0:0:
125,189,74195,1,0,2:0:0:0:
55,135,74348,1,0,2:0:0:0:
21,222,74501,6,0,L|46:350,2,114.830712500855,2|2|2,2:0|2:0|2:0,2:0:0:0:
206,343,75725,6,0,P|250:370|305:363,1,94.9870127556967,2|0,2:0|2:0,2:0:0:0:
375,308,76185,2,0,P|381:265|398:215,2,94.83243408903,2|2|2,2:0|2:0|2:0,2:0:0:0:
304,210,76950,6,0,P|299:165|277:100,1,94.9870127556967,0|2,2:0|2:0,0:0:0:0:
118,39,77562,2,0,P|104:84|98:131,1,94.9870127556967,2|2,2:0|2:0,2:0:0:0:
215,259,78174,6,0,P|159:262|117:295,1,94.9870127556967,2|2,2:0|2:0,0:0:0:0:
46,372,78634,2,0,P|41:318|21:216,1,142.325940466878,2|0,2:0|3:2,2:0:0:0:
25,231,79399,5,4,1:2:0:0:
132,37,79552,1,8,2:0:0:0:
223,271,79705,1,8,2:0:0:0:
107,64,79858,1,4,1:3:0:0:
134,307,80011,5,10,2:0:0:0:
237,95,80164,1,8,2:3:0:0:
320,359,80317,1,6,2:3:0:0:
180,153,80470,1,6,2:3:0:0:
397,275,80623,6,0,P|456:250|442:123,1,186.320681133057,6|8,1:2|2:0,2:0:0:0:
367,31,81083,1,2,2:0:0:0:
273,188,81236,2,0,P|221:175|159:165,1,93.4635525665283,2|8,1:2|1:3,0:0:0:0:
380,53,81542,2,0,P|432:40|494:30,1,93.4635525665283,10|0,2:0|2:0,2:0:0:0:
276,293,81848,6,0,P|196:274|85:256,1,186.320681133057,2|8,1:2|2:0,2:0:0:0:
211,88,82307,1,2,2:0:0:0:
33,161,82460,1,2,1:2:0:0:
197,252,82613,1,8,1:3:0:0:
134,19,82766,2,0,P|123:79|113:125,1,93.4635525665283,10|0,2:0|0:0,2:0:0:0:
352,273,83072,6,0,P|342:227|334:181,1,93.4635525665283,6|0,1:2|2:0,2:0:0:0:
137,354,83378,1,10,2:0:0:0:
204,125,83532,2,0,P|213:79|221:33,1,93.4635525665283,2|0,2:0|1:2,2:0:0:0:
322,301,83838,1,10,1:3:0:0:
116,206,83991,1,8,2:0:0:0:
313,108,84144,1,2,2:0:0:0:
205,331,84297,6,0,P|153:320|94:313,1,93.4635525665283,2|0,1:2|2:0,2:0:0:0:
337,135,84603,2,0,P|382:128|428:118,1,93.4635525665283,10|0,2:0|2:0,2:0:0:0:
303,346,84909,1,2,1:2:0:0:
193,173,85062,1,8,2:3:0:0:
432,232,85215,2,0,P|416:292|407:338,1,93.4635525665283,10|0,2:0|2:0,2:0:0:0:
259,134,85521,6,0,P|295:68|426:84,1,186.320681133057,6|10,1:2|2:0,2:0:0:0:
241,289,85980,1,2,2:0:0:0:
137,83,86134,1,0,1:2:0:0:
345,173,86287,1,8,1:3:0:0:
118,313,86440,2,0,P|107:250|98:194,1,93.4635525665283,8|0,2:0|2:0,2:0:0:0:
401,89,86746,6,0,P|393:134|385:180,1,93.4635525665283,0|4,1:2|1:3,0:0:0:0:
162,58,87052,2,0,P|202:35|262:40,1,93.4635525665283,8|0,2:0|2:0,2:0:0:0:
341,268,87358,1,0,1:2:0:0:
138,158,87511,1,8,1:3:0:0:
355,13,87664,6,0,P|363:58|371:104,1,93.4635525665283,10|0,2:0|2:0,2:0:0:0:
220,343,87970,2,0,P|227:297|236:251,1,93.4635525665283,2|0,1:2|2:0,2:0:0:0:
176,42,88276,1,8,2:0:0:0:
102,278,88429,1,0,1:2:0:0:
262,82,88583,1,8,2:0:0:0:
330,328,88736,1,0,1:2:0:0:
125,118,88889,2,0,P|132:161|141:209,1,93.4635525665283,10|0,2:0|2:0,2:0:0:0:
374,177,89195,5,2,1:2:0:0:
200,319,89348,1,2,1:2:0:0:
387,174,89501,1,8,1:3:0:0:
197,71,89654,1,10,2:0:0:0:
197,71,89730,1,8,2:0:0:0:
197,71,89807,1,8,2:0:0:0:
294,283,89960,1,10,2:0:0:0:
464,58,90266,5,2,2:0:0:0:
