osu file format v14

[General]
AudioFilename: audio.mp3
AudioLeadIn: 0
PreviewTime: 50394
Countdown: 0
SampleSet: Soft
StackLeniency: 0.6
Mode: 0
LetterboxInBreaks: 0
WidescreenStoryboard: 1

[Editor]
DistanceSpacing: 0.8
BeatDivisor: 4
GridSize: 16
TimelineZoom: 3.199999

[Metadata]
Title:courage (TV Size)
TitleUnicode:courage (TV Size)
Artist:Tomatsu Haruka
ArtistUnicode:戸松遥
Creator:Sotarks
Version:NiNo's Insane
Source:ソードアート・オンラインⅡ
Tags:sword art online anime opening op kirito asuna yuki 2nd japanese female vocalist sao kowari snownino_ reform kujinn basensorex
BeatmapID:2479455
BeatmapSetID:1182742

[Difficulty]
HPDrainRate:5
CircleSize:4
OverallDifficulty:8
ApproachRate:9
SliderMultiplier:1.8
SliderTickRate:1

[Events]
//Background and Video events
0,0,"bg.jpg",0,0
Video,919,"video.mp4"
//Break Periods
//Storyboard Layer 0 (Background)
//Storyboard Layer 1 (Fail)
//Storyboard Layer 2 (Pass)
//Storyboard Layer 3 (Foreground)
//Storyboard Layer 4 (Overlay)
//Storyboard Sound Samples

[TimingPoints]
1032,306.122448979592,4,2,2,40,1,0
2256,-133.333333333333,4,2,22,42,0,0
3327,-266.666666666667,4,2,22,42,0,0
4705,-133.333333333333,4,2,22,42,0,0
20623,-100,4,2,22,52,0,0
21848,-100,4,2,22,62,0,0
50470,-100,4,2,22,42,0,0
50623,-100,4,2,22,52,0,0
50929,-200,4,2,22,62,0,0
51158,-200,4,2,22,5,0,0
51236,-100,4,2,22,72,0,1
69603,-100,4,2,22,82,0,0
70521,-100,4,2,22,62,0,0
70827,-133.333333333333,4,2,22,52,0,0
79399,-100,4,2,22,72,0,0
80623,-100,4,2,22,82,0,1
89960,-166.666666666667,4,2,22,82,0,0

[Colours]
Combo1 : 191,105,203
Combo2 : 142,75,216
Combo3 : 222,54,54

[HitObjects]
116,150,2256,6,0,P|137:88|138:11,1,135.000005149842,2|0,2:0|2:0,2:0:0:0:
143,242,2715,2,0,P|192:198|231:132,1,135.000005149842,2|0,2:0|2:0,2:0:0:0:
53,269,3174,1,0,2:0:0:0:
120,335,3327,6,0,P|184:322|275:258,1,168.750006437302,2|0,2:0|2:0,2:0:0:0:
311,182,4399,1,2,2:0:0:0:
178,167,4705,6,0,P|163:119|155:27,1,135.000005149842,2|0,2:0|2:0,2:0:0:0:
45,120,5164,2,0,P|40:187|21:252,1,135.000005149842,2|0,2:0|2:0,2:0:0:0:
32,355,5623,1,0,2:0:0:0:
114,262,5776,2,0,P|126:305|127:336,1,67.5000025749208,2|0,2:0|0:0,2:0:0:0:
210,375,6083,6,0,P|222:332|223:301,2,67.5000025749208,0|2|0,2:0|2:0|2:0,0:0:0:0:
306,254,6542,2,0,P|318:297|319:328,1,67.5000025749208,2|0,2:0|2:0,2:0:0:0:
402,367,6848,2,0,P|414:324|415:293,1,67.5000025749208,2|0,2:0|3:2,0:0:0:0:
485,229,7154,6,0,B|426:171|464:89|464:89|414:136|338:115,1,270.000010299683,2|0,3:2|2:0,2:0:0:0:
162,91,8378,6,0,B|221:149|182:230|182:230|233:184|309:205,1,270.000010299683,2|2,2:0|2:0,2:0:0:0:
382,312,9603,6,0,P|378:279|390:175,1,135.000005149842,2|2,2:0|2:0,2:0:0:0:
263,110,10062,2,0,P|274:176|270:243,1,135.000005149842,2|2,2:0|2:0,2:0:0:0:
195,302,10521,1,2,2:0:0:0:
166,219,10674,1,2,2:0:0:0:
91,278,10827,6,0,P|79:211|83:144,1,135.000005149842,2|0,2:0|0:0,2:0:0:0:
357,81,11440,2,0,P|368:147|364:214,1,135.000005149842,2|0,2:0|0:0,2:0:0:0:
256,352,12052,5,4,2:0:0:0:
256,352,12358,2,0,L|107:340,1,135.000005149842,2|2,2:0|2:0,0:0:0:0:
331,277,13123,2,0,L|405:271,2,67.5000025749208,0|2|2,2:0|2:0|2:0,0:0:0:0:
48,151,13736,2,0,P|63:116|69:83,1,67.5000025749208,2|0,2:0|0:0,2:0:0:0:
162,88,14042,2,0,P|147:53|141:20,1,67.5000025749208,0|0,2:0|0:0,0:0:0:0:
228,144,14348,1,0,2:0:0:0:
228,144,14501,5,2,2:0:0:0:
431,96,14807,2,0,L|426:178,2,67.5000025749208,0|2|2,2:0|2:0|2:0,0:0:0:0:
228,351,15572,1,0,2:0:0:0:
228,351,15725,1,2,2:0:0:0:
306,309,15878,2,0,L|301:241,1,67.5000025749208,2|0,2:0|2:0,2:0:0:0:
253,149,16185,2,0,L|263:6,2,135.000005149842,2|0|0,2:0|2:0|2:0,2:0:0:0:
179,203,16950,6,0,B|155:165|155:165|55:174,1,135.000005149842,2|0,2:0|0:0,0:0:0:0:
140,284,17409,2,0,B|116:246|116:246|16:255,1,135.000005149842,2|0,2:0|0:0,0:0:0:0:
101,365,17868,1,2,2:0:0:0:
101,365,18021,2,0,L|17:373,2,67.5000025749208,0|0|2,2:0|2:0|2:0,0:0:0:0:
269,243,18634,2,0,P|243:301|237:373,1,135.000005149842,0|2,2:0|2:0,0:0:0:0:
408,230,19399,6,0,P|402:163|375:101,1,135.000005149842,2|0,2:0|2:0,2:0:0:0:
313,31,19858,1,2,2:0:0:0:
226,68,20011,2,0,P|220:134|193:196,1,135.000005149842,2|0,3:2|3:2,0:0:0:0:
103,219,20470,1,2,2:0:0:0:
222,283,20623,6,0,P|259:274|321:271,1,90,10|8,2:0|2:3,0:0:0:0:
410,277,20929,1,4,2:3:0:0:
356,359,21083,1,4,2:3:0:0:
355,183,21236,1,8,2:0:0:0:
492,331,21389,1,8,2:0:0:0:
481,174,21542,2,0,P|488:120|486:77,1,90
321,27,21848,6,0,P|376:37|423:32,1,90,4|0,1:2|2:0,2:0:0:0:
266,109,22154,2,0,P|221:107|177:116,1,90,10|0,2:0|2:0,2:0:0:0:
61,114,22460,2,0,P|78:164|87:303,1,180,2|8,1:2|2:0,0:0:0:0:
173,353,22919,1,0,2:0:0:0:
180,232,23072,5,2,1:2:0:0:
268,332,23225,2,0,P|282:279|283:239,1,90,6|8,1:3|2:0,0:0:0:0:
381,185,23532,2,0,P|383:229|396:272,1,90,2|0,1:2|2:0,2:0:0:0:
296,133,23838,2,0,P|242:116|200:117,1,90,2|8,1:2|2:0,0:0:0:0:
36,58,24144,6,0,P|88:51|230:-2,1,180,6|0,1:2|2:0,2:0:0:0:
107,139,24603,1,10,2:0:0:0:
66,242,24756,1,0,2:0:0:0:
138,306,24909,2,0,P|191:327|230:328,1,90,2|8,1:2|1:3,2:0:0:0:
307,233,25215,2,0,P|254:212|215:211,1,90,8|0,2:0|2:0,0:0:0:0:
348,339,25521,5,2,1:2:0:0:
426,239,25674,2,0,P|439:180|440:134,1,90,6|8,1:3|2:0,0:0:0:0:
314,28,25980,2,0,P|317:72|328:116,1,90,2|0,1:2|2:0,2:0:0:0:
307,233,26287,1,2,1:2:0:0:
223,127,26440,1,8,2:0:0:0:
202,244,26593,6,0,P|154:218|28:197,1,180,6|0,1:2|1:2,2:0:0:0:
180,354,27052,2,0,P|234:347|275:327,1,90,8|0,2:0|0:0,2:0:0:0:
399,271,27358,1,0,1:2:0:0:
368,363,27511,1,8,1:3:0:0:
491,271,27664,2,0,P|505:320|506:364,1,90,8|0,2:0|2:0,0:0:0:0:
439,187,27970,5,2,1:2:0:0:
387,103,28123,2,0,P|373:54|372:10,1,90,6|8,1:3|2:0,0:0:0:0:
193,60,28429,2,0,P|252:71|291:71,1,90,2|0,1:2|2:0,2:0:0:0:
309,172,28736,2,0,P|256:170|123:196,1,180,10|0,1:3|2:0,0:0:0:0:
29,258,29195,6,0,P|39:201|40:57,1,180,6|8,1:2|2:0,2:0:0:0:
122,23,29654,1,2,1:2:0:0:
185,97,29807,2,0,P|239:83|367:85,1,180,2|8,1:2|2:0,2:0:0:0:
447,143,30266,1,2,1:2:0:0:
255,166,30419,6,0,P|271:206|280:266,1,90,14|0,2:0|2:0,2:0:0:0:
369,351,30725,1,8,1:2:0:0:
371,328,30801,1,0,1:2:0:0:
376,306,30878,1,0,1:2:0:0:
384,285,30954,1,0,1:2:0:0:
393,264,31032,2,0,P|405:241|419:223,3,45,10|0|0|0,1:2|1:2|1:2|1:2,1:2:0:0:
318,226,31338,2,0,P|317:200|320:177,3,45,8|8|8|8,1:2|1:2|1:2|1:2,0:0:0:0:
234,230,31644,6,0,P|193:207|126:210,1,90,6|0,1:2|2:0,2:0:0:0:
26,266,31950,2,0,P|67:289|134:286,1,90,8|2,2:0|1:2,0:0:0:0:
115,72,32256,1,8,2:0:0:0:
70,171,32409,1,0,1:2:0:0:
196,105,32562,1,10,2:0:0:0:
151,204,32715,1,0,1:2:0:0:
277,138,32868,6,0,L|273:35,1,90,14|0,2:0|2:0,2:0:0:0:
370,212,33174,2,0,L|366:315,1,90,10|0,2:0|2:0,2:0:0:0:
374,117,33480,2,0,L|370:14,1,90,10|0,2:0|1:2,0:0:0:0:
467,191,33786,2,0,L|463:294,1,90,10|0,2:0|2:0,2:0:0:0:
378,358,34093,6,0,P|308:325|191:329,1,180,4|0,1:2|1:2,2:0:0:0:
104,347,34552,1,0,1:2:0:0:
46,257,34705,2,0,P|48:210|40:68,1,180,8|0,2:0|1:2,2:0:0:0:
153,126,35164,2,0,P|163:77|163:27,1,90,8|0,2:0|2:0,2:0:0:0:
251,16,35470,5,8,2:0:0:0:
276,100,35623,1,0,1:2:0:0:
391,17,35776,2,0,P|389:61|380:105,1,90,4|0,1:2|2:0,2:0:0:0:
287,278,36083,2,0,P|277:234|277:86,1,180,4|8,1:2|2:0,2:0:0:0:
182,147,36542,6,0,P|138:122|76:109,1,90,6|0,1:2|2:0,2:0:0:0:
35,239,36848,2,0,P|79:264|141:277,1,90,8|2,2:0|1:2,0:0:0:0:
242,226,37154,1,8,2:0:0:0:
207,357,37307,1,0,1:2:0:0:
322,238,37460,1,10,2:0:0:0:
287,369,37613,1,0,1:2:0:0:
420,249,37766,6,0,P|410:200|388:157,1,90,14|0,2:0|2:0,2:0:0:0:
262,44,38072,2,0,P|272:93|294:136,1,90,10|0,2:0|2:0,2:0:0:0:
245,283,38378,2,0,P|235:234|213:191,1,90,2|4,1:2|1:3,0:0:0:0:
87,78,38684,2,0,P|97:127|119:170,1,90,10|0,1:3|2:0,2:0:0:0:
67,299,38991,6,0,P|130:282|270:288,1,180,4|0,1:2|2:0,2:0:0:0:
321,351,39450,1,0,1:2:0:0:
375,206,39603,2,0,B|413:245|413:324|413:324|423:285|458:266,1,180,8|0,2:0|1:2,2:0:0:0:
434,131,40062,2,0,P|390:113|339:116,1,90,8|0,2:0|1:2,0:0:0:0:
264,176,40368,5,8,2:0:0:0:
237,85,40521,1,8,2:0:0:0:
161,228,40674,2,0,P|147:174|148:131,1,90,4|0,1:2|2:0,2:0:0:0:
352,305,40980,1,0,1:2:0:0:
359,283,41056,1,0,1:0:0:0:
364,261,41133,1,10,2:0:0:0:
366,239,41209,1,0,1:0:0:0:
366,217,41287,2,0,P|363:186|356:157,1,45,0|0,1:0|1:0,0:0:0:0:
340,18,41440,6,0,P|383:36|435:43,1,90,6|0,1:2|0:0,2:0:0:0:
237,85,41746,2,0,P|194:67|142:60,1,90,8|2,2:0|2:0,0:0:0:0:
87,188,42052,1,0,1:2:0:0:
49,102,42205,1,8,1:3:0:0:
201,176,42358,2,0,P|176:229|167:278,1,90,10|0,2:0|2:0,2:0:0:0:
372,330,42664,6,0,P|369:271|257:258,1,180,2|10,1:2|2:0,2:0:0:0:
236,333,43123,1,0,2:0:0:0:
141,354,43276,2,0,P|89:344|50:325,1,90,2|8,1:2|1:3,0:0:0:0:
31,206,43583,2,0,P|83:216|122:235,1,90,10|0,2:0|2:0,2:0:0:0:
255,67,43889,6,0,P|226:121|210:245,1,180,6|8,1:2|2:0,2:0:0:0:
236,333,44348,1,6,1:3:0:0:
421,144,44501,2,0,P|368:176|293:275,1,180,2|8,1:2|2:0,2:0:0:0:
231,347,44960,1,2,1:2:0:0:
451,341,45113,6,0,P|389:342|340:359,1,90,2|0,1:2|2:0,2:0:0:0:
260,231,45419,2,0,P|303:240|348:240,1,90,10|0,2:0|2:0,2:0:0:0:
481,121,45725,2,0,P|464:166|456:217,1,90,2|8,1:2|1:3,0:0:0:0:
351,113,46032,2,0,P|342:68|326:26,1,90,10|0,2:0|2:0,2:0:0:0:
82,58,46338,6,0,P|131:74|274:85,1,180,4|8,1:2|2:0,2:0:0:0:
280,178,46797,1,0,2:0:0:0:
191,272,46950,2,0,P|182:225|182:180,1,90,0|8,1:2|1:3,0:0:0:0:
318,277,47256,2,0,P|317:321|308:366,1,90,10|0,2:0|2:0,2:0:0:0:
102,282,47562,6,0,P|151:272|202:272,1,90,10|0,1:2|1:2,0:0:0:0:
368,188,47868,2,0,P|323:186|279:177,1,90,10|0,2:0|1:2,0:0:0:0:
206,79,48174,1,10,2:0:0:0:
172,183,48327,1,0,2:0:0:0:
98,34,48480,2,0,P|83:84|81:138,1,90,10|0,2:0|2:0,2:0:0:0:
383,41,48787,5,14,2:0:0:0:
206,79,48940,1,8,2:0:0:0:
206,79,49246,5,10,2:0:0:0:
435,150,49399,1,8,2:0:0:0:
435,150,49705,5,10,2:0:0:0:
194,248,49858,1,8,2:0:0:0:
194,248,50929,6,0,L|190:193,1,45,8|0,2:3|0:0,2:0:0:0:
63,119,51236,6,0,P|85:164|104:298,1,180,6|10,1:2|2:0,2:0:0:0:
211,358,51695,1,2,2:0:0:0:
194,248,51848,1,0,1:2:0:0:
305,340,52001,2,0,P|325:285|327:240,1,90,10|8,1:3|2:0,0:0:0:0:
298,149,52307,1,2,2:0:0:0:
432,263,52460,6,0,P|453:211|456:65,2,180,2|10|2,1:2|2:0|1:2,2:0:0:0:
282,152,53225,1,8,1:3:0:0:
366,99,53378,2,0,P|353:48|339:12,1,90,10|2,2:0|2:0,0:0:0:0:
88,26,53685,6,0,P|135:47|276:58,1,180,0|8,1:2|2:0,2:0:0:0:
282,152,54144,1,0,0:0:0:0:
152,136,54297,2,0,P|131:184|123:233,1,90,0|10,1:2|1:3,0:0:0:0:
250,328,54603,2,0,P|240:284|221:243,1,90,10|0,2:0|2:0,2:0:0:0:
85,73,54909,6,0,P|60:113|35:251,1,180,0|8,1:2|2:0,0:0:0:0:
140,337,55368,1,0,2:0:0:0:
174,211,55521,1,2,1:2:0:0:
247,336,55674,1,4,1:3:0:0:
309,222,55827,2,0,P|328:273|337:321,1,90,10|0,2:0|2:0,2:0:0:0:
483,184,56134,6,0,P|464:239|446:378,1,180,6|10,1:2|2:0,2:0:0:0:
386,140,56593,2,0,P|376:96|359:54,1,90,2|0,2:0|1:2,2:0:0:0:
309,222,56899,1,10,1:3:0:0:
194,128,57052,2,0,P|243:112|293:109,1,90,8|2,2:0|2:0,0:0:0:0:
103,223,57358,6,0,P|91:176|83:36,2,180,0|10|2,1:2|2:0|1:2,2:0:0:0:
24,303,58123,1,8,1:3:0:0:
199,281,58276,2,0,P|200:234|213:181,1,90,10|0,2:0|2:0,2:0:0:0:
461,276,58583,6,0,P|415:254|288:244,1,180,2|10,1:2|2:0,2:0:0:0:
271,125,59042,2,0,P|334:123|369:111,1,90,2|0,2:0|1:2,0:0:0:0:
231,14,59348,1,8,1:3:0:0:
138,108,59501,2,0,P|152:151|159:204,1,90,8|0,2:0|2:0,0:0:0:0:
150,323,59807,5,4,1:2:0:0:
271,211,59960,1,8,2:0:0:0:
262,338,60113,1,8,1:3:0:0:
159,196,60266,1,4,1:3:0:0:
354,278,60419,2,0,P|403:272|445:259,1,90,10|8,2:0|2:3,0:0:0:0:
327,81,60725,1,6,2:3:0:0:
271,211,60878,1,6,2:3:0:0:
215,84,61032,6,0,P|161:64|26:65,1,180,6|8,1:2|2:0,2:0:0:0:
24,182,61491,1,2,2:0:0:0:
143,251,61644,2,0,P|157:204|160:157,1,90,2|8,1:2|1:3,2:0:0:0:
11,276,61950,2,0,P|14:320|28:363,1,90,10|0,2:0|2:0,2:0:0:0:
224,309,62256,6,0,P|244:258|253:125,1,180,2|8,1:2|2:0,2:0:0:0:
184,60,62715,1,2,2:0:0:0:
352,156,62868,2,0,P|376:112|386:64,1,90,2|8,1:2|1:3,0:0:0:0:
130,139,63174,2,0,P|141:182|163:221,1,90,10|0,2:0|0:0,2:0:0:0:
293,323,63480,6,0,P|281:279|259:240,1,90,6|0,1:2|2:0,2:0:0:0:
149,335,63787,1,10,2:0:0:0:
60,212,63940,2,0,P|38:251|26:294,1,90,2|0,2:0|1:2,0:0:0:0:
217,142,64246,2,0,P|205:98|183:59,1,90,10|8,1:3|2:0,0:0:0:0:
162,228,64552,1,2,2:0:0:0:
316,199,64705,6,0,P|327:155|328:110,1,90,2|0,1:2|2:0,0:0:0:0:
69,213,65011,2,0,P|57:256|56:301,1,90,10|0,2:0|2:0,0:0:0:0:
134,96,65317,2,0,P|85:77|33:68,1,90,2|8,1:2|1:3,0:0:0:0:
238,298,65623,2,0,P|287:317|339:326,1,90,10|0,2:0|2:0,0:0:0:0:
160,212,65929,6,0,P|220:198|330:139,1,180,6|10,1:2|2:0,2:0:0:0:
510,138,66389,1,2,2:0:0:0:
408,109,66542,1,0,1:2:0:0:
512,38,66695,1,8,1:3:0:0:
410,9,66848,2,0,P|348:16|305:29,1,90,8|0,2:0|2:0,2:0:0:0:
104,64,67154,6,0,P|160:75|299:145,1,180,0|0,1:2|1:2,0:0:0:0:
323,224,67613,1,8,2:0:0:0:
408,109,67766,2,0,P|422:159|424:208,1,90,8|4,2:3|2:3,0:0:0:0:
210,293,68072,2,0,P|213:248|226:205,1,90,6|0,2:3|2:0,2:0:0:0:
470,300,68378,6,0,P|428:316|283:324,1,180,6|8,1:2|2:0,2:0:0:0:
193,304,68838,1,0,1:2:0:0:
256,135,68991,2,0,P|264:180|268:225,1,90,10|0,2:0|1:2,0:0:0:0:
179,315,69297,1,10,2:0:0:0:
150,174,69450,1,2,1:2:0:0:
48,352,69603,5,4,1:2:0:0:
48,352,70062,1,2,0:0:0:0:
7,251,70215,2,0,P|23:209|26:159,1,90,2|0,0:0|0:0,0:0:0:0:
109,108,70521,2,0,P|93:66|90:16,1,90,2|0,2:0|0:0,0:0:0:0:
190,18,70827,6,0,P|229:28|326:23,1,135.000005149842,6|0,2:0|2:0,2:0:0:0:
425,15,71287,1,2,2:0:0:0:
425,15,71593,2,0,P|409:50|391:149,1,135.000005149842,0|0,2:0|0:0,0:0:0:0:
302,172,72052,2,0,P|318:207|336:306,2,135.000005149842,2|0|0,2:0|2:0|0:0,2:0:0:0:
302,172,72970,1,2,2:0:0:0:
302,172,73123,1,0,0:0:0:0:
226,126,73276,6,0,P|189:119|150:118,2,67.5000025749208,2|0|0,2:0|2:0|2:0,0:0:0:0:
222,219,73736,2,0,P|202:275|194:349,1,135.000005149842,2|2,2:0|2:0,0:0:0:0:
274,337,74195,2,0,P|279:295|289:262,1,67.5000025749208,0|0,2:0|2:0,0:0:0:0:
366,231,74501,5,2,2:0:0:0:
366,231,75113,2,0,P|409:227|436:230,1,67.5000025749208,0|0,0:0|2:0,0:0:0:0:
429,141,75419,2,0,P|395:143|361:139,1,67.5000025749208,2|0,2:0|0:0,0:0:0:0:
258,91,75725,6,0,P|276:139|284:243,1,135.000005149842,2|0,2:0|2:0,2:0:0:0:
210,311,76185,2,0,P|192:263|184:159,2,135.000005149842,2|2|2,2:0|2:0|2:0,2:0:0:0:
291,344,76950,5,0,2:0:0:0:
291,344,77256,2,0,P|338:336|368:337,1,67.5000025749208,2|0,2:0|2:0,2:0:0:0:
459,318,77562,2,0,P|428:281|414:254,1,67.5000025749208,2|0,2:0|2:0,2:0:0:0:
353,186,77868,2,0,P|336:230|320:256,1,67.5000025749208,2|0,2:0|2:0,2:0:0:0:
234,282,78174,6,0,P|233:235|205:136,1,135.000005149842,2|2,2:0|2:0,0:0:0:0:
115,153,78634,2,0,P|116:106|144:7,1,135.000005149842,2|0,2:0|0:0,2:0:0:0:
303,47,79093,2,0,P|266:58|225:63,1,67.5000025749208,0|0,3:2|0:0,0:0:0:0:
137,21,79399,5,4,1:2:0:0:
193,146,79552,1,8,2:0:0:0:
93,105,79705,1,8,2:0:0:0:
237,62,79858,1,4,1:3:0:0:
107,197,80011,2,0,P|61:197|14:187,1,90,10|8,2:0|2:3,0:0:0:0:
193,146,80317,1,6,2:3:0:0:
158,283,80470,1,6,2:3:0:0:
244,232,80623,6,0,P|295:217|442:216,1,180,6|8,1:2|2:0,2:0:0:0:
472,299,81083,1,2,2:0:0:0:
477,126,81236,2,0,P|428:113|381:113,1,90,2|8,1:2|1:3,0:0:0:0:
284,33,81542,2,0,P|328:31|372:19,1,90,10|0,2:0|2:0,2:0:0:0:
177,7,81848,6,0,P|156:52|134:197,1,180,2|8,1:2|2:0,2:0:0:0:
170,290,82307,1,2,2:0:0:0:
232,151,82460,2,0,P|282:136|338:130,1,90,2|8,1:2|1:3,2:0:0:0:
387,294,82766,2,0,P|342:287|299:273,1,90,10|0,2:0|0:0,2:0:0:0:
463,176,83072,6,0,P|485:240|504:365,1,180,6|10,1:2|2:0,2:0:0:0:
319,130,83532,2,0,P|327:75|341:32,1,90,2|0,2:0|1:2,2:0:0:0:
236,223,83838,2,0,P|248:266|254:310,1,90,10|8,1:3|2:0,0:0:0:0:
163,354,84144,1,2,2:0:0:0:
12,167,84297,6,0,P|68:144|214:135,2,180,2|10|2,1:2|2:0|1:2,2:0:0:0:
19,289,85062,1,8,2:3:0:0:
135,328,85215,2,0,P|149:271|149:219,1,90,10|0,2:0|2:0,2:0:0:0:
307,108,85521,6,0,P|276:151|252:280,1,180,6|10,1:2|2:0,2:0:0:0:
389,365,85980,2,0,P|374:307|355:270,1,90,2|0,2:0|1:2,0:0:0:0:
251,273,86287,1,8,1:3:0:0:
436,226,86440,2,0,P|452:168|454:126,1,90,8|0,2:0|2:0,2:0:0:0:
452,27,86746,6,0,P|401:44|258:41,1,180,0|8,1:2|2:0,0:0:0:0:
182,12,87205,1,0,2:0:0:0:
106,92,87358,2,0,P|117:138|120:186,1,90,0|8,1:2|1:3,0:0:0:0:
261,133,87664,2,0,P|264:88|275:44,1,90,10|0,2:0|2:0,2:0:0:0:
309,259,87970,6,0,P|265:245|120:237,1,180,2|8,1:2|2:0,2:0:0:0:
46,314,88429,1,0,1:2:0:0:
41,124,88583,2,0,P|27:165|17:228,1,90,8|0,2:0|1:2,0:0:0:0:
153,112,88889,2,0,P|144:67|130:25,1,90,10|0,2:0|2:0,2:0:0:0:
132,235,89195,5,2,1:2:0:0:
255,177,89348,2,0,P|270:134|278:90,1,90,2|8,1:2|1:3,0:0:0:0:
288,320,89654,1,10,2:0:0:0:
387,143,89807,1,8,2:0:0:0:
438,379,89960,6,0,L|426:263,1,107.999996704102,10|2,0:0|0:0,0:0:0:0:
