osu file format v14

[General]
AudioFilename: audio.mp3
AudioLeadIn: 0
PreviewTime: 50394
Countdown: 0
SampleSet: Soft
StackLeniency: 0.7
Mode: 0
LetterboxInBreaks: 0
WidescreenStoryboard: 0

[Editor]
DistanceSpacing: 1.5
BeatDivisor: 4
GridSize: 16
TimelineZoom: 3.199999

[Metadata]
Title:courage (TV Size)
TitleUnicode:courage (TV Size)
Artist:Tomatsu Haruka
ArtistUnicode:戸松遥
Creator:Sotarks
Version:Kowari's Hard
Source:ソードアート・オンラインⅡ
Tags:sword art online anime opening op kirito asuna yuki 2nd japanese female vocalist sao kowari snownino_ reform kujinn basensorex
BeatmapID:2465859
BeatmapSetID:1182742

[Difficulty]
HPDrainRate:4
CircleSize:3.5
OverallDifficulty:6
ApproachRate:8
SliderMultiplier:1.3
SliderTickRate:1

[Events]
//Background and Video events
0,0,"bg.jpg",0,0
Video,919,"video.mp4"
//Break Periods
//Storyboard Layer 0 (Background)
//Storyboard Layer 1 (Fail)
//Storyboard Layer 2 (Pass)
//Storyboard Layer 3 (Foreground)
//Storyboard Layer 4 (Overlay)
//Storyboard Sound Samples

[TimingPoints]
1032,306.122448979592,4,2,2,40,1,0
2256,-133.333333333333,4,2,22,42,0,0
20623,-133.333333333333,4,2,22,52,0,0
20929,-100,4,2,22,52,0,0
21848,-100,4,2,22,62,0,0
22766,-111.111111111111,4,2,22,62,0,0
50470,-111.111111111111,4,2,22,42,0,0
50623,-111.111111111111,4,2,22,52,0,0
50929,-111.111111111111,4,2,22,62,0,0
51158,-111.111111111111,4,2,22,5,0,0
51236,-90.9090909090909,4,2,22,72,0,0
69603,-90.9090909090909,4,2,22,82,0,0
70215,-125,4,2,22,82,0,0
70521,-125,4,2,22,62,0,0
70827,-133.333333333333,4,2,22,52,0,0
75725,-125,4,2,22,52,0,0
79399,-125,4,2,22,72,0,0
80011,-111.111111111111,4,2,22,72,0,0
80623,-90.9090909090909,4,2,22,82,0,0

[Colours]
Combo1 : 191,105,203
Combo2 : 142,75,216
Combo3 : 222,54,54

[HitObjects]
78,23,2256,6,0,L|61:139,1,97.85750371933,2|0,2:0|2:0,2:0:0:0:
146,134,2715,2,0,L|132:242,1,97.85750371933,2|0,2:0|2:0,2:0:0:0:
196,293,3174,1,0,2:0:0:0:
196,293,3327,1,2,2:0:0:0:
485,113,4093,1,0,2:0:0:0:
383,21,4399,1,2,2:0:0:0:
341,150,4705,6,0,L|367:259,1,97.53900371933,2|0,2:0|2:0,2:0:0:0:
276,234,5164,2,0,L|302:343,1,97.85750371933,2|0,2:0|2:0,2:0:0:0:
225,377,5623,1,0,2:0:0:0:
225,377,5776,1,2,2:0:0:0:
107,307,6083,1,0,2:0:0:0:
107,307,6236,2,0,L|124:249,1,48.769501859665,2|0,2:0|2:0,2:0:0:0:
71,202,6542,2,0,L|88:144,1,48.769501859665,2|0,2:0|2:0,2:0:0:0:
31,101,6848,2,0,L|48:43,1,48.769501859665,2|0,2:0|3:2,0:0:0:0:
104,5,7154,6,0,P|145:5|161:205,1,292.50001115799,2|2,3:2|0:0,2:0:0:0:
305,344,8378,2,0,B|412:347|361:265|486:268,2,195.23725743866,2|2|2,2:0|2:0|2:0,2:0:0:0:
215,240,9909,1,2,2:0:0:0:
215,240,10062,1,2,2:0:0:0:
313,145,10368,1,2,2:0:0:0:
313,145,10521,2,0,L|302:96,1,49.088001859665,2|2,2:0|2:0,0:0:0:0:
269,22,10827,6,0,P|233:29|192:162,2,195.23725743866,2|2|4,2:0|2:0|2:0,2:0:0:0:
405,16,12358,5,2,2:0:0:0:
384,150,12664,2,0,L|370:263,1,97.53900371933,2|0,2:0|0:0,2:0:0:0:
360,383,13276,1,2,2:0:0:0:
360,383,13429,1,2,2:0:0:0:
255,295,13736,2,0,P|209:296|168:334,1,97.53900371933,2|0,2:0|2:0,2:0:0:0:
45,382,14348,5,0,2:0:0:0:
45,382,14501,1,2,2:0:0:0:
57,245,14807,2,0,L|64:185,1,49.088001859665,0|2,2:0|2:0,0:0:0:0:
75,113,15113,2,0,P|122:114|162:162,1,97.85750371933,2|0,2:0|0:0,2:0:0:0:
177,237,15572,5,0,2:0:0:0:
177,237,15725,2,0,L|235:227,1,49.088001859665,2|2,2:0|2:0,0:0:0:0:
340,156,16185,2,0,L|443:177,2,97.53900371933,2|0|0,2:0|2:0|2:0,2:0:0:0:
252,125,16950,6,0,P|251:92|357:42,2,146.308505578995,2|2|2,2:0|2:0|2:0,0:0:0:0:
295,259,18174,1,0,2:0:0:0:
295,259,18327,1,2,2:0:0:0:
336,383,18634,2,0,L|440:355,1,97.53900371933,0|2,2:0|2:0,0:0:0:0:
494,163,19399,6,0,L|338:137,1,146.308505578995,2|2,2:0|2:0,2:0:0:0:
286,91,20011,2,0,L|232:106,1,49.088001859665,2|0,3:2|3:2,0:0:0:0:
180,157,20317,2,0,L|133:143,1,49.088001859665,0|2,3:2|2:0,0:0:0:0:
40,112,20623,5,10,2:0:0:0:
40,112,20776,1,8,2:3:0:0:
3,202,20929,2,0,L|16:288,1,65.4506666666667,4|4,2:3|2:3,0:0:0:0:
24,362,21236,1,8,2:0:0:0:
108,312,21389,1,8,2:0:0:0:
398,278,21848,6,0,P|384:216|308:187,2,130.052,4|10|2,1:2|2:0|1:2,2:0:0:0:
330,334,22613,1,8,1:3:0:0:
330,334,22766,2,0,L|253:323,1,58.9055982147217,8|0,2:0|2:0,2:0:0:0:
191,352,23072,5,2,1:2:0:0:
191,352,23225,2,0,P|181:319|193:284,1,58.9055982147217,6|8,1:3|2:0,0:0:0:0:
242,229,23532,2,0,L|233:154,1,58.5233982147217,2|0,1:2|2:0,2:0:0:0:
162,121,23838,1,2,1:2:0:0:
162,121,23991,1,8,2:0:0:0:
218,53,24144,6,0,B|288:47|267:88|349:72,1,117.046796429443,6|0,1:2|2:0,2:0:0:0:
403,25,24603,1,10,2:0:0:0:
403,25,24756,1,0,2:0:0:0:
456,94,24909,2,0,L|441:233,1,117.428996429443,2|8,1:2|2:0,2:0:0:0:
486,286,25368,1,0,2:0:0:0:
410,330,25521,5,2,1:2:0:0:
410,330,25674,2,0,L|342:316,1,58.9055982147217,6|8,1:3|2:0,0:0:0:0:
303,245,25980,2,0,P|268:216|194:234,1,117.428996429443,2|2,1:2|1:2,2:0:0:0:
139,289,26440,1,8,2:0:0:0:
56,260,26593,6,0,B|23:226|23:226|42:148,1,117.046796429443,6|0,1:2|1:2,2:0:0:0:
79,80,27052,2,0,L|148:102,1,58.5233982147217,8|0,2:0|0:0,2:0:0:0:
217,128,27358,1,0,1:2:0:0:
217,128,27511,1,8,1:3:0:0:
267,56,27664,2,0,L|331:42,1,58.9055982147217,8|0,2:0|2:0,0:0:0:0:
408,19,27970,5,2,1:2:0:0:
408,19,28123,2,0,P|441:63|432:137,2,117.237896429443,6|2|10,1:3|1:2|1:3,0:0:0:0:
324,43,28889,2,0,L|267:56,1,58.5233982147217,8|0,2:0|2:0,2:0:0:0:
201,114,29195,2,0,B|147:110|160:72|78:71,1,117.046796429443,6|8,1:2|2:0,2:0:0:0:
18,116,29654,1,2,1:2:0:0:
65,190,29807,2,0,L|73:258,1,58.9055982147217,2|0,1:2|0:0,2:0:0:0:
155,221,30113,2,0,L|163:289,1,58.9055982147217,8|2,2:0|1:2,0:0:0:0:
170,366,30419,5,14,2:0:0:0:
282,230,30725,2,2,L|322:242,3,29.4527991073609,8|0|0|0,1:2|1:2|1:2|1:2,2:0:0:0:
347,260,31032,2,0,L|375:251,3,29.3253991073609,10|0|0|0,1:2|1:2|1:2|1:2,1:2:0:0:
409,224,31338,2,0,L|437:232,3,29.3253991073609,8|8|8|8,1:2|1:2|1:2|1:2,0:0:0:0:
479,243,31644,6,0,P|504:194|481:119,1,117.046796429443,6|8,1:2|2:0,2:0:0:0:
428,76,32103,1,2,1:2:0:0:
346,110,32256,2,0,L|264:125,1,58.9055982147217,8|0,2:0|1:2,0:0:0:0:
239,192,32562,2,0,L|157:177,1,58.9055982147217,10|0,2:0|1:2,0:0:0:0:
129,111,32868,6,0,B|93:161|93:161|101:227,1,117.428996429443,14|10,2:0|2:0,2:0:0:0:
118,301,33327,1,0,2:0:0:0:
202,326,33480,2,0,L|274:310,1,58.9055982147217,10|0,2:0|1:2,0:0:0:0:
291,231,33787,2,0,L|348:243,1,58.5233982147217,10|0,2:0|2:0,2:0:0:0:
413,184,34093,2,0,P|395:131|329:116,1,117.046796429443,4|0,1:2|1:2,2:0:0:0:
258,144,34552,1,0,1:2:0:0:
198,79,34705,6,0,B|152:71|152:71|129:88|129:88|83:84,1,117.046796429443,8|0,2:0|1:2,2:0:0:0:
7,45,35164,2,0,P|37:60|56:145,1,117.428996429443,8|8,2:0|2:0,2:0:0:0:
9,303,35776,1,4,1:2:0:0:
174,244,36083,2,0,L|313:265,1,117.046796429443,4|8,1:2|2:0,2:0:0:0:
343,330,36542,6,0,P|381:359|461:344,1,117.046796429443,6|8,1:2|2:0,2:0:0:0:
496,280,37001,1,2,1:2:0:0:
433,217,37154,2,0,L|440:153,1,58.5233982147217,8|0,2:0|1:2,0:0:0:0:
352,145,37460,2,0,L|345:203,1,58.9055982147217,10|0,2:0|1:2,0:0:0:0:
267,243,37766,6,0,B|219:238|233:206|155:201,1,117.428996429443,14|10,2:0|2:0,2:0:0:0:
73,217,38225,1,0,2:0:0:0:
47,132,38378,2,0,P|78:102|107:100,1,58.9055982147217,2|4,1:2|1:3,0:0:0:0:
91,11,38685,2,0,P|134:11|156:30,1,58.5233982147217,10|0,1:3|2:0,2:0:0:0:
194,92,38991,6,0,P|242:110|309:63,1,117.046796429443,4|0,1:2|2:0,2:0:0:0:
344,8,39450,1,0,1:2:0:0:
408,67,39603,2,0,B|435:101|435:101|423:187,1,117.046796429443,8|0,2:0|1:2,2:0:0:0:
360,233,40062,2,0,L|370:303,1,58.9055982147217,8|0,2:0|1:2,0:0:0:0:
376,378,40368,5,8,2:0:0:0:
376,378,40521,1,8,2:0:0:0:
297,338,40674,2,0,P|252:318|190:349,1,117.428996429443,4|0,1:2|1:2,2:0:0:0:
109,370,41134,2,0,L|70:362,3,29.3253991073609,10|0|0|0,2:0|1:0|1:0|1:0,2:0:0:0:
36,363,41440,6,0,L|55:225,1,117.046796429443,6|8,1:2|2:0,2:0:0:0:
137,228,41899,2,0,L|118:90,1,117.046796429443,2|8,2:0|1:3,2:0:0:0:
156,31,42358,2,0,P|186:20|214:25,1,58.9055982147217,10|0,2:0|2:0,2:0:0:0:
279,80,42664,6,0,P|318:110|390:95,1,117.428996429443,2|10,1:2|2:0,2:0:0:0:
454,51,43123,1,0,2:0:0:0:
494,129,43276,2,0,L|480:202,1,58.9055982147217,2|8,1:2|1:3,0:0:0:0:
402,222,43583,2,0,L|416:295,1,58.5233982147217,10|0,2:0|2:0,2:0:0:0:
353,343,43889,6,0,B|280:321|280:321|238:353,1,117.046796429443,6|8,1:2|2:0,2:0:0:0:
165,315,44348,1,6,1:3:0:0:
205,237,44501,2,0,P|231:193|214:125,1,117.046796429443,2|8,1:2|2:0,2:0:0:0:
150,74,44960,1,2,1:2:0:0:
68,106,45113,6,0,L|80:178,1,58.9055982147217,2|0,1:2|2:0,2:0:0:0:
19,229,45419,2,0,L|7:301,1,58.9055982147217,10|0,2:0|2:0,2:0:0:0:
66,353,45725,1,2,1:2:0:0:
129,292,45878,1,8,1:3:0:0:
189,355,46032,2,0,B|216:365|216:365|250:355,1,58.5233982147217,10|0,2:0|2:0,2:0:0:0:
294,284,46338,6,0,L|282:141,2,117.046796429443,4|8|0,1:2|2:0|1:2,2:0:0:0:
361,340,47103,1,8,1:3:0:0:
427,281,47256,2,0,P|442:246|436:213,1,58.9055982147217,10|0,2:0|2:0,2:0:0:0:
461,141,47562,6,0,P|447:97|376:58,2,117.237896429443,10|10|10,1:2|2:0|2:0,0:0:0:0:
379,172,48327,1,0,2:0:0:0:
379,172,48480,2,0,L|316:164,1,58.9055982147217,10|0,2:0|2:0,2:0:0:0:
215,232,48787,5,14,2:0:0:0:
215,232,48940,1,8,2:0:0:0:
125,81,49246,1,10,2:0:0:0:
125,81,49399,1,8,2:0:0:0:
294,31,49705,1,10,2:0:0:0:
294,31,49858,1,8,2:0:0:0:
32,376,50929,5,8,2:3:0:0:
32,376,51236,2,0,P|59:329|171:322,1,143.524337697347,6|10,1:2|2:0,2:0:0:0:
241,273,51695,2,0,L|228:356,1,71.5286021820069,2|0,2:0|1:2,2:0:0:0:
335,364,52001,2,0,L|348:281,1,71.5286021820069,10|8,1:3|2:0,0:0:0:0:
436,234,52307,1,2,2:0:0:0:
378,143,52460,6,0,B|309:122|317:182|218:157,1,143.524337697347,2|10,1:2|2:0,2:0:0:0:
176,75,52919,1,0,2:0:0:0:
79,121,53072,2,0,P|63:160|75:207,1,71.9957355153403,2|8,1:2|1:3,2:0:0:0:
168,235,53378,1,10,2:0:0:0:
168,235,53532,1,2,2:0:0:0:
239,161,53685,6,0,P|278:150|362:228,1,143.057204364014,0|8,1:2|2:0,2:0:0:0:
378,318,54144,1,0,0:0:0:0:
460,249,54297,2,0,L|478:167,1,71.5286021820069,0|10,1:2|1:3,0:0:0:0:
493,73,54603,1,10,2:0:0:0:
493,73,54756,1,0,2:0:0:0:
401,17,54909,6,0,P|356:31|330:69,1,71.9957355153403,0|4,1:2|1:3,0:0:0:0:
309,157,55215,1,8,2:0:0:0:
235,95,55368,1,0,0:0:0:0:
175,178,55521,2,0,B|82:166,1,71.5000021820069,2|4,1:2|1:3,0:0:0:0:
15,155,55827,2,0,P|-3:201|8:241,1,71.9957355153403,10|0,2:0|2:0,2:0:0:0:
82,304,56134,6,0,B|157:306|143:268|226:273,1,143.057204364014,6|10,1:2|2:0,2:0:0:0:
315,321,56593,2,0,P|324:285|317:233,1,71.5286021820069,2|0,2:0|1:2,2:0:0:0:
247,174,56899,2,0,P|245:138|254:103,1,71.5286021820069,10|8,1:3|2:0,0:0:0:0:
344,45,57205,1,2,2:0:0:0:
438,96,57358,6,0,L|431:261,1,143.524337697347,0|10,1:2|2:0,2:0:0:0:
495,325,57817,1,0,2:0:0:0:
398,372,57970,2,0,L|317:361,1,71.9957355153403,2|8,1:2|1:3,2:0:0:0:
240,298,58276,2,0,L|169:307,1,71.9957355153403,10|0,2:0|2:0,2:0:0:0:
81,369,58583,6,0,B|50:308|50:308|67:217,1,143.057204364014,2|10,1:2|2:0,2:0:0:0:
95,132,59042,1,2,2:0:0:0:
181,194,59195,1,0,1:2:0:0:
181,194,59348,1,8,1:3:0:0:
250,112,59501,2,0,P|258:64|248:27,1,71.5286021820069,8|0,2:0|2:0,0:0:0:0:
155,9,59807,5,4,1:2:0:0:
155,9,59960,1,8,2:0:0:0:
66,70,60113,2,0,L|80:154,1,71.9957355153403,8|4,1:3|1:3,0:0:0:0:
77,141,60343,1,0,1:0:0:0:
77,141,60419,2,0,L|64:225,1,71.9957355153403,10|8,2:0|2:3,0:0:0:0:
43,315,60725,1,6,2:3:0:0:
43,315,60878,1,6,2:3:0:0:
136,367,61032,6,0,B|219:337|219:337|282:364,1,143.057204364014,6|8,1:2|2:0,2:0:0:0:
374,378,61491,1,2,2:0:0:0:
447,300,61644,2,0,P|461:261|459:217,1,71.5286021820069,2|8,1:2|1:3,2:0:0:0:
354,228,61950,2,0,P|336:190|303:160,1,71.5286021820069,10|0,2:0|2:0,2:0:0:0:
209,148,62256,6,0,P|170:195|83:197,1,143.524337697347,2|8,1:2|2:0,2:0:0:0:
43,105,62715,1,2,2:0:0:0:
111,22,62868,2,0,L|194:41,1,71.9957355153403,2|8,1:2|1:3,0:0:0:0:
280,76,63174,2,0,L|349:60,1,71.9957355153403,10|0,2:0|0:0,2:0:0:0:
440,3,63480,6,0,B|484:36|484:36|459:136,1,143.524337697347,6|10,1:2|2:0,2:0:0:0:
365,167,63940,1,2,2:0:0:0:
441,242,64093,2,0,B|457:284|449:321,1,71.5286021820069,0|10,1:2|1:3,0:0:0:0:
357,364,64399,1,8,2:0:0:0:
357,364,64552,1,2,2:0:0:0:
283,285,64705,6,0,B|218:272|216:314|129:293,1,143.057204364014,2|10,1:2|2:0,2:0:0:0:
60,225,65164,1,0,2:0:0:0:
150,166,65317,2,0,P|164:121|157:83,1,71.9957355153403,2|8,1:2|1:3,0:0:0:0:
65,49,65623,2,0,P|51:94|58:132,1,71.9957355153403,10|0,2:0|2:0,2:0:0:0:
152,10,65929,6,0,L|305:-6,1,143.057204364014,6|10,1:2|2:0,2:0:0:0:
378,59,66389,1,2,2:0:0:0:
282,106,66542,2,0,P|263:145|268:190,1,71.5286021820069,0|8,1:2|1:3,0:0:0:0:
327,258,66848,1,8,2:0:0:0:
412,192,67001,6,0,L|485:179,1,71.5286021820069,0|0,2:0|1:2,0:0:0:0:
482,287,67307,2,0,L|409:300,1,71.9957355153403,8|0,2:0|1:2,0:0:0:0:
332,372,67613,1,8,2:0:0:0:
250,301,67766,2,0,B|238:264|238:264|245:227,1,71.9957355153403,8|4,2:3|2:3,0:0:0:0:
319,155,68072,2,0,L|301:37,1,107.99360327301,6|0,2:3|0:0,2:0:0:0:
296,12,68378,6,0,P|249:7|196:85,1,143.524337697347,6|8,1:2|2:0,2:0:0:0:
98,121,68838,1,0,1:2:0:0:
175,195,68991,2,0,L|187:276,1,71.5286021820069,10|0,2:0|1:2,0:0:0:0:
106,338,69297,1,10,2:0:0:0:
14,281,69450,1,2,1:2:0:0:
14,281,69603,1,4,1:2:0:0:
154,23,70062,5,2,0:0:0:0:
154,23,70215,2,0,L|271:37,1,104.0416,2|2,0:0|2:0,0:0:0:0:
403,31,70827,6,0,P|366:55|348:117,1,97.85750371933,6|0,2:0|2:0,2:0:0:0:
400,164,71287,2,0,P|423:196|424:266,2,97.53900371933,2|0|0,2:0|2:0|0:0,2:0:0:0:
320,181,72052,6,0,L|212:201,1,97.53900371933,2|0,2:0|2:0,2:0:0:0:
149,325,72664,2,0,L|257:305,1,97.85750371933,0|2,0:0|2:0,0:0:0:0:
323,280,73123,1,0,0:0:0:0:
323,280,73276,2,0,L|380:296,2,48.928751859665,2|0|0,2:0|2:0|2:0,0:0:0:0:
260,217,73736,1,2,2:0:0:0:
289,73,74042,2,0,L|301:15,2,48.769501859665,2|0|0,2:0|2:0|2:0,2:0:0:0:
216,124,74501,2,0,P|173:122|131:26,2,146.308505578995,2|2|2,2:0|2:0|2:0,2:0:0:0:
367,163,75725,6,0,L|476:142,1,104.381333333333,2|0,2:0|2:0,2:0:0:0:
492,217,76185,2,0,L|389:236,1,104.0416,2|2,2:0|2:0,2:0:0:0:
235,259,76797,1,2,2:0:0:0:
235,259,76950,2,0,P|188:276|166:340,1,104.0416,0|2,2:0|2:0,0:0:0:0:
53,212,77562,2,0,P|100:195|122:131,1,104.381333333333,2|2,2:0|2:0,2:0:0:0:
120,32,78174,6,0,B|182:27|168:62|243:49,1,104.381333333333,2|2,2:0|2:0,0:0:0:0:
291,18,78634,1,2,2:0:0:0:
320,90,78787,2,0,L|310:151,1,52.0208
249,187,79093,2,0,L|259:248,1,52.0208,0|0,3:2|0:0,0:0:0:0:
276,321,79399,5,4,1:2:0:0:
276,321,79552,1,8,2:0:0:0:
361,367,79705,1,8,2:0:0:0:
361,367,79858,1,4,1:3:0:0:
428,295,80011,2,0,P|446:239|423:167,1,117.428996429443,10|6,2:0|2:3,0:0:0:0:
369,123,80470,1,6,2:3:0:0:
297,202,80623,6,0,B|224:205|251:157|143:162,1,143.524337697347,6|8,1:2|2:0,2:0:0:0:
74,222,81083,1,2,2:0:0:0:
0,142,81236,2,0,L|17:51,1,71.5286021820069,2|8,1:2|1:3,0:0:0:0:
113,33,81542,2,0,L|99:103,1,71.5286021820069,10|0,2:0|2:0,2:0:0:0:
167,176,81848,6,0,P|244:171|283:92,1,143.057204364014,2|8,1:2|2:0,2:0:0:0:
298,15,82307,1,2,2:0:0:0:
403,35,82460,2,0,B|419:69|419:69|411:108,1,71.9957355153403,2|8,1:2|1:3,2:0:0:0:
359,195,82766,2,0,L|373:314,1,107.99360327301,10|0,2:0|2:0,2:0:0:0:
374,355,83072,6,0,B|323:357|323:357|289:336|289:336|227:340,1,143.524337697347,6|10,1:2|2:0,2:0:0:0:
129,335,83532,2,0,P|140:293|176:258,1,71.5286021820069,2|0,2:0|1:2,2:0:0:0:
84,192,83838,2,0,P|121:170|171:170,1,71.5286021820069,10|8,1:3|2:0,0:0:0:0:
246,212,84144,1,2,2:0:0:0:
340,161,84297,6,0,B|363:92|363:92|327:14,1,143.057204364014,2|10,1:2|2:0,2:0:0:0:
228,5,84756,1,0,2:0:0:0:
144,71,84909,2,0,L|58:59,1,71.9957355153403,2|8,1:2|2:3,2:0:0:0:
38,162,85215,2,0,L|108:171,1,71.9957355153403,10|0,2:0|2:0,2:0:0:0:
191,239,85521,6,0,P|236:267|246:362,1,143.524337697347,6|10,1:2|2:0,2:0:0:0:
353,382,85980,1,2,2:0:0:0:
426,304,86134,1,0,1:2:0:0:
426,304,86287,2,0,L|416:212,1,71.5286021820069,8|8,1:3|2:0,0:0:0:0:
335,164,86593,2,0,L|345:72,1,71.5286021820069,0|0,2:0|1:2,0:0:0:0:
274,10,86899,2,0,P|227:23|203:56,1,71.5286021820069,4|8,1:3|2:0,0:0:0:0:
108,11,87205,2,0,P|83:53|90:93,1,71.5286021820069,0|0,2:0|1:2,0:0:0:0:
158,152,87511,1,8,1:3:0:0:
158,152,87664,2,0,L|167:272,1,107.99360327301,10|0,2:0|0:0,2:0:0:0:
175,312,87970,5,2,1:2:0:0:
386,348,88276,2,0,L|399:261,1,71.9957355153403,8|0,2:0|1:2,0:0:0:0:
295,241,88583,2,0,L|308:154,1,71.5286021820069,8|0,2:0|1:2,0:0:0:0:
412,161,88889,2,0,L|425:74,1,71.5286021820069,10|0,2:0|2:0,2:0:0:0:
340,21,89195,5,2,1:2:0:0:
340,21,89348,1,2,1:2:0:0:
129,60,89654,1,10,2:0:0:0:
259,211,89960,1,10,2:0:0:0:
237,39,90266,1,2,2:0:0:0:
