osu file format v14

[General]
AudioFilename: audio.mp3
AudioLeadIn: 0
PreviewTime: 50394
Countdown: 0
SampleSet: Soft
StackLeniency: 0.4
Mode: 0
LetterboxInBreaks: 0
WidescreenStoryboard: 1

[Editor]
DistanceSpacing: 1.1
BeatDivisor: 4
GridSize: 16
TimelineZoom: 1.5

[Metadata]
Title:courage (TV Size)
TitleUnicode:courage (TV Size)
Artist:Tomatsu Haruka
ArtistUnicode:戸松遥
Creator:Sotarks
Version:Basen's Normal
Source:ソードアート・オンラインⅡ
Tags:sword art online anime opening op kirito asuna yuki 2nd japanese female vocalist sao kowari snownino_ reform kujinn basensorex
BeatmapID:2468632
BeatmapSetID:1182742

[Difficulty]
HPDrainRate:3.2
CircleSize:3
OverallDifficulty:4.2
ApproachRate:5.6
SliderMultiplier:0.999999999999999
SliderTickRate:1

[Events]
//Background and Video events
0,0,"bg.jpg",0,0
Video,919,"video.mp4"
//Break Periods
2,12252,19513
//Storyboard Layer 0 (Background)
//Storyboard Layer 1 (Fail)
//Storyboard Layer 2 (Pass)
//Storyboard Layer 3 (Foreground)
//Storyboard Layer 4 (Overlay)
//Storyboard Sound Samples

[TimingPoints]
1032,306.122448979592,4,2,2,40,1,0
2256,-125,4,2,22,42,0,0
20623,-111.111111111111,4,2,22,52,0,0
21848,-111.111111111111,4,2,22,62,0,0
50470,-111.111111111111,4,2,22,42,0,0
50623,-111.111111111111,4,2,22,52,0,0
50929,-111.111111111111,4,2,22,62,0,0
51236,-100,4,2,22,72,0,1
70062,-100,4,2,22,82,0,1
70521,-100,4,2,22,62,0,1
70827,-111.111111111111,4,2,22,52,0,0
75725,-105.263157894737,4,2,22,52,0,0
79399,-105.263157894737,4,2,22,72,0,0
80623,-100,4,2,22,82,0,1
90266,-100,4,2,22,82,0,0

[Colours]
Combo1 : 191,105,203
Combo2 : 142,75,216
Combo3 : 222,54,54

[HitObjects]
33,342,2256,6,0,P|91:360|151:337,1,120.048,2|2,2:0|2:0,2:0:0:0:
213,285,3021,2,0,P|238:282|263:286,1,40.016,0|0,2:0|2:0,2:0:0:0:
294,294,3327,1,2,2:0:0:0:
294,294,4093,2,0,P|333:305|387:294,1,80.0319999999999,0|2,2:0|2:0,2:0:0:0:
447,255,4705,6,0,L|435:123,1,120.048,2|2,2:0|2:0,2:0:0:0:
427,47,5470,2,0,P|402:44|377:48,1,40.016,0|0,2:0|2:0,2:0:0:0:
345,60,5776,1,2,2:0:0:0:
283,123,6083,2,0,P|243:134|189:123,1,80.0319999999999,0|0,2:0|2:0,2:0:0:0:
168,154,6542,2,0,P|128:142|74:153,1,80.0319999999999,2|2,2:0|2:0,2:0:0:0:
13,105,7154,1,2,3:2:0:0:
256,192,7307,12,4,12052,2:0:0:0:
13,105,20623,6,0,L|21:200,1,90.035997253418,10|4,2:0|2:3,2:0:0:0:
31,289,21236,1,8,2:0:0:0:
31,289,21389,1,8,2:0:0:0:
150,350,21848,6,0,P|189:338|243:349,1,90.035997253418,4|10,1:2|2:0,2:0:0:0:
312,297,22460,2,0,P|351:308|405:297,1,90.035997253418,2|8,1:2|2:0,2:0:0:0:
471,245,23072,1,2,1:2:0:0:
471,245,23225,2,0,L|462:149,2,90.035997253418,6|2|2,1:3|1:2|1:2,2:0:0:0:
399,300,24144,6,0,B|351:304|351:304|322:319|322:319|260:326,1,135.053995880127,6|10,1:2|2:0,2:0:0:0:
227,328,24756,1,0,2:0:0:0:
227,328,24909,2,0,P|215:288|226:234,1,90.035997253418,2|8,1:2|2:0,2:0:0:0:
174,172,25521,1,2,1:2:0:0:
174,172,25674,2,0,P|185:132|174:78,2,90.035997253418,6|2|2,1:3|1:2|1:2,2:0:0:0:
98,220,26593,6,0,P|167:211|230:248,1,135.053995880127,6|8,1:2|2:0,2:0:0:0:
284,305,27358,2,0,L|278:368,2,45.017998626709,0|8|8,1:2|1:3|2:0,2:0:0:0:
364,262,27970,1,2,1:2:0:0:
364,262,28123,2,0,L|372:166,1,90.035997253418,6|2,1:3|1:2,2:0:0:0:
317,100,28736,2,0,P|277:88|223:99,1,90.035997253418,10|0,1:3|2:0,2:0:0:0:
190,118,29195,6,0,B|160:152|160:152|169:248,1,135.053995880127,6|2,1:2|1:2,2:0:0:0:
177,286,29807,2,0,B|223:273|246:296|246:296|269:320|315:308,1,135.053995880127,2|2,1:2|1:2,2:0:0:0:
346,296,30419,1,14,2:0:0:0:
424,339,30725,1,8,1:2:0:0:
499,289,31032,1,10,1:2:0:0:
499,289,31644,6,0,B|476:226|476:226|504:147,2,135.053995880127,6|2|10,1:2|1:2|2:0,2:0:0:0:
421,339,32868,1,14,2:0:0:0:
342,295,33174,1,10,2:0:0:0:
268,346,33480,2,0,P|228:357|174:346,1,90.035997253418,10|10,2:0|2:0,2:0:0:0:
95,321,34093,6,0,L|89:383,2,45.017998626709,4|0|0,1:2|2:0|1:2,2:0:0:0:
43,247,34705,1,8,2:0:0:0:
112,189,35011,1,0,1:2:0:0:
112,189,35164,2,0,L|117:125,2,45.017998626709,8|0|8,2:0|2:0|2:0,2:0:0:0:
167,260,35776,1,4,1:2:0:0:
243,212,36083,2,0,L|251:116,1,90.035997253418,4|8,1:2|2:0,2:0:0:0:
256,77,36542,6,0,B|302:64|325:87|325:87|348:111|394:99,2,135.053995880127,6|2|10,1:2|1:2|2:0,2:0:0:0:
171,107,37766,1,14,2:0:0:0:
100,51,38072,1,10,2:0:0:0:
24,99,38378,2,0,B|13:148|13:148|24:199,1,90.035997253418,2|10,1:2|1:3,2:0:0:0:
86,249,38991,6,0,P|92:270|93:292,2,45.017998626709,4|0|0,1:2|2:0|2:0,2:0:0:0:
155,192,39603,1,8,2:0:0:0:
226,256,39909,1,0,1:2:0:0:
226,256,40062,2,0,P|219:277|218:299,2,45.017998626709,8|0|8,2:0|1:2|2:0,2:0:0:0:
292,195,40674,2,0,L|387:186,1,90.035997253418,4|0,1:2|1:2,2:0:0:0:
426,183,41134,1,10,2:0:0:0:
428,272,41440,6,0,B|380:276|380:276|351:291|351:291|289:298,2,135.053995880127,6|2|10,1:2|2:0|2:0,2:0:0:0:
489,206,42664,2,0,L|480:110,1,90.035997253418,2|10,1:2|2:0,2:0:0:0:
407,64,43276,2,0,L|311:72,1,90.035997253418,2|10,1:2|2:0,2:0:0:0:
227,83,43889,6,0,B|211:130|211:130|218:182,1,90.035997253418,6|8,1:2|2:0,2:0:0:0:
181,195,44348,1,6,1:3:0:0:
181,195,44501,2,0,B|196:242|196:242|189:294,1,90.035997253418,2|8,1:2|2:0,2:0:0:0:
184,330,44960,1,2,1:2:0:0:
184,330,45113,2,0,P|223:341|277:330,1,90.035997253418,2|10,1:2|2:0,2:0:0:0:
351,292,45725,1,2,1:2:0:0:
427,339,46032,1,10,2:0:0:0:
499,286,46338,6,0,L|490:190,2,90.035997253418,4|8|0,1:2|2:0|1:2,2:0:0:0:
427,339,47256,1,10,2:0:0:0:
351,292,47562,2,0,P|307:280|264:288,1,90.035997253418,10|10,1:2|2:0,2:0:0:0:
183,248,48174,2,0,P|139:259|96:251,1,90.035997253418,10|10,2:0|2:0,2:0:0:0:
26,193,48787,6,0,L|34:97,1,90.035997253418,14|2,2:0|1:2,2:0:0:0:
41,58,49246,2,0,B|87:45|110:68|110:68|133:92|179:80,1,135.053995880127,10|10,2:0|2:0,2:0:0:0:
210,68,49858,1,8,2:0:0:0:
214,72,50470,1,2,2:0:0:0:
214,72,50623,2,0,L|222:167,1,90.035997253418,2|8,2:0|2:3,2:0:0:0:
160,241,51236,6,0,P|208:263|261:256,1,100.04,6|10,1:2|2:0,2:0:0:0:
302,269,51695,2,0,P|350:246|403:254,1,100.04,2|10,2:0|1:3,2:0:0:0:
442,267,52154,1,8,2:0:0:0:
418,364,52460,2,0,L|306:373,2,100.04,2|10|2,1:2|2:0|1:2,2:0:0:0:
446,271,53378,1,10,2:0:0:0:
446,271,53532,6,0,B|442:216|442:216|425:183|425:183|419:112,2,149.896666666667,2|8|10,2:0|2:0|1:3,2:0:0:0:
445,320,54603,2,0,P|352:357|260:323,1,200.08,10|8,2:0|2:0,2:0:0:0:
193,251,55521,1,2,1:2:0:0:
107,302,55827,1,10,2:0:0:0:
30,237,56134,6,0,P|7:189|15:136,1,100.04,6|10,1:2|2:0,2:0:0:0:
37,100,56593,2,0,L|149:91,1,100.04,2|10,2:0|1:3,2:0:0:0:
202,167,57205,2,0,L|374:152,1,150.06,2|10,2:0|2:0,2:0:0:0:
434,210,57970,1,2,1:2:0:0:
506,141,58276,1,10,2:0:0:0:
456,54,58583,6,0,B|409:38|409:38|357:45,1,100.04,2|10,1:2|2:0,2:0:0:0:
319,74,59042,2,0,P|289:149|316:223,2,150.06,2|8|8,2:0|2:0|2:0,2:0:0:0:
359,44,60113,1,8,1:3:0:0:
458,47,60419,1,10,2:0:0:0:
483,143,60725,2,0,L|477:206,1,50.02,6|6,2:3|2:3,2:0:0:0:
472,242,61032,6,0,P|495:290|487:343,1,99.7133333333333,6|8,1:2|2:0,2:0:0:0:
396,369,61644,1,2,1:2:0:0:
308,320,61950,1,10,2:0:0:0:
215,359,62256,2,0,L|103:368,1,100.04,2|8,1:2|2:0,2:0:0:0:
29,315,62868,1,2,1:2:0:0:
22,215,63174,1,10,2:0:0:0:
97,149,63480,6,0,L|209:140,1,100.04,6|10,1:2|2:0,2:0:0:0:
227,180,63940,2,0,L|339:189,1,100.04,2|10,2:0|1:3,2:0:0:0:
375,197,64399,1,8,2:0:0:0:
461,147,64705,2,0,P|465:97|442:53,1,100.04,2|10,1:2|2:0,2:0:0:0:
349,16,65317,1,2,1:2:0:0:
255,50,65623,1,10,2:0:0:0:
159,21,65929,6,0,L|150:133,1,100.04,6|10,1:2|2:0,2:0:0:0:
106,143,66389,2,0,B|110:198|110:198|127:231|127:231|133:302,1,150.06,2|8,2:0|2:0,2:0:0:0:
198,362,67154,1,0,1:2:0:0:
294,336,67460,2,0,L|357:341,2,50.02,0|8|8,1:2|2:0|2:3,2:0:0:0:
263,240,68072,1,6,2:3:0:0:
166,265,68378,5,6,1:2:0:0:
166,265,68991,2,0,P|118:288|65:280,1,100.04,10|10,2:0|2:0,2:0:0:0:
24,271,69450,1,2,1:2:0:0:
28,275,70062,1,0,2:0:0:0:
28,275,70215,2,0,L|19:163,1,100.04,2|2,2:0|2:0,2:0:0:0:
65,97,70827,6,0,P|104:85|158:96,1,90.035997253418,6|0,2:0|2:0,2:0:0:0:
192,72,71287,2,0,P|231:84|285:73,1,90.035997253418,2|0,2:0|2:0,2:0:0:0:
363,119,71899,1,0,2:0:0:0:
363,119,72052,2,0,L|370:217,2,90.035997253418,2|0|0,2:0|2:0|2:0,2:0:0:0:
355,29,72970,5,2,2:0:0:0:
355,29,73123,2,0,B|268:4|225:47|225:47|182:92|96:70,1,270.107991760254,0|2,2:0|2:0,2:0:0:0:
57,60,74195,1,0,2:0:0:0:
57,60,75113,1,0,2:0:0:0:
8,135,75419,1,2,2:0:0:0:
47,221,75725,6,0,L|142:229,1,95.0379974632263,2|0,2:0|2:0,2:0:0:0:
158,274,76185,2,0,L|253:265,1,95.0379974632263,2|2,2:0|2:0,2:0:0:0:
304,345,76797,2,0,P|348:285|327:207,1,142.556996194839,2|2,2:0|2:0,2:0:0:0:
267,157,77562,1,2,2:0:0:0:
329,85,77868,1,2,2:0:0:0:
256,24,78174,6,0,L|160:32,1,95.0379974632263,2|2,2:0|2:0,2:0:0:0:
114,40,78634,2,0,B|119:94|119:94|108:130|108:130|115:201,1,142.556996194839,2|0,2:0|3:2,2:0:0:0:
63,261,79399,1,4,1:2:0:0:
122,336,79705,2,0,L|185:341,1,47.5189987316131,8|4,2:0|1:3,2:0:0:0:
216,346,80011,1,10,2:0:0:0:
300,302,80317,2,0,P|307:277|308:251,1,47.5189987316131,6|6,2:3|2:3,2:0:0:0:
290,208,80623,6,0,P|242:185|189:193,1,100.04,6|8,1:2|2:0,2:0:0:0:
152,208,81083,1,2,2:0:0:0:
152,208,81236,2,0,L|142:96,1,100.04,2|10,1:2|2:0,2:0:0:0:
199,25,81848,1,2,1:2:0:0:
283,77,82154,1,8,2:0:0:0:
373,33,82460,2,0,P|417:10|466:14,1,100.04,2|10,1:2|2:0,2:0:0:0:
499,109,83072,6,0,L|489:220,1,100.04,6|10,1:2|2:0,2:0:0:0:
449,237,83532,2,0,L|458:348,1,99.7133333333333,2|10,2:0|1:3,2:0:0:0:
368,377,84144,1,2,2:0:0:0:
368,377,84297,2,0,P|343:369|317:368,1,50.02,2|0,1:2|2:0,2:0:0:0:
269,371,84603,1,10,2:0:0:0:
185,316,84909,1,2,1:2:0:0:
97,364,85215,1,10,2:0:0:0:
12,310,85521,6,0,L|21:198,1,100.04,6|10,1:2|2:0,2:0:0:0:
25,160,85980,2,0,B|74:146|98:170|98:170|123:196|172:183,1,150.06,2|8,2:0|2:0,2:0:0:0:
254,138,86746,1,0,1:2:0:0:
303,225,87052,2,0,L|312:336,1,100.04,8|0,2:0|1:2,2:0:0:0:
402,368,87664,1,10,2:0:0:0:
491,322,87970,5,2,1:2:0:0:
453,229,88276,2,0,L|458:165,2,50.02,8|0|8,2:0|1:2|2:0,2:0:0:0:
360,267,88889,1,10,2:0:0:0:
296,197,89195,1,2,1:2:0:0:
296,197,89348,2,0,P|251:174|202:178,1,100.04,2|10,1:2|2:0,2:0:0:0:
109,213,89960,1,10,2:0:0:0:
30,151,90266,1,2,2:0:0:0:
